osu file format v14

[General]
AudioFilename: audio.mp3
AudioLeadIn: 0
PreviewTime: 47648
Countdown: 0
SampleSet: Normal
StackLeniency: 0.7
Mode: 0
LetterboxInBreaks: 0
WidescreenStoryboard: 0

[Editor]
Bookmarks: 5333,28069,69754,89964
DistanceSpacing: 0.8
BeatDivisor: 4
GridSize: 4
TimelineZoom: 1

[Metadata]
Title:Empty MERMAiD
TitleUnicode:Empty MERMAiD
Artist:LiSA
ArtistUnicode:LiSA
Creator:Janpai
Version:Insane
Source:
Tags:cut version risa oribe MugiwaraSekai Akitoshi
BeatmapID:976594
BeatmapSetID:455639

[Difficulty]
HPDrainRate:6
CircleSize:4
OverallDifficulty:7
ApproachRate:9
SliderMultiplier:1.7
SliderTickRate:1

[Events]
//Background and Video events
0,0,"Mermaidzxc.jpg",0,0
//Break Periods
//Storyboard Layer 0 (Background)
//Storyboard Layer 1 (Fail)
//Storyboard Layer 2 (Pass)
//Storyboard Layer 3 (Foreground)
//Storyboard Sound Samples

[TimingPoints]
280.469231182594,315.789473684211,4,1,1,70,1,0
17964,-100,4,1,1,60,0,0
27754,-100,4,1,1,70,0,0
38175,-125,4,1,1,70,0,0
43227,-125,4,3,1,70,0,0
45754,-100,4,1,1,70,0,0
48280,-100,4,1,1,80,0,1
55859,-125,4,1,1,80,0,1
58385,-100,4,1,1,80,0,1
63438,-125,4,1,1,80,0,0
68490,-100,4,1,1,70,0,0
90122,-100,4,1,1,20,0,0

[Colours]
Combo1 : 192,192,192
Combo2 : 0,128,192
Combo3 : 47,187,255
Combo4 : 128,128,128

[HitObjects]
82,59,5333,6,0,P|62:103|62:158,1,85,6|0,0:0|0:0,0:0:0:0:
120,250,5648,2,0,L|222:247,1,85,8|0,0:0|0:0,0:0:0:0:
384,270,5964,1,2,0:0:0:0:
242,150,6122,1,0,0:0:0:0:
282,305,6280,1,8,0:0:0:0:
362,145,6438,1,0,0:0:0:0:
476,270,6596,6,0,L|476:163,1,85,2|0,0:0|0:0,0:0:0:0:
406,73,6912,2,0,P|354:61|311:77,1,85,8|0,0:0|0:0,0:0:0:0:
207,200,7227,1,2,0:0:0:0:
362,145,7385,1,2,0:0:0:0:
196,71,7543,1,8,0:0:0:0:
348,181,7701,1,0,0:0:0:0:
278,36,7859,6,0,L|276:128,1,85,2|0,0:0|0:0,0:0:0:0:
131,308,8175,2,0,L|133:216,1,85,8|0,0:0|0:0,0:0:0:0:
275,206,8490,1,2,0:0:0:0:
136,119,8648,1,0,0:0:0:0:
224,279,8806,1,8,0:0:0:0:
296,104,8964,1,0,0:0:0:0:
372,241,9122,6,0,L|468:229,1,85,2|0,0:0|0:0,0:0:0:0:
275,341,9438,2,0,L|179:329,1,85,8|0,0:0|0:0,0:0:0:0:
64,216,9754,1,2,0:0:0:0:
239,252,9912,1,8,0:0:0:0:
56,311,10069,1,0,0:0:0:0:
169,184,10227,1,8,0:0:0:0:
71,81,10385,6,0,P|122:69|169:77,1,85,6|0,0:0|0:0,0:0:0:0:
262,123,10701,2,0,P|313:135|360:127,1,85,8|0,0:0|0:0,0:0:0:0:
474,55,11017,1,2,0:0:0:0:
398,204,11175,1,0,0:0:0:0:
318,48,11333,1,8,0:0:0:0:
484,150,11490,1,0,0:0:0:0:
327,262,11648,6,0,B|280:267|280:267|233:259,1,85,2|0,0:0|0:0,0:0:0:0:
110,301,11964,2,0,L|105:216,1,85,8|0,0:0|0:0,0:0:0:0:
196,41,12280,1,2,0:0:0:0:
186,210,12438,1,2,0:0:0:0:
240,47,12596,1,8,0:0:0:0:
72,121,12754,1,0,0:0:0:0:
274,125,12912,6,0,L|379:122,1,85,2|0,0:0|0:0,0:0:0:0:
475,74,13227,2,0,L|479:165,1,85,8|0,0:0|0:0,0:0:0:0:
326,297,13543,1,2,0:0:0:0:
396,155,13701,1,0,0:0:0:0:
405,336,13859,1,8,0:0:0:0:
301,213,14017,1,0,0:0:0:0:
187,317,14175,6,0,L|98:314,1,85,2|0,0:0|0:0,0:0:0:0:
12,133,14490,2,0,L|101:130,1,85,8|0,0:0|0:0,0:0:0:0:
247,206,14806,1,2,0:0:0:0:
180,39,14964,1,8,0:0:0:0:
129,223,15122,1,0,0:0:0:0:
208,43,15280,1,8,0:0:0:0:
307,129,15438,6,0,P|354:140|404:140,1,85,6|2,0:0|0:0,0:0:0:0:
473,71,15754,1,2,0:0:0:0:
396,279,16069,1,2,0:0:0:0:
223,213,16385,1,2,0:0:0:0:
360,60,16701,5,2,0:0:0:0:
288,269,17017,1,2,0:0:0:0:
207,84,17333,1,2,0:0:0:0:
55,269,17648,1,8,0:0:0:0:
81,248,17726,1,2,0:0:0:0:
113,236,17805,1,8,0:0:0:0:
147,234,17884,1,2,0:0:0:0:
178,247,17964,6,0,P|210:262|263:262,1,85,6|2,0:0|0:0,0:0:0:0:
387,176,18280,1,8,0:0:0:0:
387,176,18596,1,8,0:0:0:0:
315,340,18912,1,2,0:0:0:0:
278,162,19227,6,0,L|189:158,1,85,8|0,0:0|0:0,0:0:0:0:
115,72,19543,2,0,L|199:75,1,85,8|0,0:0|0:0,0:0:0:0:
293,30,19859,1,2,0:0:0:0:
368,92,20017,1,2,0:0:0:0:
449,38,20175,2,0,L|456:123,1,85,8|0,0:0|0:0,0:0:0:0:
416,271,20490,6,0,P|376:258|332:271,1,85,2|2,0:0|0:0,0:0:0:0:
202,334,20806,1,8,0:0:0:0:
202,334,21122,1,8,0:0:0:0:
96,111,21438,1,2,0:0:0:0:
50,212,21754,6,0,B|93:204|93:204|140:210,1,85,8|0,0:0|0:0,0:0:0:0:
220,252,22069,2,0,L|308:254,1,85,8|0,0:0|0:0,0:0:0:0:
382,189,22385,1,2,0:0:0:0:
464,263,22543,1,2,0:0:0:0:
475,154,22701,2,0,L|479:62,1,85,8|0,0:0|0:0,0:0:0:0:
327,15,23017,6,0,L|323:99,1,85,6|2,0:0|0:0,0:0:0:0:
111,161,23333,1,8,0:0:0:0:
111,161,23648,1,8,0:0:0:0:
235,43,23964,1,2,0:0:0:0:
242,243,24280,6,0,L|157:245,1,85,8|0,0:0|0:0,0:0:0:0:
240,336,24596,2,0,L|325:334,1,85,8|0,0:0|0:0,0:0:0:0:
420,277,24912,1,2,0:0:0:0:
342,201,25069,1,2,0:0:0:0:
413,119,25227,2,0,P|422:73|422:32,1,85,8|0,0:0|0:0,0:0:0:0:
226,145,25543,6,0,P|217:191|217:232,1,85,2|2,0:0|0:0,0:0:0:0:
337,321,25859,1,8,0:0:0:0:
337,321,26175,1,8,0:0:0:0:
116,288,26490,1,2,0:0:0:0:
43,143,26806,6,0,L|139:135,1,85,8|0,0:0|0:0,0:0:0:0:
195,70,27122,2,0,L|291:62,1,85,8|0,0:0|0:0,0:0:0:0:
364,124,27438,1,2,0:0:0:0:
427,38,27596,1,2,0:0:0:0:
468,133,27754,1,8,0:0:0:0:
469,166,27832,1,0,0:0:0:0:
471,200,27911,1,8,0:0:0:0:
473,234,27990,1,0,0:0:0:0:
475,268,28069,6,0,L|378:268,1,85,6|0,0:0|0:0,0:0:0:0:
304,180,28385,1,8,0:0:0:0:
218,259,28543,2,0,P|172:288|77:227,1,170,2|2,0:0|0:0,0:0:0:0:
158,59,29017,2,0,L|157:143,1,85,8|0,0:0|0:0,0:0:0:0:
304,303,29333,6,0,L|304:218,1,85,2|0,0:0|0:0,0:0:0:0:
306,33,29648,1,8,0:0:0:0:
403,133,29806,2,0,L|215:125,1,170,2|2,0:0|0:0,0:0:0:0:
93,78,30280,2,0,L|103:182,1,85,8|0,0:0|0:0,0:0:0:0:
173,282,30596,6,0,L|280:276,1,85,2|0,0:0|0:0,0:0:0:0:
361,340,30912,1,8,0:0:0:0:
477,223,31069,2,0,P|417:180|328:229,1,170,2|2,0:0|0:0,0:0:0:0:
229,341,31543,2,0,P|211:280|211:243,1,85,8|0,0:0|0:0,0:0:0:0:
266,72,31859,6,0,P|284:133|284:170,1,85,2|0,0:0|0:0,0:0:0:0:
301,291,32175,1,8,0:0:0:0:
189,137,32333,1,0,0:0:0:0:
71,247,32490,1,2,0:0:0:0:
71,247,32569,1,0,0:0:0:0:
71,247,32648,1,2,0:0:0:0:
71,247,32727,1,0,0:0:0:0:
71,247,32806,2,0,L|166:247,1,85,8|0,0:0|0:0,0:0:0:0:
276,317,33122,6,0,P|305:268|305:226,1,85,6|0,0:0|0:0,0:0:0:0:
319,99,33438,1,8,0:0:0:0:
189,137,33596,2,0,P|114:170|45:127,1,170,2|2,0:0|0:0,0:0:0:0:
162,49,34069,2,0,L|258:43,1,85,8|0,0:0|0:0,0:0:0:0:
398,34,34385,6,0,B|408:88|408:88|405:134,1,85,2|0,0:0|0:0,0:0:0:0:
341,287,34701,1,8,0:0:0:0:
252,186,34859,2,0,L|431:196,1,170,2|2,0:0|0:0,0:0:0:0:
246,283,35333,2,0,L|147:276,1,85,8|0,0:0|0:0,0:0:0:0:
71,213,35648,6,0,L|60:125,1,85,2|0,0:0|0:0,0:0:0:0:
198,33,35964,2,0,L|187:121,1,85,8|0,0:0|0:0,0:0:0:0:
313,212,36280,2,0,L|302:124,1,85,8|0,0:0|0:0,0:0:0:0:
208,210,36596,1,2,0:0:0:0:
400,150,36754,1,0,0:0:0:0:
209,310,36912,6,0,P|162:311|120:308,1,85,8|2,0:0|0:0,0:0:0:0:
28,150,37227,2,0,P|75:149|117:152,1,85,8|0,0:0|0:0,0:0:0:0:
252,177,37543,1,2,0:0:0:0:
272,65,37701,1,0,0:0:0:0:
272,65,37859,2,0,L|168:48,1,85,8|0,0:0|0:0,0:0:0:0:
252,177,38175,6,0,L|393:156,1,136,6|2,0:0|0:0,0:0:0:0:
463,108,38648,1,0,0:0:0:0:
468,197,38806,2,0,L|470:268,1,68,8|0,0:0|0:0,0:0:0:0:
374,332,39122,2,0,L|372:264,1,68,2|2,0:0|0:0,0:0:0:0:
333,79,39438,6,0,P|288:60|196:60,1,136,2|2,0:0|0:0,0:0:0:0:
144,142,39912,1,0,0:0:0:0:
56,90,40069,2,0,L|56:174,1,68,8|0,0:0|0:0,0:0:0:0:
113,228,40385,2,0,L|113:312,1,68,2|2,0:0|0:0,0:0:0:0:
209,340,40701,6,0,P|253:305|348:332,1,136,2|2,0:0|0:0,0:0:0:0:
427,341,41175,1,0,0:0:0:0:
427,341,41333,2,0,P|437:294|437:261,1,68,8|0,0:0|0:0,0:0:0:0:
361,218,41648,2,0,P|351:171|351:138,1,68,2|2,0:0|0:0,0:0:0:0:
444,65,41964,6,0,B|382:54|382:54|295:59,1,136,2|2,0:0|0:0,0:0:0:0:
218,27,42438,1,0,0:0:0:0:
140,84,42596,2,0,P|129:123|129:157,1,68,8|0,0:0|0:0,0:0:0:0:
205,251,42912,2,0,P|216:212|216:178,1,68,2|2,0:0|0:0,0:0:0:0:
330,112,43227,6,0,P|308:161|308:245,1,136,0|0,0:3|3:0,0:0:0:0:
309,332,43701,2,0,P|272:356|186:330,1,136
139,269,44175,2,0,L|50:270,1,68
48,163,44490,6,0,B|100:163|100:163|136:151|136:151|188:151,1,136
244,85,44964,2,0,P|306:62|381:101,1,136
426,150,45438,2,0,L|423:230,1,68
373,333,45754,6,0,P|306:350|254:268,1,170,2|8,0:0|0:0,0:0:0:0:
349,151,46227,1,2,0:0:0:0:
349,151,46306,1,0,0:0:0:0:
349,151,46385,1,10,0:0:0:0:
160,202,46543,1,0,0:0:0:0:
284,77,46701,1,8,0:0:0:0:
282,249,46859,1,0,0:0:0:0:
175,107,47017,5,8,0:0:0:0:
104,284,47175,1,8,0:0:0:0:
233,179,47333,1,8,0:0:0:0:
40,170,47490,1,8,0:0:0:0:
227,53,47648,2,0,L|57:65,1,170
38,293,48280,6,0,L|128:282,1,85,6|0,0:0|0:0,0:0:0:0:
263,325,48596,2,0,L|271:232,1,85,8|0,0:0|0:0,0:0:0:0:
422,132,48912,1,2,0:0:0:0:
343,279,49069,1,0,0:0:0:0:
271,112,49227,1,8,0:0:0:0:
86,217,49385,6,0,P|141:244|216:170,1,170,2|2,0:0|0:0,0:0:0:0:
353,52,49859,2,0,P|346:106|346:139,1,85,8|0,0:0|0:0,0:0:0:0:
459,297,50175,2,0,P|466:243|466:210,1,85,2|0,0:0|0:0,0:0:0:0:
333,269,50490,2,0,L|228:266,1,85,8|0,0:0|0:0,0:0:0:0:
98,303,50806,6,0,L|108:214,1,85,2|0,0:0|0:0,0:0:0:0:
201,74,51122,2,0,L|211:163,1,85,8|0,0:0|0:0,0:0:0:0:
263,326,51438,1,2,0:0:0:0:
358,178,51596,1,0,0:0:0:0:
423,326,51754,1,8,0:0:0:0:
260,221,51912,6,0,P|204:208|142:298,1,170,2|2,0:0|0:0,0:0:0:0:
346,265,52385,2,0,L|453:237,1,85,8|0,0:0|0:0,0:0:0:0:
315,92,52701,2,0,L|208:64,1,85,2|0,0:0|0:0,0:0:0:0:
96,201,53017,1,8,0:0:0:0:
105,27,53175,1,0,0:0:0:0:
96,201,53333,6,0,P|144:193|190:201,1,85,6|0,0:0|0:0,0:0:0:0:
254,287,53648,2,0,P|302:295|348:287,1,85,8|0,0:0|0:0,0:0:0:0:
470,201,53964,1,2,0:0:0:0:
312,192,54122,1,0,0:0:0:0:
420,328,54280,1,8,0:0:0:0:
312,192,54438,6,0,L|137:181,1,170,2|2,0:0|0:0,0:0:0:0:
78,324,54912,2,0,P|67:268|69:238,1,85,8|0,0:0|0:0,0:0:0:0:
224,27,55227,2,0,P|235:83|233:113,1,85,2|0,0:0|0:0,0:0:0:0:
174,265,55543,2,0,L|262:271,1,85,8|0,0:0|0:0,0:0:0:0:
360,207,55859,5,2,0:0:0:0:
425,320,56017,1,0,0:0:0:0:
360,207,56175,2,0,P|367:163|367:132,1,68,2|0,0:0|0:0,0:0:0:0:
285,53,56490,1,8,0:0:0:0:
215,128,56648,1,0,0:0:0:0:
147,53,56806,2,0,L|73:54,1,68,2|0,0:0|0:0,0:0:0:0:
49,232,57122,5,2,0:0:0:0:
116,139,57280,1,0,0:0:0:0:
176,227,57438,2,0,L|246:221,1,68,2|0,0:0|0:0,0:0:0:0:
174,328,57754,2,0,L|104:322,1,68,8|0,0:0|0:0,0:0:0:0:
30,200,58069,1,0,0:0:0:0:
165,130,58227,1,0,0:0:0:0:
267,236,58385,6,0,L|371:227,1,85,6|0,0:0|0:0,0:0:0:0:
481,134,58701,2,0,L|377:125,1,85,8|0,0:0|0:0,0:0:0:0:
244,70,59017,1,2,0:0:0:0:
433,40,59175,1,0,0:0:0:0:
392,209,59333,1,8,0:0:0:0:
323,45,59490,1,0,0:0:0:0:
266,216,59648,6,0,P|215:224|172:224,1,85,2|0,0:0|0:0,0:0:0:0:
47,133,59964,2,0,P|98:125|141:125,1,85,8|0,0:0|0:0,0:0:0:0:
208,296,60280,1,2,0:0:0:0:
217,116,60438,1,0,0:0:0:0:
93,235,60596,1,8,0:0:0:0:
283,195,60754,1,0,0:0:0:0:
93,205,60912,6,0,B|84:158|84:158|88:112,1,85,2|0,0:0|0:0,0:0:0:0:
294,15,61227,2,0,B|303:62|303:62|299:108,1,85,8|0,0:0|0:0,0:0:0:0:
188,243,61543,1,2,0:0:0:0:
381,163,61701,1,0,0:0:0:0:
191,87,61859,1,8,0:0:0:0:
298,290,62017,6,0,P|338:259|438:332,1,170,6|2,0:0|0:0,0:0:0:0:
235,342,62490,2,0,L|134:331,1,85,8|0,0:0|0:0,0:0:0:0:
58,243,62806,2,0,P|49:193|57:154,1,85,2|0,0:0|0:0,0:0:0:0:
208,27,63122,2,0,P|217:77|209:116,1,85,8|0,0:0|0:0,0:0:0:0:
157,209,63438,6,0,L|237:205,1,68,2|0,0:0|0:0,0:0:0:0:
305,142,63754,1,2,0:0:0:0:
305,142,63912,1,0,0:0:0:0:
371,210,64069,2,0,L|367:296,1,68,8|0,0:0|0:0,0:0:0:0:
455,341,64385,2,0,L|458:273,1,68,2|0,0:0|0:0,0:0:0:0:
276,264,64701,6,0,P|240:255|193:256,1,68,2|0,0:0|0:0,0:0:0:0:
136,323,65017,1,2,0:0:0:0:
136,323,65175,1,0,0:0:0:0:
53,262,65333,2,0,P|44:222|44:187,1,68,8|0,0:0|0:0,0:0:0:0:
114,143,65648,2,0,P|123:103|123:68,1,68,2|0,0:0|0:0,0:0:0:0:
205,39,65964,6,0,L|291:32,1,68,2|0,0:0|0:0,0:0:0:0:
347,100,66280,1,2,0:0:0:0:
347,100,66438,1,0,0:0:0:0:
432,43,66596,2,0,L|438:119,1,68,8|0,0:0|0:0,0:0:0:0:
382,177,66912,2,0,L|388:253,1,68,2|0,0:0|0:0,0:0:0:0:
431,320,67227,6,0,P|391:332|358:326,1,68,2|0,0:0|0:0,0:0:0:0:
297,278,67543,1,2,0:0:0:0:
297,278,67701,1,0,0:0:0:0:
238,220,67859,2,0,P|198:208|165:214,1,68,8|0,0:0|0:0,0:0:0:0:
87,277,68175,2,0,L|82:201,1,68,2|0,0:0|0:0,0:0:0:0:
129,110,68490,5,2,0:0:0:0:
347,55,69754,6,0,L|354:146,1,85,6|0,0:0|0:0,0:0:0:0:
448,287,70069,2,0,L|454:202,1,85,8|0,0:0|0:0,0:0:0:0:
304,270,70385,1,2,0:0:0:0:
243,110,70543,1,0,0:0:0:0:
382,224,70701,1,8,0:0:0:0:
174,177,70859,1,0,0:0:0:0:
307,61,71017,6,0,P|324:106|316:149,1,85,2|0,0:0|0:0,0:0:0:0:
242,321,71333,2,0,P|225:276|233:233,1,85,8|0,0:0|0:0,0:0:0:0:
243,110,71648,1,2,0:0:0:0:
357,200,71806,1,2,0:0:0:0:
153,179,71964,1,8,0:0:0:0:
336,153,72122,1,0,0:0:0:0:
180,265,72280,6,0,L|87:259,1,85,2|0,0:0|0:0,0:0:0:0:
243,110,72596,2,0,L|336:104,1,85,8|0,0:0|0:0,0:0:0:0:
455,171,72912,1,2,0:0:0:0:
327,27,73069,1,0,0:0:0:0:
342,191,73227,1,8,0:0:0:0:
445,36,73385,1,0,0:0:0:0:
464,188,73543,6,0,L|464:279,1,85,2|0,0:0|0:0,0:0:0:0:
288,363,73859,2,0,L|288:272,1,85,8|0,0:0|0:0,0:0:0:0:
357,123,74175,1,2,0:0:0:0:
376,301,74333,1,8,0:0:0:0:
213,187,74490,1,2,0:0:0:0:
382,158,74648,1,8,0:0:0:0:
206,106,74806,6,0,B|161:100|161:100|115:103,1,85,6|0,0:0|0:0,0:0:0:0:
36,263,75122,2,0,B|81:269|81:269|127:266,1,85,8|0,0:0|0:0,0:0:0:0:
238,183,75438,1,2,0:0:0:0:
324,298,75596,1,0,0:0:0:0:
232,143,75754,1,8,0:0:0:0:
190,330,75912,1,0,0:0:0:0:
326,204,76069,6,0,L|421:196,1,85,2|0,0:0|0:0,0:0:0:0:
311,45,76385,2,0,L|226:52,1,85,8|0,0:0|0:0,0:0:0:0:
162,232,76701,1,2,0:0:0:0:
147,54,76859,1,2,0:0:0:0:
65,205,77017,1,8,0:0:0:0:
235,127,77175,1,0,0:0:0:0:
302,283,77333,6,0,P|260:294|213:294,1,85,2|0,0:0|0:0,0:0:0:0:
354,190,77648,2,0,P|396:179|443:179,1,85,8|0,0:0|0:0,0:0:0:0:
386,298,77964,1,2,0:0:0:0:
242,186,78122,1,0,0:0:0:0:
406,97,78280,1,8,0:0:0:0:
294,262,78438,1,0,0:0:0:0:
192,111,78596,5,2,0:0:0:0:
80,255,78754,2,0,L|165:257,1,85,8|0,0:0|0:0,0:0:0:0:
381,181,79069,1,8,0:0:0:0:
196,189,79227,1,2,0:0:0:0:
290,298,79385,1,2,0:0:0:0:
272,77,79543,2,0,L|365:70,1,85,8|0,0:0|0:0,0:0:0:0:
217,201,79859,6,0,L|124:194,1,85,6|0,0:0|0:0,0:0:0:0:
15,137,80175,2,0,P|-2:190|6:234,1,85,8|0,0:0|0:0,0:0:0:0:
71,333,80490,1,2,0:0:0:0:
189,278,80648,1,0,0:0:0:0:
79,185,80806,1,8,0:0:0:0:
186,321,80964,1,0,0:0:0:0:
288,183,81122,6,0,L|288:272,1,85,2|0,0:0|0:0,0:0:0:0:
414,360,81438,2,0,L|414:271,1,85,8|0,0:0|0:0,0:0:0:0:
491,183,81754,1,2,0:0:0:0:
356,110,81912,1,2,0:0:0:0:
483,41,82069,1,8,0:0:0:0:
371,190,82227,1,0,0:0:0:0:
266,46,82385,6,0,P|259:93|258:132,1,85,2|0,0:0|0:0,0:0:0:0:
316,298,82701,2,0,L|215:294,1,85,8|0,0:0|0:0,0:0:0:0:
168,210,83017,1,2,0:0:0:0:
57,325,83175,1,0,0:0:0:0:
108,144,83333,1,8,0:0:0:0:
153,330,83490,1,0,0:0:0:0:
229,143,83648,6,0,P|273:132|316:132,1,85,2|0,0:0|0:0,0:0:0:0:
437,207,83964,2,0,L|442:103,1,85,8|0,0:0|0:0,0:0:0:0:
278,225,84280,1,2,0:0:0:0:
443,297,84438,1,8,0:0:0:0:
349,159,84596,1,0,0:0:0:0:
301,323,84754,1,8,0:0:0:0:
189,203,84912,6,0,L|191:299,1,85,6|0,0:0|0:0,0:0:0:0:
73,203,85227,2,0,L|75:107,1,85,8|0,0:0|0:0,0:0:0:0:
228,36,85543,1,2,0:0:0:0:
102,40,85701,1,0,0:0:0:0:
225,155,85859,1,8,0:0:0:0:
322,39,86017,1,0,0:0:0:0:
424,131,86175,6,0,B|436:176|436:176|433:220,1,85,2|0,0:0|0:0,0:0:0:0:
333,315,86490,2,0,L|227:308,1,85,8|0,0:0|0:0,0:0:0:0:
66,301,86806,1,2,0:0:0:0:
237,214,86964,1,0,0:0:0:0:
151,348,87122,1,8,0:0:0:0:
60,202,87280,1,0,0:0:0:0:
152,83,87438,6,0,L|154:177,1,85,2|0,0:0|0:0,0:0:0:0:
300,261,87754,2,0,L|298:176,1,85,8|0,0:0|0:0,0:0:0:0:
389,92,88069,1,2,0:0:0:0:
240,94,88227,1,0,0:0:0:0:
396,187,88385,1,8,0:0:0:0:
450,27,88543,1,0,0:0:0:0:
396,187,88701,6,0,L|481:185,1,85,2|8,0:0|0:0,0:0:0:0:
358,294,89017,1,8,0:0:0:0:
316,116,89175,1,0,0:0:0:0:
316,116,89254,1,0,0:0:0:0:
316,116,89333,1,2,0:0:0:0:
240,244,89490,1,0,0:0:0:0:
382,181,89648,1,8,0:0:0:0:
209,148,89806,1,0,0:0:0:0:
218,333,89964,5,4,0:0:0:0:
256,192,90122,12,0,94701,0:0:0:0:
