osu file format v14

[General]
AudioFilename: audio.mp3
AudioLeadIn: 0
PreviewTime: 47648
Countdown: 0
SampleSet: Normal
StackLeniency: 0.7
Mode: 0
LetterboxInBreaks: 0
WidescreenStoryboard: 0

[Editor]
Bookmarks: 5333,28069,69754,89964
DistanceSpacing: 1.1
BeatDivisor: 4
GridSize: 4
TimelineZoom: 1

[Metadata]
Title:Empty MERMAiD
TitleUnicode:Empty MERMAiD
Artist:LiSA
ArtistUnicode:LiSA
Creator:Janpai
Version:Easy
Source:
Tags:cut version risa oribe MugiwaraSekai Akitoshi
BeatmapID:979434
BeatmapSetID:455639

[Difficulty]
HPDrainRate:2
CircleSize:3
OverallDifficulty:2
ApproachRate:3
SliderMultiplier:0.8
SliderTickRate:1

[Events]
//Background and Video events
0,0,"Mermaidzxc.jpg",0,0
//Break Periods
//Storyboard Layer 0 (Background)
//Storyboard Layer 1 (Fail)
//Storyboard Layer 2 (Pass)
//Storyboard Layer 3 (Foreground)
//Storyboard Sound Samples

[TimingPoints]
280.469231182594,315.789473684211,4,1,1,70,1,0
17964,-100,4,1,1,60,0,0
27754,-100,4,1,1,70,0,0
38175,-100,4,1,1,70,0,0
43227,-100,4,3,1,70,0,0
45754,-100,4,1,1,70,0,0
48280,-100,4,1,1,80,0,1
55859,-100,4,1,1,80,0,1
58385,-100,4,1,1,80,0,1
63438,-100,4,1,1,80,0,0
68490,-100,4,1,1,70,0,0
90122,-100,4,1,1,20,0,0

[Colours]
Combo1 : 192,192,192
Combo2 : 0,128,192
Combo3 : 47,187,255
Combo4 : 128,128,128

[HitObjects]
46,294,5333,6,0,P|76:264|196:289,1,160,6|2,0:0|0:0,0:0:0:0:
252,331,6280,1,8,0:0:0:0:
321,276,6596,2,0,P|330:196|325:117,1,160,2|2,0:0|0:0,0:0:0:0:
262,55,7543,1,8,0:0:0:0:
205,122,7859,6,0,B|128:96|128:148|33:119,1,160,2|2,0:0|0:0,0:0:0:0:
3,199,8806,1,8,0:0:0:0:
45,276,9122,2,0,B|91:302|91:302|205:310,1,160,2|10,0:0|0:0,0:0:0:0:
267,254,10069,1,8,0:0:0:0:
327,317,10385,6,0,P|374:343|472:294,1,160,6|2,0:0|0:0,0:0:0:0:
391,257,11333,1,8,0:0:0:0:
463,207,11648,2,0,B|463:149|463:149|479:105|479:105|479:37,1,160,2|2,0:0|0:0,0:0:0:0:
393,27,12596,1,8,0:0:0:0:
328,86,12912,6,0,P|290:59|193:107,1,160,2|2,0:0|0:0,0:0:0:0:
180,187,13859,1,8,0:0:0:0:
96,158,14175,2,0,P|91:105|94:67,2,80,2|8|10,0:0|0:0|0:0,0:0:0:0:
111,244,15122,1,8,0:0:0:0:
165,313,15438,6,0,B|280:268|280:352|407:303,1,240,2|2,0:0|0:0,0:0:0:0:
456,238,16701,2,0,P|465:181|386:107,1,160,2|2,0:0|0:0,0:0:0:0:
326,157,17648,1,8,0:0:0:0:
251,110,17964,6,0,L|78:114,1,160,6|8,0:0|0:0,0:0:0:0:
25,172,18912,1,0,0:0:0:0:
92,228,19227,2,0,L|265:224,1,160,10|2,0:0|0:0,0:0:0:0:
327,270,20175,1,8,0:0:0:0:
397,217,20490,6,0,P|398:139|392:52,1,160,2|8,0:0|0:0,0:0:0:0:
308,30,21438,1,2,0:0:0:0:
225,61,21754,2,0,P|224:139|230:226,1,160,8|2,0:0|0:0,0:0:0:0:
286,287,22701,1,8,0:0:0:0:
208,328,23017,6,0,P|144:339|84:265,1,160,6|8,0:0|0:0,0:0:0:0:
75,186,23964,1,2,0:0:0:0:
80,98,24280,2,0,B|122:74|122:74|236:62,1,160,8|2,0:0|0:0,0:0:0:0:
301,117,25227,1,8,0:0:0:0:
366,58,25543,6,0,P|426:56|474:148,1,160,2|8,0:0|0:0,0:0:0:0:
442,214,26490,1,2,0:0:0:0:
392,284,26806,2,0,B|332:284|332:284|292:296|292:296|232:296,1,160,8|2,0:0|0:0,0:0:0:0:
162,244,27754,1,8,0:0:0:0:
75,257,28069,6,0,P|62:208|69:136,1,120,6|2,0:0|0:0,0:0:0:0:
171,57,29017,1,8,0:0:0:0:
233,118,29333,2,0,L|360:106,1,120,2|2,0:0|0:0,0:0:0:0:
470,48,30280,1,8,0:0:0:0:
494,132,30596,6,0,B|512:195|512:195|511:258,1,120,2|2,0:0|0:0,0:0:0:0:
382,218,31543,1,8,0:0:0:0:
328,288,31859,2,0,P|275:337|188:321,1,160,2|2,0:0|0:0,0:0:0:0:
121,274,32806,1,8,0:0:0:0:
166,198,33122,6,0,L|287:190,1,120,6|2,0:0|0:0,0:0:0:0:
369,216,33912,1,2,0:0:0:0:
432,155,34227,2,0,P|433:108|427:74,1,80,2|2,0:0|0:0,0:0:0:0:
344,46,34859,2,0,P|312:64|226:65,1,120,2|8,0:0|0:0,0:0:0:0:
144,47,35648,6,0,L|148:210,1,160,2|2,0:0|0:0,0:0:0:0:
176,290,36596,1,2,0:0:0:0:
251,244,36912,2,0,P|301:225|387:288,1,160,8|2,0:0|0:0,0:0:0:0:
449,338,37859,1,0,0:0:0:0:
491,260,38175,6,0,P|498:180|482:92,1,160,6|8,0:0|0:0,0:0:0:0:
421,40,39122,1,2,0:0:0:0:
350,93,39438,2,0,B|268:72|268:120|177:86,1,160,2|8,0:0|0:0,0:0:0:0:
115,47,40385,1,0,0:0:0:0:
66,120,40701,6,0,B|50:174|50:174|73:289,1,160,2|8,0:0|0:0,0:0:0:0:
142,326,41648,1,0,0:0:0:0:
190,252,41964,2,0,B|244:236|244:236|359:259,1,160,2|8,0:0|0:0,0:0:0:0:
414,311,42912,1,0,0:0:0:0:
465,239,43227,6,0,P|495:279|491:354,2,120
384,202,44490,2,0,P|354:162|358:87,2,120
307,246,45754,6,0,L|209:243,1,80,6|8,0:0|0:0,0:0:0:0:
148,283,46385,2,0,L|50:280,1,80,8|8,0:0|0:0,0:0:0:0:
26,202,47017,1,8,0:0:0:0:
81,133,47333,1,8,0:0:0:0:
165,156,47648,2,0,P|207:161|247:159,1,80
315,106,48280,6,0,P|357:101|397:103,1,80,6|8,0:0|0:0,0:0:0:0:
459,163,48912,2,0,B|473:207|478:256,1,80,2|8,0:0|0:0,0:0:0:0:
414,303,49543,2,0,P|356:271|278:321,1,160,2|2,0:0|0:0,0:0:0:0:
197,341,50490,1,8,0:0:0:0:
117,302,50806,6,0,P|102:255|107:214,1,80,2|8,0:0|0:0,0:0:0:0:
54,151,51438,2,0,P|100:136|142:141,1,80,2|8,0:0|0:0,0:0:0:0:
203,188,52069,2,0,B|256:201|256:201|370:196,1,160,2|2,0:0|0:0,0:0:0:0:
424,134,53017,1,8,0:0:0:0:
384,55,53333,6,0,P|335:36|257:97,1,160,2|2,0:0|0:0,0:0:0:0:
220,176,54280,1,8,0:0:0:0:
297,217,54596,2,0,P|374:204|461:209,1,160,2|2,0:0|0:0,0:0:0:0:
508,278,55543,1,8,0:0:0:0:
442,336,55859,6,0,P|364:348|278:344,1,160,2|8,0:0|0:0,0:0:0:0:
213,291,56806,1,2,0:0:0:0:
246,209,57122,2,0,P|235:165|129:133,1,160,2|8,0:0|0:0,0:0:0:0:
72,191,58069,1,0,0:0:0:0:
45,274,58385,6,0,L|130:276,1,80,6|8,0:0|0:0,0:0:0:0:
198,324,59017,2,0,L|283:326,1,80,2|8,0:0|0:0,0:0:0:0:
365,317,59648,2,0,B|382:220|382:220|371:143,1,160,2|2,0:0|0:0,0:0:0:0:
322,87,60596,1,8,0:0:0:0:
262,152,60912,6,0,P|220:143|175:145,1,80,2|8,0:0|0:0,0:0:0:0:
104,184,61543,2,0,P|104:226|111:268,1,80,2|8,0:0|0:0,0:0:0:0:
164,333,62175,2,0,P|205:348|301:292,1,160,6|2,0:0|0:0,0:0:0:0:
335,214,63122,1,8,0:0:0:0:
415,178,63438,6,0,P|375:136|272:154,1,160,2|8,0:0|0:0,0:0:0:0:
226,216,64385,1,2,0:0:0:0:
169,283,64701,2,0,P|129:325|26:307,1,160,2|8,0:0|0:0,0:0:0:0:
91,247,65648,1,2,0:0:0:0:
132,169,65964,6,0,L|299:151,1,160,2|8,0:0|0:0,0:0:0:0:
350,86,66912,1,2,0:0:0:0:
424,136,67227,2,0,B|424:192|424:192|436:236|436:236|436:296,1,160,2|8,0:0|0:0,0:0:0:0:
360,340,68175,1,2,0:0:0:0:
295,280,68490,5,2,0:0:0:0:
139,48,69754,6,0,L|140:216,1,160,6|2,0:0|0:0,0:0:0:0:
95,284,70701,1,8,0:0:0:0:
170,328,71017,2,0,B|217:340|217:340|330:327,1,160,2|2,0:0|0:0,0:0:0:0:
406,288,71964,1,8,0:0:0:0:
480,241,72280,6,0,P|437:206|338:232,1,160,2|2,0:0|0:0,0:0:0:0:
273,283,73227,1,8,0:0:0:0:
192,247,73543,2,0,P|174:206|174:90,1,160,2|10,0:0|0:0,0:0:0:0:
247,45,74490,1,8,0:0:0:0:
307,108,74806,6,0,L|476:108,1,160,2|2,0:0|0:0,0:0:0:0:
506,187,75754,1,8,0:0:0:0:
473,268,76069,2,0,L|304:268,1,160,2|2,0:0|0:0,0:0:0:0:
242,214,77017,1,8,0:0:0:0:
185,281,77333,6,0,P|141:306|40:254,1,160,2|2,0:0|0:0,0:0:0:0:
15,184,78280,1,8,0:0:0:0:
83,128,78596,2,0,P|89:79|91:42,2,80,8|8|2,0:0|0:0|0:0,0:0:0:0:
154,179,79543,1,8,0:0:0:0:
223,124,79859,6,0,P|253:96|379:109,1,160,6|2,0:0|0:0,0:0:0:0:
420,166,80806,1,8,0:0:0:0:
401,252,81122,2,0,B|340:252|340:252|301:240|301:240|225:240,1,160,2|2,0:0|0:0,0:0:0:0:
173,294,82069,1,8,0:0:0:0:
101,242,82385,6,0,L|104:75,1,160,2|2,0:0|0:0,0:0:0:0:
181,40,83333,1,8,0:0:0:0:
226,114,83648,2,0,P|280:139|369:79,1,160,2|10,0:0|0:0,0:0:0:0:
437,46,84596,1,8,0:0:0:0:
456,131,84912,6,0,B|471:216|471:216|460:289,1,160,6|2,0:0|0:0,0:0:0:0:
387,339,85859,1,8,0:0:0:0:
339,265,86175,2,0,P|307:244|199:287,1,160,2|2,0:0|0:0,0:0:0:0:
141,346,87122,1,8,0:0:0:0:
73,289,87438,6,0,B|96:212|48:212|71:128,1,160,2|2,0:0|0:0,0:0:0:0:
130,67,88385,1,8,0:0:0:0:
197,123,88701,2,0,B|256:110|256:110|313:130|313:130|361:94|435:112,1,240,2|8,0:0|0:0,0:0:0:0:
485,175,89964,5,4,0:0:0:0:
256,192,90122,12,0,94701,0:0:0:0:
