osu file format v14

[General]
AudioFilename: pirated.mp3
AudioLeadIn: 0
PreviewTime: 61428
Countdown: 0
SampleSet: Soft
StackLeniency: 0.7
Mode: 0
LetterboxInBreaks: 0
WidescreenStoryboard: 1

[Editor]
Bookmarks: 9723,33485,38238,52495,62000,88139
DistanceSpacing: 1
BeatDivisor: 4
GridSize: 8
TimelineZoom: 1.7

[Metadata]
Title:EGOiSTiC SHOOTER (Cut Ver.)
TitleUnicode:EGOiSTiC SHOOTER (Cut Ver.)
Artist:LiSA
ArtistUnicode:LiSA
Creator:Chanmann
Version:Normal
Source:
Tags:Lover"s"mile rock jrock japanese wowaka skubi cptsqbany
BeatmapID:3412586
BeatmapSetID:1668586

[Difficulty]
HPDrainRate:3
CircleSize:4
OverallDifficulty:5
ApproachRate:6
SliderMultiplier:1
SliderTickRate:2

[Events]
//Background and Video events
0,0,"13259_waifu2x_art_noise2_tta_1.png",0,0
//Break Periods
2,38482,41668
//Storyboard Layer 0 (Background)
//Storyboard Layer 1 (Fail)
//Storyboard Layer 2 (Pass)
//Storyboard Layer 3 (Foreground)
//Storyboard Layer 4 (Overlay)
//Storyboard Sound Samples

[TimingPoints]
243,297.029702970297,4,2,1,43,1,0
243,-100,4,2,1,43,0,0
14500,-100,4,2,1,43,0,0
32916,-100,4,2,1,63,0,0
33510,-100,4,2,1,63,0,1
38262,-100,4,2,1,43,0,0
42718,-100,4,2,1,53,0,0
54896,-100,4,2,1,63,0,1
56084,-100,4,2,1,63,0,0
59648,-100,4,2,1,63,0,1
60837,-100,4,2,1,73,0,0
61431,-100,4,2,1,33,0,0
62025,-100,4,2,1,73,0,0
65886,-100,4,2,1,73,0,1
66109,-100,4,2,1,5,0,1
66183,-100,4,2,1,73,0,0
66406,-100,4,2,1,5,0,0
66480,-100,4,2,1,73,0,0
69302,-100,4,2,1,5,0,0
69376,-100,4,2,1,73,0,0
69525,-100,4,2,1,5,0,0
69599,-100,4,2,1,73,0,0
69673,-100,4,2,1,5,0,0
69747,-100,4,2,1,73,0,0
75391,-100,4,2,1,73,0,1
75614,-100,4,2,1,5,0,1
75688,-100,4,2,1,73,0,0
81024,-100,4,2,1,73,0,0
83431,-100,4,2,1,73,0,0
84896,-100,4,2,1,73,0,1
85119,-100,4,2,1,5,0,1
85193,-100,4,2,1,73,0,0
85416,-100,4,2,1,5,0,0
85490,-100,4,2,1,73,0,0

[Colours]
Combo1 : 255,255,128
Combo2 : 192,192,192
Combo3 : 157,255,255
Combo4 : 0,255,128
Combo5 : 128,128,255
Combo6 : 255,0,128

[HitObjects]
38,228,14500,38,0,P|90:144|183:140,1,200,6|2,3:2|3:2,0:2:0:0:
260,196,15391,1,2,3:2:0:0:
260,196,15540,2,0,P|328:206|390:158,1,150,2|2,0:2|3:2,0:2:0:0:
460,215,16282,1,2,3:2:0:0:
403,346,16728,5,2,0:2:0:0:
403,346,16876,2,0,B|371:382|319:392|276:368|256:331|256:331|256:331|256:331|230:284|171:266|121:291|99:333,1,350,2|2,3:2|0:2,0:0:0:0:
17,336,18213,2,0,L|8:185,1,150,2|2,0:2|3:2,0:0:0:0:
180,20,19252,70,0,P|136:82|152:164,1,150,2|0,3:2|0:2,0:2:0:0:
111,182,19846,2,0,P|142:251|221:278,1,150,2|2,3:2|0:2,0:2:0:0:
293,249,20589,2,0,P|339:253|378:219,1,100,2|2,0:2|0:2,0:0:0:0:
398,180,21035,1,2,3:2:0:0:
403,38,21480,5,2,0:2:0:0:
403,38,21629,2,0,B|371:1|319:-8|276:15|256:52|256:52|256:52|256:52|230:99|171:117|121:92|99:50,1,350,2|2,3:2|0:2,0:0:0:0:
17,48,22965,2,0,L|8:199,1,150,2|2,0:2|0:2,0:0:0:0:
112,344,24005,22,0,L|319:326,1,200,2|2,3:2|3:2,0:0:0:0:
445,314,25044,2,0,L|455:198,1,100,2|2,0:2|0:2,0:0:0:0:
467,128,25639,1,2,0:2:0:0:
467,128,25787,2,0,L|363:119,1,100,2|2,3:2|3:2,0:0:0:0:
278,132,26381,21,2,3:2:0:0:
284,222,26678,1,2,3:2:0:0:
224,289,26975,1,2,3:2:0:0:
134,293,27272,1,2,3:2:0:0:
67,232,27569,2,0,L|76:123,1,100,2|2,3:2|3:2,0:0:0:0:
56,91,28015,1,2,0:2:0:0:
143,62,28312,1,2,0:2:0:0:
143,62,28460,1,2,3:2:0:0:
222,104,28757,54,0,L|214:203,1,100,2|2,3:2|3:2,0:0:0:0:
152,269,29351,2,0,P|230:224|405:240,1,250,2|0,3:2|0:0,0:0:0:0:
420,201,30243,1,2,3:2:0:0:
479,273,30540,1,2,3:2:0:0:
492,55,31134,53,2,3:2:0:0:
368,45,31579,1,2,0:2:0:0:
296,149,32025,1,2,3:2:0:0:
351,262,32470,1,2,0:2:0:0:
280,365,32916,2,0,L|63:345,1,200,8|6,3:2|3:2,0:0:0:0:
32,277,33807,5,8,3:2:0:0:
35,234,33955,1,4,3:2:0:0:
44,149,34252,1,0,3:0:0:0:
48,106,34401,2,0,B|74:132|74:132|137:127,1,100,8|12,0:2|3:2,0:0:0:0:
214,91,34995,1,8,0:2:0:0:
211,48,35143,2,0,B|397:30|397:30|441:75,1,250,8|12,0:2|3:2,0:0:0:0:
256,192,36035,12,4,38262,3:2:0:0:
104,81,42718,53,8,0:0:0:0:
49,151,43015,2,0,P|111:215|186:209,1,150,4|2,3:2|0:2,0:2:0:0:
203,189,43609,1,2,3:2:0:0:
311,109,44054,1,2,3:2:0:0:
343,140,44203,2,0,P|386:115|445:123,1,100,2|10,3:2|0:2,0:0:0:0:
501,179,44797,1,2,3:2:0:0:
403,340,45391,6,0,P|351:288|280:301,1,150,2|2,0:2|0:2,0:0:0:0:
255,334,45985,2,0,L|143:324,1,100,2|10,3:2|3:2,0:0:0:0:
112,322,46431,1,2,3:2:0:0:
31,316,46728,1,2,3:2:0:0:
31,316,46876,1,10,0:2:0:0:
75,243,47173,1,2,3:2:0:0:
32,169,47470,21,10,3:2:0:0:
95,112,47767,2,0,L|294:94,1,200,6|2,3:2|3:2,0:0:0:0:
402,26,48807,1,2,3:2:0:0:
462,86,49104,2,0,L|511:81,2,50,2|10|2,3:2|0:2|0:0,0:0:0:0:
442,123,49549,2,0,L|451:226,1,100,2|10,3:2|0:2,0:0:0:0:
488,298,50143,22,0,P|463:303|442:316,1,50,2|2,3:2|0:0,0:0:0:0:
379,373,50589,2,0,P|356:359|321:355,1,50,2|2,0:2|3:2,0:0:0:0:
272,287,51035,2,0,P|249:301|214:305,1,50,10|2,0:2|3:2,0:0:0:0:
152,356,51480,1,2,3:2:0:0:
64,336,51777,1,2,3:2:0:0:
44,252,52074,1,2,3:2:0:0:
44,252,52223,1,10,0:0:0:0:
112,192,52520,69,4,3:2:0:0:
200,192,52817,2,0,L|200:92,2,100,8|0|8,0:2|3:2|0:0,0:0:0:0:
288,192,53708,1,4,3:2:0:0:
288,280,54005,2,0,L|388:280,2,100,8|0|8,0:2|3:2|0:0,0:0:0:0:
256,364,54896,53,4,3:2:0:0:
168,364,55193,1,12,3:2:0:0:
168,276,55490,1,12,3:2:0:0:
168,188,55787,1,12,3:2:0:0:
260,192,56084,22,0,L|472:192,1,200,0|0,3:2|3:2,0:0:0:0:
420,9,57272,70,0,P|468:14|490:72,1,100,6|10,3:2|0:2,0:0:0:0:
479,96,57718,1,2,3:2:0:0:
413,149,58015,2,0,P|411:175|417:198,2,50,2|10|2,3:2|0:2|0:2,0:0:0:0:
340,105,58609,2,0,P|338:79|344:56,2,50,2|10|2,3:2|0:2|0:2,0:0:0:0:
278,163,59203,2,0,P|276:189|282:212,2,50,2|10|2,3:2|0:2|0:2,0:0:0:0:
245,135,59648,69,12,3:2:0:0:
157,147,59945,1,0,3:2:0:0:
145,59,60242,1,10,3:1:0:0:
233,47,60540,1,10,3:1:0:0:
277,42,60688,1,10,3:1:0:0:
296,192,61431,37,2,0:0:0:0:
502,276,62025,6,0,L|430:269,1,50,6|2,3:2|0:0,0:0:0:0:
407,266,62322,1,10,0:2:0:0:
362,262,62470,1,2,0:0:0:0:
296,321,62767,6,0,L|300:376,2,50,2|10|2,3:2|0:2|0:0,0:0:0:0:
253,306,63213,2,0,L|260:234,1,50,2|2,3:2|3:2,0:0:0:0:
244,213,63510,1,10,0:2:0:0:
154,202,63807,1,2,3:2:0:0:
31,306,64252,53,2,0:0:0:0:
67,279,64401,2,0,L|57:175,1,100,2|10,3:2|0:2,0:0:0:0:
13,175,64846,2,0,L|3:71,1,100,2|2,0:0|3:2,0:0:0:0:
39,48,65292,1,10,0:2:0:0:
75,74,65441,2,0,P|124:75|167:51,1,100,2|2,3:2|3:2,0:0:0:0:
198,12,65886,37,10,0:1:0:0:
276,74,66183,22,0,P|325:73|368:97,1,100,2|8,3:2|0:2,0:0:0:0:
464,70,66777,22,0,L|457:142,1,50,6|2,3:2|3:2,0:0:0:0:
454,165,67074,1,10,0:2:0:0:
450,210,67223,1,2,0:0:0:0:
500,296,67520,37,2,3:2:0:0:
464,331,67668,2,0,L|408:326,1,50,10|2,0:2|0:0,0:0:0:0:
364,324,67965,2,0,L|368:379,2,50,2|2|10,3:2|3:2|0:2,0:0:0:0:
266,301,68559,1,2,3:2:0:0:
118,272,69005,21,2,0:0:0:0:
76,300,69153,2,0,P|98:332|92:381,2,75,2|2|2,3:2|0:2|0:2,0:0:0:0:
3,246,69896,2,0,L|8:190,1,50,2|10,3:2|0:2,0:0:0:0:
13,151,70193,1,2,3:2:0:0:
82,93,70490,2,0,P|121:126|178:129,1,100,2|2,3:2|0:0,0:0:0:0:
195,166,70936,1,2,3:2:0:0:
369,111,71530,6,0,L|362:183,1,50,6|2,3:2|0:0,0:0:0:0:
359,206,71827,1,10,0:2:0:0:
355,251,71975,1,2,0:0:0:0:
428,303,72272,6,0,L|424:352,2,50,2|10|2,3:2|0:2|0:0,0:0:0:0:
471,289,72718,2,0,L|464:217,1,50,2|2,3:2|3:2,0:0:0:0:
508,223,73015,1,10,0:2:0:0:
500,133,73312,1,2,3:2:0:0:
367,13,73757,53,2,0:0:0:0:
341,49,73906,2,0,L|237:39,1,100,2|10,3:2|0:2,0:0:0:0:
196,35,74351,2,0,L|92:25,1,100,2|2,0:0|3:2,0:0:0:0:
70,62,74797,1,10,0:2:0:0:
84,104,74945,2,0,L|187:113,1,100,2|2,3:2|3:2,0:0:0:0:
233,118,75391,37,10,0:1:0:0:
315,176,75688,22,0,P|290:219|291:268,1,100,2|8,3:2|0:2,0:0:0:0:
252,349,76282,22,0,L|180:342,1,50,6|2,3:2|0:2,0:0:0:0:
157,339,76579,1,10,0:2:0:0:
112,335,76728,1,2,0:0:0:0:
77,251,77025,37,2,3:2:0:0:
42,214,77173,2,0,L|47:158,1,50,10|2,0:2|0:0,0:0:0:0:
88,147,77470,2,0,L|92:92,2,50,2|2|10,3:2|3:2|0:2,0:0:0:0:
174,170,78064,1,2,3:2:0:0:
287,97,78510,21,2,0:0:0:0:
325,73,78658,2,0,P|303:41|310:-7,2,75,2|2|2,3:2|0:0|0:2,0:0:0:0:
410,103,79401,1,2,3:2:0:0:
492,137,79698,2,0,P|464:176|473:236,1,100,2|0,3:2|3:2,0:0:0:0:
473,270,80143,2,0,L|409:275,1,50,10|2,3:2|0:0,0:0:0:0:
384,251,80441,1,2,3:2:0:0:
203,293,81034,6,0,L|196:221,1,50,6|2,3:2|0:0,0:0:0:0:
193,198,81331,1,10,3:2:0:0:
189,153,81479,1,2,0:0:0:0:
100,137,81776,6,0,L|93:65,2,50,2|10|2,3:2|3:2|0:0,0:0:0:0:
62,162,82222,2,0,L|69:234,1,50,2|2,3:2|3:2,0:0:0:0:
30,238,82519,1,10,3:2:0:0:
39,327,82816,1,2,3:2:0:0:
167,374,83262,53,2,0:0:0:0:
175,329,83411,2,0,P|222:333|271:309,1,100,2|10,3:2|3:2,0:0:0:0:
311,323,83856,2,0,P|355:301|404:304,1,100,2|2,3:2|3:2,0:0:0:0:
441,331,84302,1,10,3:2:0:0:
482,313,84450,2,0,P|488:253|501:192,1,100,2|2,0:0|3:2,0:0:0:0:
467,172,84896,37,10,3:1:0:0:
386,112,85193,22,0,P|331:91|269:97,1,100,2|8,3:2|3:2,0:0:0:0:
209,33,85787,5,10,3:2:0:0:
116,71,86084,1,10,3:2:0:0:
147,110,86233,2,0,L|138:225,1,100,10|10,3:2|3:2,0:0:0:0:
178,238,86678,1,10,3:2:0:0:
82,268,86975,1,10,0:2:0:0:
256,192,88163,37,4,3:2:0:0:
