osu file format v14

[General]
AudioFilename: pirated.mp3
AudioLeadIn: 0
PreviewTime: 61428
Countdown: 0
SampleSet: Soft
StackLeniency: 0.7
Mode: 0
LetterboxInBreaks: 0
WidescreenStoryboard: 1

[Editor]
Bookmarks: 9723,33485,38238,52495,62000,88139
DistanceSpacing: 0.85
BeatDivisor: 4
GridSize: 8
TimelineZoom: 1.7

[Metadata]
Title:EGOiSTiC SHOOTER (Cut Ver.)
TitleUnicode:EGOiSTiC SHOOTER (Cut Ver.)
Artist:LiSA
ArtistUnicode:LiSA
Creator:Chanmann
Version:Insane
Source:
Tags:Lover"s"mile rock jrock japanese wowaka skubi cptsqbany
BeatmapID:3408792
BeatmapSetID:1668586

[Difficulty]
HPDrainRate:5
CircleSize:4
OverallDifficulty:8
ApproachRate:9
SliderMultiplier:1.83
SliderTickRate:2

[Events]
//Background and Video events
0,0,"13259_waifu2x_art_noise2_tta_1.png",0,0
//Break Periods
//Storyboard Layer 0 (Background)
//Storyboard Layer 1 (Fail)
//Storyboard Layer 2 (Pass)
//Storyboard Layer 3 (Foreground)
//Storyboard Layer 4 (Overlay)
//Storyboard Sound Samples

[TimingPoints]
243,297.029702970297,4,2,1,43,1,0
243,-100,4,2,1,43,0,0
14203,-125,4,2,1,43,0,0
32916,-100,4,2,1,63,0,0
33510,-100,4,2,1,63,0,1
38262,-125,4,2,1,43,0,0
42718,-100,4,2,1,53,0,0
54896,-100,4,2,1,63,0,1
56084,-100,4,2,1,63,0,0
59648,-100,4,2,1,63,0,1
60837,-100,4,2,1,73,0,0
61431,-100,4,2,1,33,0,0
62025,-100,4,2,1,73,0,0
65886,-66.6666666666667,4,2,1,73,0,1
66109,-66.6666666666667,4,2,1,5,0,1
66183,-100,4,2,1,73,0,0
66406,-100,4,2,1,5,0,0
66480,-100,4,2,1,73,0,0
69302,-100,4,2,1,5,0,0
69376,-100,4,2,1,73,0,0
69525,-100,4,2,1,5,0,0
69599,-100,4,2,1,73,0,0
69673,-100,4,2,1,5,0,0
69747,-100,4,2,1,73,0,0
75391,-66.6666666666667,4,2,1,73,0,1
75614,-100,4,2,1,5,0,1
75688,-100,4,2,1,73,0,0
78881,-100,4,2,1,73,0,0
78955,-100,4,2,1,73,0,0
80282,-100,4,2,1,73,0,0
81024,-100,4,2,1,73,0,0
83431,-100,4,2,1,73,0,0
84896,-66.6666666666667,4,2,1,73,0,1
85119,-100,4,2,1,5,0,1
85193,-100,4,2,1,73,0,0
85416,-100,4,2,1,5,0,0
85490,-100,4,2,1,73,0,0

[Colours]
Combo1 : 255,255,128
Combo2 : 192,192,192
Combo3 : 157,255,255
Combo4 : 0,255,128
Combo5 : 128,128,255
Combo6 : 255,0,128

[HitObjects]
136,354,9747,6,0,L|136:170,1,183,4|0,3:2|3:0,0:0:0:0:
176,34,10342,2,0,L|176:218,1,183,0|0,3:0|3:0,0:0:0:0:
216,354,10936,2,0,L|216:170,1,183,0|0,3:0|3:0,0:0:0:0:
256,34,11530,2,0,L|256:218,1,183,0|0,3:0|3:0,0:0:0:0:
296,354,12124,2,0,L|296:170,1,183,0|0,3:0|3:0,0:0:0:0:
336,34,12718,2,0,L|336:218,1,183,0|0,3:0|3:0,0:0:0:0:
376,354,13312,2,0,L|376:170,2,183,0|0|0,3:0|3:0|3:2,0:0:0:0:
489,131,14203,21,2,3:2:0:0:
489,131,14500,2,0,P|407:74|354:87,1,146.4,6|0,3:2|3:2,0:2:0:0:
294,111,14945,1,2,0:2:0:0:
218,111,15094,1,2,3:2:0:0:
79,188,15391,1,2,3:2:0:0:
23,131,15540,2,0,P|105:74|158:87,1,146.4,2|0,0:2|0:2,0:2:0:0:
218,111,15985,1,2,3:2:0:0:
218,111,16282,1,2,3:2:0:0:
421,370,16728,5,2,0:2:0:0:
366,311,16876,2,0,P|331:305|286:317,1,73.2,2|2,3:2|0:2,0:0:0:0:
215,313,17173,2,0,P|179:304|143:310,1,73.2,2|2,3:2|0:2,0:0:0:0:
91,370,17470,1,2,3:2:0:0:
30,318,17619,1,2,0:2:0:0:
81,257,17767,1,2,3:2:0:0:
21,203,17916,1,2,0:2:0:0:
101,52,18213,1,2,0:2:0:0:
179,57,18361,2,0,L|266:65,1,73.2,2|2,3:2|0:2,0:0:0:0:
331,67,18658,1,2,3:2:0:0:
391,210,18955,69,2,3:2:0:0:
391,210,19252,2,0,P|307:113|297:12,1,219.6,2|0,3:2|0:2,0:2:0:0:
216,26,19846,2,0,P|194:133|120:211,1,219.6,2|2,3:2|0:2,0:2:0:0:
168,363,20589,1,2,0:2:0:0:
218,302,20738,2,0,L|291:302,1,73.2,2|2,3:2|0:2,0:0:0:0:
344,363,21035,1,2,3:2:0:0:
421,14,21480,5,2,0:2:0:0:
366,73,21629,2,0,P|331:79|286:67,1,73.2,2|2,3:2|0:2,0:0:0:0:
215,71,21926,2,0,P|179:80|143:74,1,73.2,2|2,3:2|0:2,0:0:0:0:
91,14,22223,1,2,3:2:0:0:
30,66,22371,1,2,0:2:0:0:
81,127,22520,1,2,3:2:0:0:
21,181,22668,1,2,0:2:0:0:
101,332,22965,1,2,0:2:0:0:
179,327,23114,2,0,L|266:319,1,73.2,2|2,3:2|3:2,0:0:0:0:
330,312,23411,1,2,0:2:0:0:
464,32,23708,21,2,3:2:0:0:
464,32,24005,2,0,P|472:138|482:250,1,219.6,2|0,3:2|0:0,0:0:0:0:
404,267,24599,2,0,P|397:187|390:108,1,146.4,2|0,3:2|3:0,0:0:0:0:
380,43,25044,1,2,0:2:0:0:
226,4,25342,1,2,0:2:0:0:
287,51,25490,1,2,3:2:0:0:
222,95,25639,1,2,0:2:0:0:
157,43,25787,1,2,3:2:0:0:
245,224,26084,2,0,L|239:297,1,73.2,2|0,3:2|0:2,0:0:0:0:
149,383,26381,22,0,L|155:310,1,73.2,2|2,3:2|0:2,0:0:0:0:
34,315,26678,2,0,L|90:267,1,73.2,2|2,3:2|0:2,0:0:0:0:
1,185,26975,2,0,L|73:191,1,73.2,2|2,3:2|0:2,0:0:0:0:
70,70,27272,2,0,L|117:126,1,73.2,2|2,3:2|0:2,0:0:0:0:
201,33,27569,21,2,3:2:0:0:
194,110,27718,1,2,0:2:0:0:
269,83,27866,1,2,3:2:0:0:
262,160,28015,1,2,0:2:0:0:
262,160,28312,1,2,0:2:0:0:
254,238,28460,1,2,3:2:0:0:
487,376,28757,22,0,P|490:338|493:296,1,73.2,2|0,3:2|0:2,0:0:0:0:
427,258,29054,1,2,3:2:0:0:
501,118,29351,1,2,3:2:0:0:
435,73,29500,1,2,0:2:0:0:
357,83,29648,1,2,3:2:0:0:
309,146,29797,2,0,P|254:182|161:204,1,146.4,2|0,0:2|0:0,0:0:0:0:
127,265,30243,2,0,P|94:248|64:206,1,73.2,2|0,3:2|0:0,0:0:0:0:
14,165,30540,1,2,3:2:0:0:
231,55,30837,53,2,3:2:0:0:
231,55,31134,2,0,P|297:83|368:73,1,146.4,2|2,3:2|3:2,0:2:0:0:
380,1,31579,2,0,P|388:72|432:129,1,146.4,2|2,0:2|0:2,0:2:0:0:
501,103,32025,2,0,P|442:145|415:212,1,146.4,2|2,3:2|3:2,0:2:0:0:
486,246,32470,2,0,P|452:231|417:236,1,73.2,2|2,0:2|3:0,0:2:0:0:
252,378,32916,5,8,3:2:0:0:
229,376,32990,1,8,0:2:0:0:
206,374,33064,1,8,0:2:0:0:
183,372,33139,1,8,0:2:0:0:
160,370,33213,1,8,3:2:0:0:
138,368,33287,1,8,0:2:0:0:
115,366,33361,1,8,0:2:0:0:
92,364,33436,1,8,0:2:0:0:
67,360,33510,38,0,P|51:302|149:218,1,183,6|8,3:2|3:2,0:0:0:0:
91,114,33955,2,0,P|131:190|222:211,1,183,4|0,3:2|3:0,0:0:0:0:
288,54,34401,37,8,0:2:0:0:
290,76,34475,1,8,0:2:0:0:
292,100,34549,1,8,0:2:0:0:
294,123,34624,1,8,0:2:0:0:
296,146,34698,1,12,3:2:0:0:
306,236,34846,2,0,L|310:283,4,45.75,8|8|8|8|8,0:2|0:2|0:2|0:2|0:2,0:0:0:0:
384,187,35292,1,8,0:2:0:0:
406,192,35366,1,8,0:2:0:0:
428,190,35441,1,8,0:2:0:0:
450,182,35515,1,8,0:2:0:0:
468,168,35589,2,0,L|464:121,4,45.75,8|8|8|8|12,0:2|0:2|0:2|0:2|3:2,0:0:0:0:
356,30,36035,37,8,0:2:0:0:
356,30,36109,1,8,0:2:0:0:
356,30,36183,2,0,L|310:33,3,45.75,8|8|8|8,3:2|0:2|0:2|0:2,0:0:0:0:
318,137,36480,38,0,L|283:106,3,45.75,8|8|8|8,3:0|3:0|3:0|3:0,3:0:0:0:
218,190,36777,38,8,L|215:144,3,45.75,8|8|8|8,3:0|3:0|3:0|3:0,3:0:0:0:
201,145,37074,2,0,L|198:99,1,45.75,0|0,3:0|3:0,3:0:0:0:
114,69,37223,38,0,L|118:24,8,45.75,8|8|8|8|8|8|8|8|0,3:0|3:0|3:0|3:0|3:0|3:0|3:0|3:0|0:0,0:0:0:0:
94,78,37891,1,8,3:0:0:0:
94,78,37965,2,8,L|91:123,3,45.75,8|8|8|8,3:0|3:0|3:0|3:0,3:0:0:0:
27,173,38262,37,4,3:2:0:0:
256,192,40342,12,0,42421,3:0:0:0:
46,256,42718,5,8,0:2:0:0:
46,256,43015,2,0,P|108:319|197:313,1,183,4|8,3:2|0:2,0:2:0:0:
256,259,43460,1,2,0:2:0:0:
312,311,43609,2,0,P|400:319|463:256,1,183,2|8,3:2|0:2,0:2:0:0:
491,183,44054,1,2,3:2:0:0:
464,109,44203,1,2,3:2:0:0:
212,18,44500,1,10,0:2:0:0:
269,128,44648,1,2,0:2:0:0:
212,18,44797,1,2,3:2:0:0:
15,332,45243,5,2,0:2:0:0:
92,280,45391,1,2,0:2:0:0:
124,368,45540,1,2,3:2:0:0:
205,324,45688,1,10,0:2:0:0:
256,384,45837,1,2,0:2:0:0:
307,324,45985,1,2,3:2:0:0:
388,368,46134,1,2,0:2:0:0:
420,280,46282,1,10,3:2:0:0:
497,332,46431,1,2,3:2:0:0:
497,332,46728,53,2,3:2:0:0:
485,194,46876,1,10,0:2:0:0:
485,194,47173,1,2,3:2:0:0:
353,0,47470,53,10,3:2:0:0:
353,0,47767,2,0,L|80:23,1,274.5,6|0,3:2|0:0,0:0:0:0:
44,103,48361,2,0,L|227:88,1,183,2|8,3:2|0:2,0:0:0:0:
190,172,48807,2,0,L|281:164,1,91.5,2|0,3:2|0:0,0:0:0:0:
417,151,49104,1,2,0:2:0:0:
353,200,49252,1,10,3:2:0:0:
468,216,49401,1,2,0:0:0:0:
409,268,49549,2,0,L|400:363,1,91.5,2|0,0:0|0:0,0:0:0:0:
238,251,49846,2,0,L|246:155,1,91.5,10|0,0:0|0:0,0:0:0:0:
5,208,50143,21,2,3:2:0:0:
62,282,50292,2,0,P|104:254|158:257,1,91.5,2|8,0:0|0:2,0:0:0:0:
182,370,50589,21,2,0:2:0:0:
239,287,50738,2,0,P|281:315|335:312,1,91.5,2|0,3:2|3:2,0:0:0:0:
341,173,51035,53,10,0:2:0:0:
414,279,51183,2,0,P|456:251|510:254,1,91.5,2|0,3:2|0:2,0:0:0:0:
341,173,51480,2,0,P|295:169|259:143,1,91.5,2|8,3:2|0:2,0:0:0:0:
413,84,51777,2,0,P|449:57|494:54,1,91.5,2|8,3:2|0:2,0:0:0:0:
325,82,52074,1,2,0:0:0:0:
439,172,52223,1,10,3:2:0:0:
28,56,52520,69,4,3:2:0:0:
180,56,52817,1,8,0:2:0:0:
332,56,53114,1,0,3:2:0:0:
408,56,53262,1,0,3:2:0:0:
484,56,53411,1,8,0:2:0:0:
484,328,53708,37,4,3:2:0:0:
332,328,54005,1,8,0:2:0:0:
256,328,54153,1,0,3:2:0:0:
104,328,54450,1,0,3:2:0:0:
28,328,54599,1,8,0:2:0:0:
256,147,54896,6,0,L|256:56,1,91.5,4|0,3:2|0:2,0:2:0:0:
256,237,55193,2,0,L|256:328,1,91.5,12|0,3:2|0:2,0:2:0:0:
176,192,55490,38,0,P|152:152|112:128,1,91.5,12|0,3:2|0:2,0:2:0:0:
336,192,55787,2,0,P|360:152|400:128,1,91.5,12|0,3:2|0:2,0:2:0:0:
483,327,56084,69,0,3:2:0:0:
332,328,56381,1,8,0:2:0:0:
256,328,56530,1,0,3:2:0:0:
104,328,56827,1,0,3:2:0:0:
28,328,56975,1,8,0:2:0:0:
84,88,57272,69,6,3:2:0:0:
97,248,57569,1,10,0:2:0:0:
104,328,57718,1,2,3:2:0:0:
260,361,58015,1,2,3:2:0:0:
253,282,58163,1,10,0:2:0:0:
246,203,58312,1,2,0:2:0:0:
404,223,58609,1,2,3:2:0:0:
343,173,58757,1,10,0:2:0:0:
282,122,58906,1,2,0:2:0:0:
408,25,59203,53,2,3:2:0:0:
330,32,59351,1,10,0:2:0:0:
251,39,59500,1,2,0:2:0:0:
219,247,59648,53,12,3:2:0:0:
203,157,59797,1,0,3:2:0:0:
309,232,59945,1,0,3:2:0:0:
293,142,60094,1,0,3:2:0:0:
211,258,60242,37,10,3:1:0:0:
319,239,60391,1,10,3:1:0:0:
192,150,60540,1,10,3:1:0:0:
300,131,60688,1,10,3:1:0:0:
366,212,61431,38,0,P|252:220|328:136,1,274.5,2|0,0:0|0:0,0:0:0:0:
449,237,62025,5,6,3:2:0:0:
397,312,62173,1,2,0:2:0:0:
487,321,62322,1,10,0:0:0:0:
449,237,62470,2,0,P|404:234|358:230,1,91.5,2|0,0:0|3:2,0:0:0:0:
280,174,62767,5,2,3:2:0:0:
212,231,62916,1,10,0:2:0:0:
261,304,63064,1,2,0:0:0:0:
125,349,63213,21,2,3:2:0:0:
117,261,63361,1,2,3:2:0:0:
105,169,63510,2,0,P|101:119|97:77,1,91.5,10|0,0:2|0:0,0:0:0:0:
178,36,63807,2,0,P|185:129|193:218,1,183,2|8,3:2|0:2,0:0:0:0:
216,342,64252,21,2,0:0:0:0:
298,382,64401,2,0,P|302:333|308:262,1,91.5,2|0,3:2|3:2,0:0:0:0:
487,247,64698,21,10,0:2:0:0:
405,206,64846,2,0,P|400:252|395:298,1,91.5,2|0,0:0|3:2,0:0:0:0:
317,182,65143,53,2,3:2:0:0:
438,119,65292,1,10,0:2:0:0:
371,28,65441,2,0,B|263:31|312:83|202:92,1,183,2|2,3:2|3:2,0:0:0:0:
2,10,65886,38,0,P|68:17|97:83,1,137.250005235672,10|0,0:1|0:0,0:0:0:0:
221,12,66183,22,0,P|212:100|139:149,1,183,2|8,3:2|0:2,0:0:0:0:
98,384,66777,21,6,3:2:0:0:
60,300,66926,1,2,3:2:0:0:
150,309,67074,1,10,0:2:0:0:
125,227,67223,2,0,P|170:230|216:234,1,91.5,2|0,0:0|3:2,0:0:0:0:
323,241,67520,5,2,3:2:0:0:
315,153,67668,1,10,0:2:0:0:
307,66,67817,1,2,0:0:0:0:
222,128,67965,21,2,3:2:0:0:
226,215,68114,1,2,3:2:0:0:
222,128,68262,2,0,P|219:83|215:37,1,91.5,10|0,0:2|0:0,0:0:0:0:
393,6,68559,2,0,P|400:100|409:195,1,183,2|8,3:2|0:2,0:0:0:0:
512,267,69005,21,2,0:0:0:0:
467,346,69153,2,0,P|420:341|363:336,1,91.5,2|0,3:2|0:0,0:0:0:0:
375,320,69376,1,2,0:2:0:0:
253,384,69599,2,0,P|206:380|149:374,1,91.5,2|0,0:2|3:2,0:0:0:0:
70,367,69896,1,2,3:2:0:0:
29,285,70044,1,10,0:2:0:0:
84,212,70193,1,2,3:2:0:0:
257,152,70490,2,0,P|262:195|264:243,1,91.5,2|8,3:2|0:2,0:0:0:0:
334,302,70787,1,2,0:0:0:0:
411,252,70936,2,0,P|400:161|396:69,1,183,2|8,3:2|0:2,0:0:0:0:
77,157,71530,5,6,3:2:0:0:
39,73,71678,1,2,0:0:0:0:
129,82,71827,1,10,0:2:0:0:
77,157,71975,2,0,P|122:154|168:150,1,91.5,2|0,0:0|3:2,0:0:0:0:
222,73,72272,5,2,3:2:0:0:
304,114,72421,1,10,0:2:0:0:
334,27,72569,1,2,0:0:0:0:
447,51,72718,21,2,3:2:0:0:
439,139,72866,1,2,3:2:0:0:
427,231,73015,2,0,P|423:281|419:323,1,91.5,10|0,0:2|0:0,0:0:0:0:
333,356,73312,2,0,P|341:264|348:173,1,183,2|8,3:2|0:2,0:0:0:0:
248,6,73757,21,2,0:0:0:0:
288,88,73906,2,0,P|239:92|168:98,1,91.5,2|0,3:2|0:0,0:0:0:0:
51,81,74203,21,10,0:2:0:0:
91,163,74351,2,0,P|42:167|-29:173,1,91.5,2|0,0:0|3:2,0:0:0:0:
173,207,74648,53,2,3:2:0:0:
127,37,74797,1,10,0:2:0:0:
292,103,74945,2,0,L|484:55,1,183,2|2,3:2|3:2,0:0:0:0:
512,216,75391,38,0,L|347:161,1,137.250005235672,10|0,0:1|0:0,0:0:0:0:
251,244,75688,22,0,L|439:196,1,183,2|8,3:2|0:2,0:0:0:0:
58,212,76282,21,6,3:2:0:0:
20,296,76431,1,2,0:2:0:0:
110,287,76579,1,10,0:2:0:0:
85,369,76728,2,0,P|130:366|176:362,1,91.5,2|0,0:0|3:2,0:0:0:0:
224,290,77025,5,2,3:2:0:0:
312,298,77173,1,10,0:2:0:0:
399,306,77322,1,2,0:0:0:0:
367,219,77470,21,2,3:2:0:0:
280,215,77619,1,2,3:2:0:0:
367,219,77767,2,0,P|412:222|458:226,1,91.5,10|0,0:2|0:0,0:0:0:0:
330,121,78064,2,0,P|421:128|512:135,1,183,2|8,3:2|0:2,0:0:0:0:
339,29,78510,21,2,0:0:0:0:
247,26,78658,1,2,3:2:0:0:
150,131,78881,1,2,0:0:0:0:
210,261,79104,2,0,P|255:256|301:252,1,91.5,2|0,0:2|3:2,0:0:0:0:
294,160,79401,2,0,P|339:164|385:168,1,91.5,2|8,3:2|0:2,0:0:0:0:
483,248,79698,2,0,P|438:321|342:327,1,183,2|0,3:2|3:2,0:0:0:0:
209,249,80143,37,8,3:2:0:0:
137,306,80292,2,0,L|141:353,2,45.75,8|8|8,0:0|0:0|3:2,0:0:0:0:
45,296,80589,1,8,0:0:0:0:
43,273,80663,1,8,0:0:0:0:
41,250,80738,1,8,3:2:0:0:
39,227,80812,1,8,0:0:0:0:
37,204,80886,1,8,0:0:0:0:
187,132,81035,53,6,3:2:0:0:
96,123,81183,1,2,0:0:0:0:
134,206,81332,1,10,0:0:0:0:
187,132,81480,2,0,P|190:177|194:223,1,91.5,2|0,0:0|3:2,0:0:0:0:
149,369,81777,5,2,3:2:0:0:
217,312,81926,1,10,3:2:0:0:
285,255,82074,1,2,0:0:0:0:
377,376,82223,21,2,3:2:0:0:
369,288,82371,1,2,3:2:0:0:
360,196,82520,2,0,P|410:192|452:188,1,91.5,10|0,3:2|3:2,0:0:0:0:
486,103,82817,2,0,P|393:110|304:118,1,183,2|8,3:2|3:2,0:0:0:0:
118,48,83262,21,2,0:0:0:0:
200,8,83411,2,0,P|204:57|210:128,1,91.5,2|0,3:2|3:2,0:0:0:0:
52,200,83708,21,10,3:2:0:0:
134,159,83856,2,0,P|139:205|144:251,1,91.5,2|0,3:2|3:2,0:0:0:0:
226,214,84153,53,2,3:2:0:0:
70,303,84302,1,10,3:2:0:0:
178,382,84450,2,0,B|286:379|237:327|347:318,1,183,2|2,0:0|3:2,0:0:0:0:
512,321,84896,38,0,P|446:314|417:248,1,137.250005235672,10|0,3:1|0:0,0:0:0:0:
289,203,85193,22,0,P|362:154|371:66,1,183,2|8,3:2|3:2,0:0:0:0:
19,1,85787,53,10,3:2:0:0:
122,48,85936,1,8,3:2:0:0:
122,48,86010,1,8,0:2:0:0:
122,48,86084,2,0,L|116:111,3,45.75,8|8|8|8,0:2|0:2|3:2|0:2,0:0:0:0:
98,100,86381,2,0,L|92:163,3,45.75,8|8|8|8,0:2|0:2|3:2|0:2,0:0:0:0:
74,152,86678,2,0,L|68:215,3,45.75,8|8|8|8,0:2|0:2|3:2|0:2,0:0:0:0:
50,204,86975,1,8,0:2:0:0:
106,361,87272,37,2,3:0:0:0:
106,361,87569,1,2,3:0:0:0:
106,361,87866,1,2,3:0:0:0:
256,192,88163,37,4,3:2:0:0:
