osu file format v14

[General]
AudioFilename: pirated.mp3
AudioLeadIn: 0
PreviewTime: 61428
Countdown: 0
SampleSet: Soft
StackLeniency: 0.7
Mode: 0
LetterboxInBreaks: 0
WidescreenStoryboard: 1

[Editor]
Bookmarks: 9723,33485,38238,52495,62000,88139
DistanceSpacing: 1
BeatDivisor: 4
GridSize: 4
TimelineZoom: 1.7

[Metadata]
Title:EGOiSTiC SHOOTER (Cut Ver.)
TitleUnicode:EGOiSTiC SHOOTER (Cut Ver.)
Artist:LiSA
ArtistUnicode:LiSA
Creator:Chanmann
Version:Hard
Source:
Tags:Lover"s"mile rock jrock japanese wowaka skubi cptsqbany
BeatmapID:3411854
BeatmapSetID:1668586

[Difficulty]
HPDrainRate:4
CircleSize:4
OverallDifficulty:6
ApproachRate:8
SliderMultiplier:1.43
SliderTickRate:2

[Events]
//Background and Video events
0,0,"13259_waifu2x_art_noise2_tta_1.png",0,0
//Break Periods
2,38482,41968
//Storyboard Layer 0 (Background)
//Storyboard Layer 1 (Fail)
//Storyboard Layer 2 (Pass)
//Storyboard Layer 3 (Foreground)
//Storyboard Layer 4 (Overlay)
//Storyboard Sound Samples

[TimingPoints]
243,297.029702970297,4,2,1,43,1,0
243,-100,4,2,1,43,0,0
14500,-100,4,2,1,43,0,0
32916,-100,4,2,1,63,0,0
33510,-100,4,2,1,63,0,1
38262,-100,4,2,1,43,0,0
42718,-100,4,2,1,53,0,0
54896,-100,4,2,1,63,0,1
56084,-100,4,2,1,63,0,0
59648,-100,4,2,1,63,0,1
60837,-100,4,2,1,73,0,0
61431,-100,4,2,1,33,0,0
62025,-100,4,2,1,73,0,0
65886,-66.6666666666667,4,2,1,73,0,1
66109,-66.6666666666667,4,2,1,5,0,1
66183,-100,4,2,1,73,0,0
66406,-100,4,2,1,5,0,0
66480,-100,4,2,1,73,0,0
69302,-100,4,2,1,5,0,0
69376,-100,4,2,1,73,0,0
69525,-100,4,2,1,5,0,0
69599,-100,4,2,1,73,0,0
69673,-100,4,2,1,5,0,0
69747,-100,4,2,1,73,0,0
75391,-66.6666666666667,4,2,1,73,0,1
75614,-66.6666666666667,4,2,1,5,0,1
75688,-100,4,2,1,73,0,0
78955,-100,4,2,1,73,0,0
81024,-100,4,2,1,73,0,0
83431,-100,4,2,1,73,0,0
84896,-66.6666666666667,4,2,1,73,0,1
85119,-66.6666666666667,4,2,1,5,0,1
85193,-100,4,2,1,73,0,0
85416,-100,4,2,1,5,0,0
85490,-100,4,2,1,73,0,0

[Colours]
Combo1 : 255,255,128
Combo2 : 192,192,192
Combo3 : 157,255,255
Combo4 : 0,255,128
Combo5 : 128,128,255
Combo6 : 255,0,128

[HitObjects]
47,131,14500,38,0,P|114:33|211:39,1,214.5,6|2,3:2|0:2,0:2:0:0:
256,90,15094,1,2,3:2:0:0:
393,165,15391,1,2,3:2:0:0:
465,131,15540,2,0,P|398:33|301:39,1,214.5,2|2,0:2|3:2,0:2:0:0:
311,33,16282,1,2,3:2:0:0:
443,299,16728,5,2,0:2:0:0:
366,318,16876,2,0,P|330:320|295:311,1,71.5,2|2,3:2|0:2,0:0:0:0:
216,311,17173,2,0,P|181:320|146:318,1,71.5,2|2,3:2|0:2,0:0:0:0:
69,299,17470,2,0,P|65:334|62:370,2,71.5,2|2|2,3:2|0:2|3:2,0:0:0:0:
13,242,17916,1,2,0:2:0:0:
131,138,18213,2,0,P|134:103|137:58,2,71.5,2|2|2,0:2|3:2|0:2,0:0:0:0:
199,180,18658,1,2,3:2:0:0:
381,202,18955,69,2,3:2:0:0:
381,202,19252,2,0,P|305:291|295:384,1,214.5,2|0,3:2|0:2,0:2:0:0:
216,384,19846,2,0,P|201:279|130:201,1,214.5,2|2,3:2|0:2,0:2:0:0:
256,114,20589,2,0,L|256:43,2,71.5,2|2|2,0:2|3:2|0:2,0:0:0:0:
256,192,21035,1,2,3:2:0:0:
98,3,21480,5,2,0:2:0:0:
146,66,21629,2,0,P|182:64|217:73,1,71.5,2|2,3:2|0:2,0:0:0:0:
296,73,21926,2,0,P|331:64|366:66,1,71.5,2|2,3:2|0:2,0:0:0:0:
443,85,22223,2,0,P|446:50|450:6,2,71.5,2|2|2,3:2|0:2|3:2,0:0:0:0:
499,142,22668,1,2,0:2:0:0:
422,279,22965,2,0,P|419:314|415:358,2,71.5,2|2|2,0:2|3:2|3:2,0:0:0:0:
366,222,23411,1,2,0:2:0:0:
95,359,23708,21,2,3:2:0:0:
95,359,24005,2,0,P|84:225|68:59,1,286,2|2,3:2|3:2,0:0:0:0:
70,74,25044,1,2,0:2:0:0:
226,90,25342,2,0,P|228:121|232:169,2,71.5,2|2|2,0:2|3:2|0:2,0:0:0:0:
216,16,25787,1,2,3:2:0:0:
216,16,26084,1,2,3:2:0:0:
402,119,26381,22,0,L|489:110,1,71.5,2|2,3:2|0:2,0:0:0:0:
395,100,26678,2,0,L|452:32,1,71.5,2|2,3:2|0:2,0:0:0:0:
378,91,26975,2,0,L|370:2,1,71.5,2|2,3:2|0:2,0:0:0:0:
360,96,27272,2,0,L|293:38,1,71.5,2|2,3:2|0:2,0:0:0:0:
351,112,27569,22,0,L|263:118,2,71.5,2|2|2,3:2|0:2|3:2,0:0:0:0:
362,190,28015,1,2,0:2:0:0:
362,190,28312,2,0,L|274:196,1,71.5,2|2,0:2|3:2,0:0:0:0:
491,89,28757,22,0,P|495:152|503:231,1,143,2|2,3:2|3:2,0:0:0:0:
362,302,29351,2,0,P|364:337|367:373,2,71.5,2|2|2,3:2|0:2|3:2,0:0:0:0:
433,269,29797,2,0,P|380:201|311:206,1,143,2|0,0:2|0:0,0:0:0:0:
266,245,30243,1,2,3:2:0:0:
266,245,30540,1,2,3:2:0:0:
314,108,30837,5,2,3:2:0:0:
314,108,31134,2,0,P|243:104|182:139,1,143,2|2,3:2|3:2,0:2:0:0:
191,218,31579,2,0,P|157:154|74:115,1,143,2|2,0:2|0:2,0:2:0:0:
33,161,32025,2,0,P|71:100|63:8,1,143,2|2,3:2|3:2,0:2:0:0:
0,0,32470,1,2,0:2:0:0:
98,236,32916,6,0,L|93:291,3,35.75,8|8|8|8,3:2|0:2|0:2|0:2,0:0:0:0:
105,286,33213,2,0,L|100:341,3,35.75,8|8|8|8,3:2|0:2|0:2|0:2,0:0:0:0:
114,335,33510,38,0,P|194:372|261:335,1,143,6|8,3:2|3:2,0:0:0:0:
289,293,33955,2,0,P|356:276|416:313,1,143,4|0,3:2|3:0,0:0:0:0:
470,224,34401,38,0,L|474:260,4,35.75,8|8|8|8|12,0:2|0:2|0:2|0:2|3:2,0:0:0:0:
427,158,34846,2,0,L|423:122,4,35.75,8|8|8|8|8,0:2|0:2|0:2|0:2|0:2,0:0:0:0:
359,195,35292,2,0,L|323:198,3,35.75,8|8|8|8,0:2|0:2|0:2|0:2,0:0:0:0:
316,214,35589,2,0,L|280:217,3,35.75,8|8|8|0,0:2|0:2|0:2|0:0,0:0:0:0:
268,229,35886,1,12,3:2:0:0:
215,170,36035,37,8,0:2:0:0:
215,170,36109,1,8,0:2:0:0:
215,170,36183,2,0,L|218:131,3,35.75,8|8|8|8,3:2|0:2|0:2|0:2,0:0:0:0:
191,180,36480,2,0,L|165:150,3,35.75,8|8|8|8,3:0|3:0|3:0|3:0,3:0:0:0:
183,202,36777,2,8,L|143:199,3,35.75,8|8|8|8,3:0|3:0|3:0|3:0,3:0:0:0:
256,192,37074,12,4,38262,3:2:0:0:
82,135,42718,53,8,0:0:0:0:
82,135,43015,2,0,P|146:79|212:89,1,143,4|8,3:2|0:2,0:2:0:0:
256,140,43460,1,2,0:2:0:0:
312,82,43609,2,0,P|382:84|430:135,1,143,2|8,3:2|0:2,0:2:0:0:
497,174,44054,2,0,P|487:209|490:252,1,71.5,2|2,3:2|3:2,0:0:0:0:
416,383,44500,1,10,0:2:0:0:
336,372,44648,1,2,0:2:0:0:
256,365,44797,1,2,3:2:0:0:
114,113,45243,5,2,0:2:0:0:
157,48,45391,2,0,P|187:73|232:91,1,71.5,2|2,0:2|3:2,0:0:0:0:
295,86,45688,2,0,P|327:71|355:47,1,71.5,10|2,0:2|0:2,0:0:0:0:
398,113,45985,1,2,3:2:0:0:
454,57,46134,1,2,0:2:0:0:
499,121,46282,2,0,P|493:157|491:208,1,71.5,10|2,3:2|3:2,0:0:0:0:
319,233,46728,1,2,3:2:0:0:
256,192,46876,1,10,0:2:0:0:
256,192,47173,1,2,3:2:0:0:
81,171,47470,21,10,0:2:0:0:
81,171,47767,2,0,P|90:266|100:394,1,214.5,6|0,3:2|0:0,0:0:0:0:
178,379,48361,2,0,P|169:284|158:155,1,214.5,2|2,3:2|3:2,0:0:0:0:
258,287,49104,2,0,L|252:211,1,71.5,2|10,3:2|0:2,0:0:0:0:
246,137,49401,1,2,0:0:0:0:
243,63,49549,1,2,3:2:0:0:
243,63,49846,1,10,0:2:0:0:
15,208,50143,22,0,P|40:181|93:172,1,71.5,2|2,3:2|0:0,0:0:0:0:
191,273,50589,2,0,P|216:300|269:309,1,71.5,2|2,0:2|3:2,0:0:0:0:
313,166,51035,1,10,0:2:0:0:
381,126,51183,1,2,3:2:0:0:
493,247,51480,1,2,3:2:0:0:
412,381,51777,1,2,3:2:0:0:
256,352,52074,1,2,3:2:0:0:
324,312,52223,1,10,3:2:0:0:
256,128,52520,70,0,L|256:271,2,143,4|8|0,3:2|0:2|3:2,0:0:0:0:
177,113,53262,1,0,3:2:0:0:
97,113,53411,1,8,0:2:0:0:
113,271,53708,38,0,L|256:271,1,143,4|8,3:2|0:2,0:0:0:0:
336,271,54153,1,0,3:2:0:0:
336,271,54450,1,0,3:2:0:0:
416,271,54599,1,8,0:2:0:0:
336,113,54896,5,4,3:2:0:0:
336,271,55193,1,12,3:2:0:0:
176,271,55490,1,12,3:2:0:0:
176,113,55787,1,4,3:2:0:0:
320,192,56084,22,0,L|177:192,1,143,0|8,3:2|0:2,0:0:0:0:
100,195,56530,1,0,3:2:0:0:
100,195,56827,1,0,3:2:0:0:
22,192,56975,1,8,0:2:0:0:
129,283,57272,69,6,3:2:0:0:
251,377,57569,1,10,0:2:0:0:
330,370,57718,1,2,3:2:0:0:
472,303,58015,2,0,P|472:264|490:234,2,71.5,2|10|2,3:2|0:2|0:2,0:0:0:0:
350,202,58609,2,0,P|377:174|411:165,2,71.5,2|10|2,3:2|0:2|0:2,0:0:0:0:
335,44,59203,2,0,P|374:44|403:62,2,71.5,2|10|2,3:2|0:2|0:2,0:0:0:0:
256,17,59648,21,12,3:2:0:0:
278,211,59945,1,0,3:2:0:0:
140,286,60242,37,10,3:1:0:0:
218,278,60391,1,10,3:1:0:0:
226,358,60540,1,10,3:1:0:0:
149,365,60688,1,10,3:1:0:0:
256,192,61431,37,2,0:0:0:0:
484,253,62025,5,6,3:2:0:0:
421,209,62173,1,2,0:0:0:0:
491,176,62322,1,10,0:2:0:0:
428,132,62470,1,2,0:0:0:0:
253,170,62767,5,2,3:2:0:0:
309,226,62916,1,10,0:2:0:0:
366,283,63064,1,2,0:0:0:0:
319,346,63213,2,0,P|278:341|224:337,1,71.5,2|2,3:2|3:2,0:0:0:0:
173,331,63510,1,10,0:2:0:0:
173,331,63807,1,2,3:2:0:0:
118,16,64252,53,2,0:0:0:0:
189,48,64401,2,0,P|184:89|180:143,1,71.5,2|0,3:2|3:2,0:0:0:0:
123,181,64698,21,10,0:2:0:0:
194,213,64846,2,0,P|190:254|186:308,1,71.5,2|0,0:0|3:2,0:0:0:0:
114,343,65143,53,2,3:2:0:0:
186,374,65292,1,10,0:2:0:0:
252,331,65441,2,0,B|320:309|318:369|403:339,1,143,2|2,3:2|3:2,0:0:0:0:
371,244,65886,38,0,P|374:296|408:336,1,107.250004091263,10|0,0:1|0:0,0:0:0:0:
497,309,66183,22,0,P|500:249|428:192,1,143,2|8,3:2|0:2,0:0:0:0:
386,18,66777,21,6,3:2:0:0:
342,81,66926,1,2,3:2:0:0:
309,11,67074,1,10,0:2:0:0:
265,74,67223,1,2,0:0:0:0:
115,22,67520,37,2,3:2:0:0:
122,99,67668,1,10,0:2:0:0:
129,176,67817,1,2,0:0:0:0:
206,166,67965,2,0,P|209:201|213:237,1,71.5,2|2,3:2|3:2,0:0:0:0:
221,315,68262,1,10,0:2:0:0:
374,280,68559,1,2,3:2:0:0:
392,44,69005,21,2,0:0:0:0:
468,26,69153,1,2,3:2:0:0:
503,133,69376,2,0,P|498:186|493:239,1,107.25,2|2,0:2|0:2,0:0:0:0:
378,130,69896,1,2,3:2:0:0:
311,89,70044,1,10,0:2:0:0:
233,104,70193,1,2,3:2:0:0:
132,225,70490,2,0,P|204:231|275:239,1,143,2|2,3:2|0:0,0:0:0:0:
348,213,70936,1,2,3:2:0:0:
10,252,71530,5,6,3:2:0:0:
73,296,71678,1,2,0:0:0:0:
3,329,71827,1,10,0:2:0:0:
66,373,71975,1,2,0:0:0:0:
241,335,72272,5,2,3:2:0:0:
185,279,72421,1,10,0:2:0:0:
128,222,72569,1,2,0:0:0:0:
173,157,72718,2,0,P|214:162|268:166,1,71.5,2|2,3:2|3:2,0:0:0:0:
324,177,73015,1,10,0:2:0:0:
324,177,73312,1,2,3:2:0:0:
472,20,73757,53,2,0:0:0:0:
441,92,73906,2,0,P|399:94|345:99,1,71.5,2|0,3:2|0:0,0:0:0:0:
303,41,74203,21,10,0:2:0:0:
272,113,74351,2,0,P|230:115|176:120,1,71.5,2|0,0:0|3:2,0:0:0:0:
157,40,74648,53,2,3:2:0:0:
106,100,74797,1,10,0:2:0:0:
40,62,74945,2,0,L|102:211,1,143,2|2,3:2|3:2,0:0:0:0:
84,273,75391,38,0,L|126:171,1,107.250004091263,10|0,0:1|0:0,0:0:0:0:
211,189,75688,22,0,L|149:338,1,143,2|8,3:2|0:2,0:0:0:0:
355,112,76282,21,6,3:2:0:0:
362,189,76431,1,2,0:2:0:0:
292,156,76579,1,10,0:2:0:0:
299,233,76728,1,2,0:0:0:0:
333,384,77025,37,2,3:2:0:0:
277,328,77173,1,10,0:2:0:0:
220,271,77322,1,2,0:0:0:0:
146,298,77470,2,0,P|144:262|141:226,1,71.5,2|2,3:2|3:2,0:0:0:0:
194,167,77767,1,10,0:2:0:0:
54,94,78064,2,0,P|59:165|62:236,1,143,2|8,3:2|0:2,0:0:0:0:
18,311,78510,21,2,0:0:0:0:
78,364,78658,2,0,P|135:359|192:356,1,107.25,2|2,3:2|0:0,0:0:0:0:
262,257,79104,1,2,0:2:0:0:
426,304,79401,1,2,3:2:0:0:
488,146,79698,2,0,P|459:93|367:74,1,143,2|2,3:2|3:2,0:0:0:0:
352,141,80143,1,10,3:2:0:0:
291,90,80292,1,2,0:0:0:0:
226,130,80441,2,0,P|158:113|121:53,1,143,2|8,3:2|3:2,0:0:0:0:
216,223,81035,5,6,3:2:0:0:
139,216,81184,1,2,0:0:0:0:
172,286,81332,1,10,3:2:0:0:
95,279,81481,1,2,0:0:0:0:
13,144,81777,5,2,3:2:0:0:
90,137,81926,1,10,3:2:0:0:
167,130,82074,1,2,0:0:0:0:
176,52,82223,2,0,P|211:49|247:45,1,71.5,2|2,3:2|3:2,0:0:0:0:
294,111,82520,1,10,3:2:0:0:
294,111,82817,2,0,P|364:105|436:97,1,143,2|8,3:2|3:2,0:0:0:0:
506,165,83262,53,2,0:0:0:0:
435,197,83411,2,0,P|440:238|444:292,1,71.5,2|0,3:2|3:2,0:0:0:0:
390,334,83708,21,10,3:2:0:0:
319,302,83856,2,0,P|324:264|328:207,1,71.5,2|0,3:2|3:2,0:0:0:0:
285,161,84153,53,2,3:2:0:0:
219,204,84302,1,10,3:2:0:0:
141,193,84450,2,0,B|131:262|190:250|176:325,1,143,2|2,0:0|3:2,0:0:0:0:
246,380,84896,38,0,P|285:345|338:342,1,107.250004091263,10|0,3:1|0:0,0:0:0:0:
421,324,85193,22,0,P|361:326|304:255,1,143,2|8,3:2|3:2,0:0:0:0:
460,191,85787,6,0,P|455:154|415:118,1,71.5,10|0,3:2|0:2,0:0:0:0:
471,58,86084,1,10,3:2:0:0:
408,9,86233,2,0,L|258:44,1,143,10|10,3:2|3:2,0:0:0:0:
194,20,86678,1,10,3:2:0:0:
41,60,86975,1,10,0:2:0:0:
256,192,88163,37,4,3:2:0:0:
