osu file format v14

[General]
AudioFilename: audio.mp3
AudioLeadIn: 0
PreviewTime: 48373
Countdown: 0
SampleSet: Normal
StackLeniency: 0.7
Mode: 1
LetterboxInBreaks: 0
WidescreenStoryboard: 0

[Editor]
Bookmarks: 120
DistanceSpacing: 1
BeatDivisor: 4
GridSize: 32
TimelineZoom: 1.6

[Metadata]
Title:Datte Atashi no Hero. -TV ver.-
TitleUnicode:だってアタシのヒーロー。-TV ver.-
Artist:LiSA
ArtistUnicode:LiSA
Creator:TAKAHIRO69
Version:Oni
Source:僕のヒーローアカデミア
Tags:season two boku no hero academia my anime bakugou midoriya
BeatmapID:1392833
BeatmapSetID:657576

[Difficulty]
HPDrainRate:5
CircleSize:5
OverallDifficulty:6
ApproachRate:5
SliderMultiplier:1.4
SliderTickRate:1

[Events]
//Background and Video events
0,0,"izuku_midoriya-vs-katsuki_bakugou-my_hero_academia-(13233).jpg",0,0
//Break Periods
//Storyboard Layer 0 (Background)
//Storyboard Layer 1 (Fail)
//Storyboard Layer 2 (Pass)
//Storyboard Layer 3 (Foreground)
//Storyboard Sound Samples

[TimingPoints]
120,317.460317460317,4,1,0,80,1,0
48373,-100,4,1,0,90,0,1
72500,-100,4,1,0,80,0,0
73770,-100,4,1,0,90,0,1
86310,-100,4,1,0,90,0,0

[HitObjects]
197,154,120,5,0,0:0:0:0:
311,216,278,1,0,0:0:0:0:
311,216,437,1,8,0:0:0:0:
311,216,596,1,0,0:0:0:0:
319,267,913,1,0,0:0:0:0:
326,257,1231,1,8,0:0:0:0:
326,257,1389,1,8,0:0:0:0:
306,244,1548,1,0,0:0:0:0:
289,233,1866,1,0,0:0:0:0:
289,233,2024,1,8,0:0:0:0:
289,233,2183,1,8,0:0:0:0:
289,233,2262,1,8,0:0:0:0:
226,169,2342,1,8,0:0:0:0:
226,169,2659,1,0,0:0:0:0:
226,169,2818,1,0,0:0:0:0:
226,169,2977,1,8,0:0:0:0:
188,139,3135,1,0,0:0:0:0:
226,169,3453,1,0,0:0:0:0:
226,169,3612,1,0,0:0:0:0:
226,169,3770,1,8,0:0:0:0:
226,169,3929,1,8,0:0:0:0:
226,144,4088,1,0,0:0:0:0:
188,139,4405,1,0,0:0:0:0:
188,139,4564,1,8,0:0:0:0:
188,139,4723,1,8,0:0:0:0:
195,138,5199,1,4,0:0:0:0:
219,147,5358,1,0,0:0:0:0:
219,147,5516,1,8,0:0:0:0:
219,147,5596,1,8,0:0:0:0:
219,147,5675,1,0,0:0:0:0:
219,147,5834,1,8,0:0:0:0:
219,147,5993,1,0,0:0:0:0:
219,147,6151,1,0,0:0:0:0:
219,147,6310,1,8,0:0:0:0:
219,147,6469,1,0,0:0:0:0:
219,147,6548,1,0,0:0:0:0:
219,147,6627,1,0,0:0:0:0:
219,147,6786,1,8,0:0:0:0:
219,147,6945,1,0,0:0:0:0:
219,147,7104,1,8,0:0:0:0:
219,147,7183,1,0,0:0:0:0:
219,147,7342,1,0,0:0:0:0:
219,147,7421,1,8,0:0:0:0:
368,167,7739,1,0,0:0:0:0:
368,167,7897,1,0,0:0:0:0:
340,162,7977,1,0,0:0:0:0:
277,195,8056,1,8,0:0:0:0:
277,195,8215,1,8,0:0:0:0:
262,175,8373,1,0,0:0:0:0:
231,182,8532,1,0,0:0:0:0:
266,162,8691,1,8,0:0:0:0:
220,171,8770,1,8,0:0:0:0:
211,170,8850,1,0,0:0:0:0:
218,163,9008,1,8,0:0:0:0:
218,163,9167,1,8,0:0:0:0:
190,142,9326,1,0,0:0:0:0:
211,156,9405,1,0,0:0:0:0:
211,156,9564,1,0,0:0:0:0:
249,234,9643,1,8,0:0:0:0:
211,156,9802,1,8,0:0:0:0:
286,130,10119,1,8,0:0:0:0:
263,127,10278,1,0,0:0:0:0:
279,159,10437,1,0,0:0:0:0:
213,178,10596,1,8,0:0:0:0:
184,187,10675,1,8,0:0:0:0:
179,173,10754,1,0,0:0:0:0:
179,173,10913,1,8,0:0:0:0:
152,137,11072,1,0,0:0:0:0:
152,137,11151,1,0,0:0:0:0:
138,168,11231,1,0,0:0:0:0:
144,168,11389,1,8,0:0:0:0:
149,154,11548,1,8,0:0:0:0:
163,150,11707,1,0,0:0:0:0:
167,158,11786,1,0,0:0:0:0:
171,156,11866,1,8,0:0:0:0:
171,156,12024,1,0,0:0:0:0:
256,186,12183,1,8,0:0:0:0:
180,135,12262,1,0,0:0:0:0:
229,112,12421,1,0,0:0:0:0:
224,79,12500,1,8,0:0:0:0:
196,125,12818,1,0,0:0:0:0:
216,122,12897,1,0,0:0:0:0:
220,121,12977,1,8,0:0:0:0:
224,118,13135,1,0,0:0:0:0:
215,241,13294,1,8,0:0:0:0:
225,223,13373,1,8,0:0:0:0:
229,112,13453,1,8,0:0:0:0:
241,177,13612,1,0,0:0:0:0:
247,177,13770,1,8,0:0:0:0:
237,263,13850,1,8,0:0:0:0:
219,244,13929,1,0,0:0:0:0:
257,173,14088,1,0,0:0:0:0:
218,267,14167,1,0,0:0:0:0:
275,182,14246,1,0,0:0:0:0:
266,196,14326,1,0,0:0:0:0:
263,190,14405,1,8,0:0:0:0:
217,192,14564,1,8,0:0:0:0:
217,192,14723,1,0,0:0:0:0:
226,189,14881,1,8,0:0:0:0:
285,199,15358,1,0,0:0:0:0:
286,208,15675,1,0,0:0:0:0:
286,208,15993,1,0,0:0:0:0:
287,109,16310,1,0,0:0:0:0:
287,109,16627,1,0,0:0:0:0:
287,109,16786,1,8,0:0:0:0:
287,109,16945,1,0,0:0:0:0:
287,109,17104,1,8,0:0:0:0:
283,113,17262,1,0,0:0:0:0:
377,67,17580,1,0,0:0:0:0:
332,117,17897,1,8,0:0:0:0:
183,152,18056,1,0,0:0:0:0:
332,117,18215,1,8,0:0:0:0:
183,152,18373,1,0,0:0:0:0:
183,152,18532,1,8,0:0:0:0:
183,152,18850,1,8,0:0:0:0:
304,174,19167,1,0,0:0:0:0:
304,174,19485,1,0,0:0:0:0:
297,204,19802,1,0,0:0:0:0:
249,189,19961,1,8,0:0:0:0:
249,189,20119,1,0,0:0:0:0:
255,189,20437,1,8,0:0:0:0:
255,189,20754,1,8,0:0:0:0:
255,189,21072,1,8,0:0:0:0:
255,189,21389,1,8,0:0:0:0:
255,189,21707,1,8,0:0:0:0:
252,117,21866,1,0,0:0:0:0:
252,117,22024,1,8,0:0:0:0:
252,117,22183,1,0,0:0:0:0:
252,117,22342,1,8,0:0:0:0:
252,117,22659,1,8,0:0:0:0:
252,117,22977,1,4,0:0:0:0:
259,151,23294,1,8,0:0:0:0:
259,151,23453,1,0,0:0:0:0:
259,151,23532,1,0,0:0:0:0:
259,151,23612,1,0,0:0:0:0:
264,149,23770,1,8,0:0:0:0:
232,154,23929,1,0,0:0:0:0:
232,154,24088,1,0,0:0:0:0:
232,154,24246,1,12,0:0:0:0:
232,154,24405,1,12,0:0:0:0:
232,154,24564,1,4,0:0:0:0:
232,154,24723,1,12,0:0:0:0:
259,144,25199,1,8,0:0:0:0:
210,174,25278,1,8,0:0:0:0:
264,140,25358,1,8,0:0:0:0:
164,123,25516,1,4,0:0:0:0:
343,206,25834,1,8,0:0:0:0:
343,206,26151,1,0,0:0:0:0:
285,253,26310,1,0,0:0:0:0:
285,253,26469,1,8,0:0:0:0:
289,218,26786,1,0,0:0:0:0:
289,218,26945,1,0,0:0:0:0:
264,233,27104,1,8,0:0:0:0:
264,233,27262,1,0,0:0:0:0:
264,233,27580,1,0,0:0:0:0:
264,233,27739,1,8,0:0:0:0:
230,160,28056,1,0,0:0:0:0:
230,160,28373,1,8,0:0:0:0:
190,137,28532,1,8,0:0:0:0:
190,137,28691,1,0,0:0:0:0:
194,138,29008,1,8,0:0:0:0:
321,288,29326,1,0,0:0:0:0:
321,293,29643,1,8,0:0:0:0:
321,293,29961,1,0,0:0:0:0:
207,213,30119,1,0,0:0:0:0:
321,296,30278,1,8,0:0:0:0:
259,71,30596,1,0,0:0:0:0:
260,81,30913,1,8,0:0:0:0:
260,81,31231,1,0,0:0:0:0:
260,81,31389,1,0,0:0:0:0:
239,74,31548,1,8,0:0:0:0:
239,74,31866,1,0,0:0:0:0:
239,74,32024,1,0,0:0:0:0:
195,67,32183,1,8,0:0:0:0:
237,74,32342,1,0,0:0:0:0:
266,108,32659,1,0,0:0:0:0:
266,108,32818,1,8,0:0:0:0:
289,105,33135,1,0,0:0:0:0:
289,105,33294,1,8,0:0:0:0:
289,107,33453,1,0,0:0:0:0:
289,107,33612,1,8,0:0:0:0:
222,77,33929,1,0,0:0:0:0:
222,77,34088,1,8,0:0:0:0:
266,151,34405,1,8,0:0:0:0:
259,138,34564,1,0,0:0:0:0:
256,138,34723,1,0,0:0:0:0:
240,130,34881,1,8,0:0:0:0:
245,128,35040,1,0,0:0:0:0:
245,128,35199,1,0,0:0:0:0:
245,128,35358,1,8,0:0:0:0:
237,134,35675,1,0,0:0:0:0:
223,214,35754,1,0,0:0:0:0:
237,134,35834,1,0,0:0:0:0:
260,188,35993,1,8,0:0:0:0:
260,188,36151,1,0,0:0:0:0:
260,188,36310,1,0,0:0:0:0:
131,117,36469,1,8,0:0:0:0:
131,117,36627,1,0,0:0:0:0:
330,227,36945,1,8,0:0:0:0:
292,221,37024,1,8,0:0:0:0:
330,227,37104,1,8,0:0:0:0:
267,137,37262,1,0,0:0:0:0:
267,137,37421,1,8,0:0:0:0:
194,122,37580,1,8,0:0:0:0:
130,117,37739,1,0,0:0:0:0:
193,101,37897,1,8,0:0:0:0:
282,167,38215,1,0,0:0:0:0:
237,173,38294,1,0,0:0:0:0:
282,167,38373,1,0,0:0:0:0:
263,137,38532,1,8,0:0:0:0:
190,82,38691,1,0,0:0:0:0:
190,82,38850,1,0,0:0:0:0:
190,82,39008,1,8,0:0:0:0:
190,82,39167,1,0,0:0:0:0:
329,112,39485,1,8,0:0:0:0:
252,190,39643,1,0,0:0:0:0:
227,182,39723,1,0,0:0:0:0:
227,182,39802,1,8,0:0:0:0:
227,182,39961,1,8,0:0:0:0:
229,163,40119,1,0,0:0:0:0:
229,163,40278,1,0,0:0:0:0:
212,157,40437,1,8,0:0:0:0:
210,210,40754,1,4,0:0:0:0:
251,233,41072,1,8,0:0:0:0:
274,174,41231,1,0,0:0:0:0:
274,174,41310,1,0,0:0:0:0:
231,161,41389,1,0,0:0:0:0:
231,161,41548,1,8,0:0:0:0:
231,161,41707,1,8,0:0:0:0:
221,91,41866,1,0,0:0:0:0:
221,91,42024,1,8,0:0:0:0:
206,76,42342,1,0,0:0:0:0:
206,76,42500,1,8,0:0:0:0:
200,77,42580,1,8,0:0:0:0:
206,76,42659,1,8,0:0:0:0:
200,77,42818,1,0,0:0:0:0:
202,78,42977,1,8,0:0:0:0:
206,76,43135,1,8,0:0:0:0:
192,71,43294,1,4,0:0:0:0:
212,108,43453,1,0,0:0:0:0:
196,110,43532,1,0,0:0:0:0:
236,106,43612,1,8,0:0:0:0:
258,240,43770,1,8,0:0:0:0:
268,241,43929,1,0,0:0:0:0:
280,227,44088,1,0,0:0:0:0:
279,227,44247,1,8,0:0:0:0:
247,129,44405,1,0,0:0:0:0:
247,129,44564,1,8,0:0:0:0:
304,214,44723,1,0,0:0:0:0:
313,209,44802,1,0,0:0:0:0:
279,202,44881,1,0,0:0:0:0:
313,209,45040,1,8,0:0:0:0:
311,129,45199,1,8,0:0:0:0:
311,129,45358,1,0,0:0:0:0:
311,129,45516,1,8,0:0:0:0:
326,254,45834,1,4,0:0:0:0:
267,258,45993,1,0,0:0:0:0:
267,258,46151,1,8,0:0:0:0:
250,244,46231,1,8,0:0:0:0:
251,211,46310,1,0,0:0:0:0:
251,211,46469,1,8,0:0:0:0:
262,212,46627,1,0,0:0:0:0:
243,202,46707,1,0,0:0:0:0:
202,192,46786,1,8,0:0:0:0:
166,179,46945,1,8,0:0:0:0:
108,126,47739,1,0,0:0:0:0:
301,182,47897,1,8,0:0:0:0:
250,168,47977,1,8,0:0:0:0:
227,162,48056,1,8,0:0:0:0:
225,243,48135,1,8,0:0:0:0:
227,162,48215,1,8,0:0:0:0:
225,243,48294,1,8,0:0:0:0:
210,207,48373,1,4,0:0:0:0:
233,203,48612,1,0,0:0:0:0:
225,172,48691,1,8,0:0:0:0:
239,164,48850,1,8,0:0:0:0:
256,147,49008,1,0,0:0:0:0:
325,268,49246,1,0,0:0:0:0:
264,236,49326,1,8,0:0:0:0:
264,236,49485,1,0,0:0:0:0:
291,197,49643,1,8,0:0:0:0:
276,182,49723,1,8,0:0:0:0:
257,175,49802,1,0,0:0:0:0:
255,157,49961,1,8,0:0:0:0:
255,163,50119,1,8,0:0:0:0:
195,118,50278,1,0,0:0:0:0:
239,114,50437,1,0,0:0:0:0:
239,114,50596,1,8,0:0:0:0:
230,100,50754,1,0,0:0:0:0:
230,100,50913,1,8,0:0:0:0:
210,86,50993,1,8,0:0:0:0:
211,86,51072,1,0,0:0:0:0:
211,88,51231,1,8,0:0:0:0:
187,84,51310,1,8,0:0:0:0:
187,203,51389,1,8,0:0:0:0:
237,262,51548,1,0,0:0:0:0:
237,262,51627,1,0,0:0:0:0:
221,231,51707,1,0,0:0:0:0:
262,223,51866,1,8,0:0:0:0:
237,262,51945,1,0,0:0:0:0:
250,214,52024,1,0,0:0:0:0:
274,246,52183,1,8,0:0:0:0:
263,164,52342,1,0,0:0:0:0:
272,160,52421,1,0,0:0:0:0:
272,160,52500,1,8,0:0:0:0:
100,183,52580,1,8,0:0:0:0:
276,159,52659,1,0,0:0:0:0:
277,159,52818,1,8,0:0:0:0:
281,160,52897,1,0,0:0:0:0:
283,160,52977,1,8,0:0:0:0:
173,94,53056,1,8,0:0:0:0:
263,254,53135,1,0,0:0:0:0:
219,233,53215,1,0,0:0:0:0:
172,212,53294,1,8,0:0:0:0:
330,246,53453,1,0,0:0:0:0:
330,246,53532,1,0,0:0:0:0:
344,258,53612,1,0,0:0:0:0:
344,258,53770,1,8,0:0:0:0:
345,237,53929,1,0,0:0:0:0:
276,253,54008,1,0,0:0:0:0:
251,221,54088,1,8,0:0:0:0:
251,221,54246,1,0,0:0:0:0:
260,195,54405,1,8,0:0:0:0:
246,176,54723,1,0,0:0:0:0:
213,166,54881,1,8,0:0:0:0:
213,166,55040,1,8,0:0:0:0:
313,212,55199,1,0,0:0:0:0:
328,220,55278,1,0,0:0:0:0:
328,220,55358,1,0,0:0:0:0:
328,220,55516,1,0,0:0:0:0:
316,93,55675,1,8,0:0:0:0:
255,251,55993,1,0,0:0:0:0:
255,251,56151,1,8,0:0:0:0:
237,255,56231,1,8,0:0:0:0:
137,112,56310,1,8,0:0:0:0:
137,112,56469,1,0,0:0:0:0:
137,112,56627,1,8,0:0:0:0:
137,112,56707,1,8,0:0:0:0:
137,112,56786,1,0,0:0:0:0:
137,112,56945,1,8,0:0:0:0:
290,246,57104,1,8,0:0:0:0:
288,235,57262,1,0,0:0:0:0:
235,241,57421,1,0,0:0:0:0:
211,236,57580,1,8,0:0:0:0:
211,236,57739,1,8,0:0:0:0:
213,228,57897,1,0,0:0:0:0:
213,228,58056,1,8,0:0:0:0:
185,168,58135,1,8,0:0:0:0:
241,100,58215,1,8,0:0:0:0:
241,100,58294,1,8,0:0:0:0:
225,97,58373,1,8,0:0:0:0:
241,100,58453,1,8,0:0:0:0:
215,93,58532,1,4,0:0:0:0:
219,119,58770,1,0,0:0:0:0:
219,119,58849,1,8,0:0:0:0:
219,119,59008,1,8,0:0:0:0:
162,118,59167,1,0,0:0:0:0:
186,100,59405,1,0,0:0:0:0:
186,100,59485,1,8,0:0:0:0:
344,271,59643,1,0,0:0:0:0:
271,166,59802,1,8,0:0:0:0:
254,152,59881,1,8,0:0:0:0:
254,153,59961,1,0,0:0:0:0:
254,153,60119,1,8,0:0:0:0:
254,153,60278,1,8,0:0:0:0:
238,156,60437,1,0,0:0:0:0:
236,160,60596,1,0,0:0:0:0:
236,161,60754,1,8,0:0:0:0:
214,220,60913,1,0,0:0:0:0:
214,220,61072,1,8,0:0:0:0:
255,167,61151,1,0,0:0:0:0:
214,220,61231,1,0,0:0:0:0:
214,220,61389,1,8,0:0:0:0:
216,120,61469,1,8,0:0:0:0:
216,120,61548,1,8,0:0:0:0:
216,120,61707,1,0,0:0:0:0:
221,118,61786,1,0,0:0:0:0:
222,116,61866,1,0,0:0:0:0:
222,115,62024,1,8,0:0:0:0:
222,115,62104,1,8,0:0:0:0:
222,115,62183,1,0,0:0:0:0:
281,183,62342,1,8,0:0:0:0:
274,213,62500,1,0,0:0:0:0:
274,213,62580,1,0,0:0:0:0:
274,213,62659,1,8,0:0:0:0:
237,289,62739,1,8,0:0:0:0:
218,286,62818,1,0,0:0:0:0:
122,199,62977,1,8,0:0:0:0:
188,194,63056,1,0,0:0:0:0:
177,213,63135,1,8,0:0:0:0:
182,191,63215,1,8,0:0:0:0:
191,188,63294,1,0,0:0:0:0:
191,188,63373,1,0,0:0:0:0:
191,188,63453,1,8,0:0:0:0:
351,326,63612,1,0,0:0:0:0:
331,308,63691,1,0,0:0:0:0:
351,326,63770,1,0,0:0:0:0:
336,223,63929,1,8,0:0:0:0:
336,223,64088,1,0,0:0:0:0:
307,220,64167,1,0,0:0:0:0:
277,219,64246,1,8,0:0:0:0:
277,219,64405,1,0,0:0:0:0:
277,219,64564,1,8,0:0:0:0:
276,212,64881,1,0,0:0:0:0:
373,240,65040,1,8,0:0:0:0:
373,240,65199,1,8,0:0:0:0:
223,154,65358,1,0,0:0:0:0:
223,154,65437,1,0,0:0:0:0:
223,154,65516,1,0,0:0:0:0:
223,154,65675,1,0,0:0:0:0:
223,154,65834,1,8,0:0:0:0:
298,241,66151,1,8,0:0:0:0:
211,132,66231,1,8,0:0:0:0:
211,132,66310,1,8,0:0:0:0:
211,132,66469,1,0,0:0:0:0:
212,132,66627,1,8,0:0:0:0:
212,132,66707,1,8,0:0:0:0:
212,132,66786,1,0,0:0:0:0:
312,196,66945,1,0,0:0:0:0:
242,160,67104,1,8,0:0:0:0:
262,177,67421,1,0,0:0:0:0:
245,168,67580,1,8,0:0:0:0:
230,163,67659,1,8,0:0:0:0:
245,168,67739,1,8,0:0:0:0:
231,162,67897,1,0,0:0:0:0:
231,162,68056,1,8,0:0:0:0:
229,159,68135,1,8,0:0:0:0:
226,159,68215,1,0,0:0:0:0:
226,159,68294,1,0,0:0:0:0:
228,156,68373,1,8,0:0:0:0:
239,170,68691,1,0,0:0:0:0:
256,128,68850,1,0,0:0:0:0:
256,128,69008,1,8,0:0:0:0:
256,128,69167,1,0,0:0:0:0:
256,128,69246,1,0,0:0:0:0:
256,128,69326,1,0,0:0:0:0:
320,256,69485,1,0,0:0:0:0:
288,192,69643,1,8,0:0:0:0:
288,192,69802,1,0,0:0:0:0:
224,160,69881,1,0,0:0:0:0:
224,160,69961,1,8,0:0:0:0:
256,160,70119,1,0,0:0:0:0:
160,96,70278,1,8,0:0:0:0:
160,96,70437,1,8,0:0:0:0:
160,96,70516,1,8,0:0:0:0:
160,96,70596,1,0,0:0:0:0:
320,224,70754,1,0,0:0:0:0:
320,224,70913,1,8,0:0:0:0:
320,320,71231,1,12,0:0:0:0:
320,320,71389,1,12,0:0:0:0:
320,320,71548,1,4,0:0:0:0:
320,320,71707,1,4,0:0:0:0:
320,320,71866,1,12,0:0:0:0:
320,320,72024,1,12,0:0:0:0:
320,320,72183,1,12,0:0:0:0:
320,320,72342,1,12,0:0:0:0:
288,192,72500,1,0,0:0:0:0:
320,160,72659,1,0,0:0:0:0:
352,160,72739,1,0,0:0:0:0:
224,224,72818,1,8,0:0:0:0:
192,224,72977,1,8,0:0:0:0:
192,224,73135,1,0,0:0:0:0:
192,224,73294,1,0,0:0:0:0:
192,224,73453,1,8,0:0:0:0:
224,224,73770,1,0,0:0:0:0:
256,192,73929,1,8,0:0:0:0:
192,160,74008,1,8,0:0:0:0:
256,96,74088,1,8,0:0:0:0:
256,96,74246,1,0,0:0:0:0:
256,96,74405,1,8,0:0:0:0:
384,224,74723,1,0,0:0:0:0:
352,224,74881,1,8,0:0:0:0:
320,224,74961,1,8,0:0:0:0:
192,160,75040,1,0,0:0:0:0:
160,128,75199,1,8,0:0:0:0:
160,128,75358,1,8,0:0:0:0:
192,128,75516,1,0,0:0:0:0:
192,128,75675,1,8,0:0:0:0:
192,160,75993,1,0,0:0:0:0:
192,160,76151,1,8,0:0:0:0:
352,192,76310,1,0,0:0:0:0:
288,256,76389,1,8,0:0:0:0:
256,192,76469,1,8,0:0:0:0:
224,192,76548,1,0,0:0:0:0:
224,192,76627,1,8,0:0:0:0:
192,256,76786,1,0,0:0:0:0:
192,256,76945,1,8,0:0:0:0:
256,192,77262,1,0,0:0:0:0:
256,192,77421,1,8,0:0:0:0:
160,160,77500,1,8,0:0:0:0:
160,160,77580,1,0,0:0:0:0:
160,160,77659,1,0,0:0:0:0:
160,160,77739,1,8,0:0:0:0:
256,128,77897,1,0,0:0:0:0:
256,128,78056,1,0,0:0:0:0:
256,160,78215,1,8,0:0:0:0:
256,160,78373,1,0,0:0:0:0:
256,128,78532,1,8,0:0:0:0:
96,192,78850,1,4,0:0:0:0:
288,224,79167,1,8,0:0:0:0:
288,224,79326,1,0,0:0:0:0:
256,224,79405,1,0,0:0:0:0:
288,224,79485,1,0,0:0:0:0:
192,192,79643,1,0,0:0:0:0:
192,192,79802,1,8,0:0:0:0:
192,192,79961,1,8,0:0:0:0:
192,160,80119,1,0,0:0:0:0:
192,224,80437,1,8,0:0:0:0:
192,224,80596,1,0,0:0:0:0:
224,256,80675,1,0,0:0:0:0:
192,224,80754,1,8,0:0:0:0:
224,256,80913,1,0,0:0:0:0:
192,224,81072,1,8,0:0:0:0:
160,192,81231,1,8,0:0:0:0:
192,160,81389,1,0,0:0:0:0:
288,256,81707,1,8,0:0:0:0:
320,160,81866,1,8,0:0:0:0:
320,160,82024,1,0,0:0:0:0:
288,160,82104,1,0,0:0:0:0:
256,128,82183,1,0,0:0:0:0:
288,160,82342,1,8,0:0:0:0:
224,160,82500,1,0,0:0:0:0:
256,192,82659,1,8,0:0:0:0:
256,192,82739,1,8,0:0:0:0:
224,160,82818,1,0,0:0:0:0:
224,160,82977,1,8,0:0:0:0:
224,160,83135,1,8,0:0:0:0:
224,160,83294,1,0,0:0:0:0:
224,160,83453,1,0,0:0:0:0:
224,160,83532,1,0,0:0:0:0:
160,256,83612,1,8,0:0:0:0:
256,256,83770,1,8,0:0:0:0:
256,224,83929,1,0,0:0:0:0:
256,224,84088,1,0,0:0:0:0:
320,224,84246,1,8,0:0:0:0:
256,224,84326,1,8,0:0:0:0:
224,192,84405,1,0,0:0:0:0:
224,192,84564,1,8,0:0:0:0:
224,160,84723,1,0,0:0:0:0:
192,160,84802,1,0,0:0:0:0:
224,192,84881,1,0,0:0:0:0:
256,128,85040,1,8,0:0:0:0:
256,128,85199,1,0,0:0:0:0:
224,128,85358,1,0,0:0:0:0:
224,96,85516,1,8,0:0:0:0:
160,128,85596,1,0,0:0:0:0:
192,128,85675,1,0,0:0:0:0:
160,128,85834,1,12,0:0:0:0:
352,128,85993,1,12,0:0:0:0:
352,128,86151,1,4,0:0:0:0:
352,128,86310,1,4,0:0:0:0:
