osu file format v14

[General]
AudioFilename: audio.mp3
AudioLeadIn: 0
PreviewTime: 48373
Countdown: 0
SampleSet: Normal
StackLeniency: 0.7
Mode: 1
LetterboxInBreaks: 0
WidescreenStoryboard: 0

[Editor]
DistanceSpacing: 1
BeatDivisor: 4
GridSize: 32
TimelineZoom: 1.6

[Metadata]
Title:Datte Atashi no Hero. -TV ver.-
TitleUnicode:だってアタシのヒーロー。-TV ver.-
Artist:LiSA
ArtistUnicode:LiSA
Creator:TAKAHIRO69
Version:Muzukashii
Source:僕のヒーローアカデミア
Tags:season two boku no hero academia my anime bakugou midoriya
BeatmapID:1399778
BeatmapSetID:657576

[Difficulty]
HPDrainRate:6
CircleSize:5
OverallDifficulty:5
ApproachRate:5
SliderMultiplier:1.4
SliderTickRate:1

[Events]
//Background and Video events
0,0,"izuku_midoriya-vs-katsuki_bakugou-my_hero_academia-(13233).jpg",0,0
//Break Periods
//Storyboard Layer 0 (Background)
//Storyboard Layer 1 (Fail)
//Storyboard Layer 2 (Pass)
//Storyboard Layer 3 (Foreground)
//Storyboard Sound Samples

[TimingPoints]
120,317.460317460317,4,1,0,80,1,0
48373,-100,4,1,0,90,0,1
72500,-100,4,1,0,80,0,0
73770,-100,4,1,0,90,0,1
86310,-100,4,1,0,90,0,0

[HitObjects]
256,160,120,5,0,0:0:0:0:
192,288,437,1,8,0:0:0:0:
278,217,596,1,8,0:0:0:0:
286,239,913,1,0,0:0:0:0:
297,223,1231,1,8,0:0:0:0:
297,223,1389,1,8,0:0:0:0:
297,223,1548,1,0,0:0:0:0:
292,222,1866,1,0,0:0:0:0:
297,223,2024,1,8,0:0:0:0:
336,256,2659,1,0,0:0:0:0:
336,256,2977,1,8,0:0:0:0:
336,256,3135,1,8,0:0:0:0:
250,225,3453,1,0,0:0:0:0:
250,225,3770,1,8,0:0:0:0:
250,225,3929,1,8,0:0:0:0:
250,225,4088,1,0,0:0:0:0:
250,225,4405,1,0,0:0:0:0:
250,225,4564,1,8,0:0:0:0:
250,225,4723,1,8,0:0:0:0:
265,253,5199,1,4,0:0:0:0:
267,278,5516,1,8,0:0:0:0:
146,308,5675,1,8,0:0:0:0:
310,184,5834,1,0,0:0:0:0:
310,184,5993,1,0,0:0:0:0:
312,192,6310,1,8,0:0:0:0:
312,192,6469,1,8,0:0:0:0:
312,192,6627,1,0,0:0:0:0:
221,173,6945,1,0,0:0:0:0:
221,173,7104,1,8,0:0:0:0:
161,80,7262,1,0,0:0:0:0:
161,80,7421,1,8,0:0:0:0:
328,256,7739,1,0,0:0:0:0:
328,256,7897,1,0,0:0:0:0:
328,256,8056,1,8,0:0:0:0:
243,243,8373,1,0,0:0:0:0:
185,298,8532,1,8,0:0:0:0:
189,293,8691,1,8,0:0:0:0:
243,232,8850,1,0,0:0:0:0:
243,232,9008,1,8,0:0:0:0:
220,296,9167,1,0,0:0:0:0:
220,296,9485,1,0,0:0:0:0:
220,296,9643,1,8,0:0:0:0:
220,296,9802,1,8,0:0:0:0:
180,148,10278,1,4,0:0:0:0:
309,64,10596,1,8,0:0:0:0:
324,59,10754,1,8,0:0:0:0:
324,59,10913,1,0,0:0:0:0:
324,59,11072,1,0,0:0:0:0:
323,59,11389,1,8,0:0:0:0:
258,32,11548,1,8,0:0:0:0:
258,32,11707,1,0,0:0:0:0:
263,205,12024,1,0,0:0:0:0:
263,205,12183,1,8,0:0:0:0:
263,205,12342,1,0,0:0:0:0:
263,205,12500,1,8,0:0:0:0:
286,243,12818,1,4,0:0:0:0:
246,65,13135,1,8,0:0:0:0:
252,68,13294,1,8,0:0:0:0:
252,68,13453,1,0,0:0:0:0:
252,68,13612,1,0,0:0:0:0:
252,68,13770,1,8,0:0:0:0:
252,68,14088,1,0,0:0:0:0:
354,219,14246,1,8,0:0:0:0:
310,274,14326,1,8,0:0:0:0:
354,219,14405,1,8,0:0:0:0:
310,274,14564,1,0,0:0:0:0:
162,198,14723,1,8,0:0:0:0:
158,193,14881,1,0,0:0:0:0:
212,174,15358,1,4,0:0:0:0:
331,158,15675,1,0,0:0:0:0:
331,158,15993,1,8,0:0:0:0:
331,158,16627,1,0,0:0:0:0:
331,158,16945,1,8,0:0:0:0:
331,158,17104,1,8,0:0:0:0:
331,158,17262,1,0,0:0:0:0:
331,158,17580,1,8,0:0:0:0:
253,162,17897,1,0,0:0:0:0:
253,162,18215,1,8,0:0:0:0:
253,162,18373,1,0,0:0:0:0:
253,162,18532,1,8,0:0:0:0:
253,162,18850,1,8,0:0:0:0:
253,162,19167,1,0,0:0:0:0:
285,218,19802,1,0,0:0:0:0:
285,218,19961,1,8,0:0:0:0:
222,196,20119,1,0,0:0:0:0:
222,196,20437,1,8,0:0:0:0:
243,186,20754,1,8,0:0:0:0:
243,186,21072,1,0,0:0:0:0:
243,186,21707,1,8,0:0:0:0:
254,188,22024,1,8,0:0:0:0:
254,188,22342,1,8,0:0:0:0:
254,188,22500,1,0,0:0:0:0:
301,225,22659,1,8,0:0:0:0:
231,230,22977,1,4,0:0:0:0:
231,230,23453,1,4,0:0:0:0:
231,230,23929,1,4,0:0:0:0:
214,182,24246,1,12,0:0:0:0:
384,278,25199,1,8,0:0:0:0:
384,278,25278,1,8,0:0:0:0:
347,269,25358,1,8,0:0:0:0:
272,207,25516,1,4,0:0:0:0:
266,214,25834,1,8,0:0:0:0:
258,285,26151,1,0,0:0:0:0:
258,285,26786,1,0,0:0:0:0:
258,285,27104,1,8,0:0:0:0:
258,285,27262,1,8,0:0:0:0:
236,169,27421,1,0,0:0:0:0:
236,169,27739,1,8,0:0:0:0:
236,169,28056,1,0,0:0:0:0:
161,236,28215,1,0,0:0:0:0:
236,169,28373,1,8,0:0:0:0:
236,169,28532,1,8,0:0:0:0:
161,236,28691,1,0,0:0:0:0:
161,236,29008,1,8,0:0:0:0:
161,236,29326,1,0,0:0:0:0:
143,239,29961,1,8,0:0:0:0:
239,196,30119,1,0,0:0:0:0:
159,94,30278,1,8,0:0:0:0:
306,216,30596,1,0,0:0:0:0:
306,216,30913,1,8,0:0:0:0:
306,216,31231,1,0,0:0:0:0:
306,216,31389,1,0,0:0:0:0:
306,216,31548,1,8,0:0:0:0:
306,216,31866,1,0,0:0:0:0:
306,216,32183,1,8,0:0:0:0:
306,216,32342,1,8,0:0:0:0:
209,219,32500,1,0,0:0:0:0:
209,219,32659,1,0,0:0:0:0:
231,113,32818,1,8,0:0:0:0:
231,113,33135,1,0,0:0:0:0:
231,113,33294,1,8,0:0:0:0:
231,113,33453,1,0,0:0:0:0:
231,113,33612,1,8,0:0:0:0:
362,279,33929,1,0,0:0:0:0:
362,279,34088,1,8,0:0:0:0:
346,186,34405,1,0,0:0:0:0:
249,283,35675,1,0,0:0:0:0:
249,283,35993,1,8,0:0:0:0:
181,328,36151,1,0,0:0:0:0:
249,283,36310,1,0,0:0:0:0:
181,328,36469,1,8,0:0:0:0:
211,273,36627,1,8,0:0:0:0:
211,273,36945,1,0,0:0:0:0:
211,273,37262,1,8,0:0:0:0:
211,273,37421,1,8,0:0:0:0:
202,317,37580,1,0,0:0:0:0:
202,317,37739,1,0,0:0:0:0:
182,264,37897,1,8,0:0:0:0:
182,264,38215,1,0,0:0:0:0:
211,261,38532,1,8,0:0:0:0:
211,261,38691,1,8,0:0:0:0:
211,261,38850,1,0,0:0:0:0:
211,261,39008,1,8,0:0:0:0:
211,261,39167,1,0,0:0:0:0:
193,242,39485,1,8,0:0:0:0:
193,242,39643,1,8,0:0:0:0:
245,250,39961,1,0,0:0:0:0:
245,250,40119,1,8,0:0:0:0:
245,250,40278,1,0,0:0:0:0:
245,250,40437,1,8,0:0:0:0:
245,250,40754,1,0,0:0:0:0:
245,250,41072,1,8,0:0:0:0:
245,250,41231,1,0,0:0:0:0:
245,250,41389,1,0,0:0:0:0:
205,298,41548,1,8,0:0:0:0:
245,250,41707,1,8,0:0:0:0:
205,298,42024,1,0,0:0:0:0:
236,224,42342,1,8,0:0:0:0:
236,224,42500,1,8,0:0:0:0:
236,224,42659,1,0,0:0:0:0:
236,224,42818,1,0,0:0:0:0:
236,224,42977,1,8,0:0:0:0:
263,207,43294,1,4,0:0:0:0:
330,260,43612,1,8,0:0:0:0:
330,260,43770,1,8,0:0:0:0:
333,269,43929,1,0,0:0:0:0:
276,264,44088,1,8,0:0:0:0:
276,264,44246,1,0,0:0:0:0:
286,264,44564,1,8,0:0:0:0:
286,264,44723,1,0,0:0:0:0:
286,264,44881,1,0,0:0:0:0:
285,269,45040,1,8,0:0:0:0:
285,269,45199,1,8,0:0:0:0:
285,269,45358,1,0,0:0:0:0:
241,185,45516,1,8,0:0:0:0:
272,250,45834,1,4,0:0:0:0:
226,285,46151,1,0,0:0:0:0:
226,285,46469,1,0,0:0:0:0:
226,285,46627,1,0,0:0:0:0:
226,259,46786,1,0,0:0:0:0:
226,259,46945,1,8,0:0:0:0:
16,196,47739,2,8,L|97:198,3,70
325,211,48373,1,4,0:0:0:0:
291,289,48691,1,8,0:0:0:0:
291,289,48850,1,8,0:0:0:0:
225,271,49008,1,0,0:0:0:0:
306,315,49326,1,8,0:0:0:0:
306,315,49485,1,0,0:0:0:0:
306,315,49643,1,8,0:0:0:0:
289,303,49961,1,0,0:0:0:0:
289,303,50119,1,8,0:0:0:0:
289,303,50278,1,0,0:0:0:0:
289,303,50437,1,0,0:0:0:0:
261,244,50596,1,8,0:0:0:0:
261,244,50754,1,0,0:0:0:0:
261,244,50913,1,8,0:0:0:0:
261,244,51231,1,8,0:0:0:0:
261,244,51548,1,0,0:0:0:0:
261,244,51866,1,8,0:0:0:0:
278,215,52183,1,0,0:0:0:0:
293,227,52342,1,8,0:0:0:0:
256,249,52421,1,8,0:0:0:0:
293,227,52500,1,8,0:0:0:0:
234,245,52659,1,0,0:0:0:0:
256,249,52739,1,0,0:0:0:0:
234,245,52818,1,0,0:0:0:0:
209,225,52977,1,0,0:0:0:0:
147,223,53135,1,8,0:0:0:0:
185,209,53453,1,4,0:0:0:0:
275,239,53770,1,8,0:0:0:0:
275,239,53929,1,0,0:0:0:0:
275,239,54246,1,0,0:0:0:0:
275,239,54405,1,8,0:0:0:0:
253,250,54723,1,0,0:0:0:0:
281,278,55040,1,8,0:0:0:0:
281,278,55199,1,8,0:0:0:0:
226,288,55358,1,0,0:0:0:0:
281,278,55516,1,0,0:0:0:0:
226,288,55675,1,8,0:0:0:0:
232,283,55993,1,0,0:0:0:0:
232,283,56310,1,8,0:0:0:0:
232,283,56469,1,8,0:0:0:0:
194,257,56786,1,0,0:0:0:0:
194,257,56945,1,8,0:0:0:0:
194,257,57104,1,8,0:0:0:0:
194,257,57262,1,0,0:0:0:0:
174,238,57580,1,8,0:0:0:0:
252,280,57739,1,8,0:0:0:0:
266,47,57897,1,0,0:0:0:0:
266,47,58056,1,8,0:0:0:0:
266,47,58215,1,8,0:0:0:0:
266,47,58294,1,8,0:0:0:0:
266,47,58373,1,8,0:0:0:0:
268,66,58532,1,4,0:0:0:0:
291,289,58850,1,8,0:0:0:0:
291,289,59009,1,8,0:0:0:0:
225,271,59167,1,0,0:0:0:0:
306,315,59485,1,8,0:0:0:0:
306,315,59644,1,0,0:0:0:0:
306,315,59802,1,8,0:0:0:0:
289,303,60120,1,0,0:0:0:0:
289,303,60278,1,8,0:0:0:0:
289,303,60437,1,0,0:0:0:0:
289,303,60596,1,0,0:0:0:0:
261,244,60755,1,8,0:0:0:0:
261,244,60913,1,0,0:0:0:0:
261,244,61072,1,8,0:0:0:0:
261,244,61390,1,8,0:0:0:0:
261,244,61707,1,0,0:0:0:0:
261,244,62025,1,8,0:0:0:0:
278,215,62342,1,0,0:0:0:0:
293,227,62501,1,8,0:0:0:0:
256,249,62580,1,8,0:0:0:0:
293,227,62659,1,8,0:0:0:0:
234,245,62818,1,0,0:0:0:0:
256,249,62898,1,0,0:0:0:0:
234,245,62977,1,0,0:0:0:0:
209,225,63136,1,0,0:0:0:0:
147,223,63294,1,8,0:0:0:0:
185,209,63612,1,4,0:0:0:0:
275,239,63929,1,8,0:0:0:0:
275,239,64088,1,0,0:0:0:0:
275,239,64405,1,0,0:0:0:0:
275,239,64564,1,8,0:0:0:0:
253,250,64882,1,0,0:0:0:0:
281,278,65199,1,8,0:0:0:0:
281,278,65358,1,8,0:0:0:0:
226,288,65517,1,0,0:0:0:0:
281,278,65675,1,0,0:0:0:0:
226,288,65834,1,8,0:0:0:0:
232,283,66152,1,0,0:0:0:0:
232,283,66469,1,8,0:0:0:0:
232,283,66628,1,8,0:0:0:0:
194,257,66945,1,0,0:0:0:0:
194,257,67104,1,8,0:0:0:0:
194,257,67263,1,8,0:0:0:0:
194,257,67421,1,0,0:0:0:0:
328,209,67580,1,8,0:0:0:0:
305,282,67897,1,8,0:0:0:0:
305,282,68056,1,0,0:0:0:0:
305,282,68215,1,0,0:0:0:0:
293,262,68373,1,8,0:0:0:0:
298,235,68691,1,4,0:0:0:0:
211,200,69008,1,8,0:0:0:0:
211,200,69326,1,0,0:0:0:0:
211,200,69485,1,0,0:0:0:0:
211,200,69643,1,8,0:0:0:0:
241,265,69961,1,0,0:0:0:0:
241,265,70278,1,8,0:0:0:0:
241,265,70437,1,8,0:0:0:0:
241,265,70595,1,0,0:0:0:0:
233,53,70754,1,0,0:0:0:0:
233,53,70913,1,8,0:0:0:0:
309,233,71231,1,0,0:0:0:0:
309,233,71389,1,0,0:0:0:0:
309,233,71548,1,0,0:0:0:0:
309,233,71707,1,0,0:0:0:0:
309,233,71866,1,0,0:0:0:0:
309,233,72024,1,0,0:0:0:0:
309,233,72183,1,0,0:0:0:0:
301,220,72342,1,0,0:0:0:0:
301,220,72501,1,8,0:0:0:0:
449,157,73770,1,0,0:0:0:0:
446,161,73929,1,0,0:0:0:0:
298,172,74088,1,8,0:0:0:0:
164,233,74246,1,0,0:0:0:0:
164,233,74405,1,8,0:0:0:0:
186,224,74723,1,0,0:0:0:0:
171,214,74881,1,8,0:0:0:0:
171,214,75199,1,8,0:0:0:0:
171,214,75358,1,8,0:0:0:0:
171,214,75516,1,0,0:0:0:0:
171,214,75675,1,8,0:0:0:0:
139,194,75993,1,0,0:0:0:0:
141,197,76151,1,8,0:0:0:0:
370,70,76310,1,0,0:0:0:0:
329,110,76469,1,8,0:0:0:0:
342,88,76627,1,8,0:0:0:0:
329,110,76786,1,0,0:0:0:0:
329,110,76945,1,8,0:0:0:0:
370,227,77262,1,8,0:0:0:0:
314,316,77421,1,0,0:0:0:0:
263,321,77739,1,0,0:0:0:0:
314,316,77897,1,8,0:0:0:0:
263,321,78056,1,8,0:0:0:0:
224,267,78215,1,0,0:0:0:0:
224,267,78373,1,0,0:0:0:0:
224,267,78532,1,8,0:0:0:0:
246,269,78850,1,4,0:0:0:0:
277,241,79167,1,8,0:0:0:0:
187,157,79326,1,0,0:0:0:0:
277,241,79485,1,0,0:0:0:0:
270,241,79802,1,8,0:0:0:0:
198,156,79961,1,8,0:0:0:0:
222,256,80119,1,0,0:0:0:0:
196,150,80437,1,0,0:0:0:0:
169,139,80596,1,8,0:0:0:0:
204,246,80754,1,0,0:0:0:0:
204,246,80913,1,0,0:0:0:0:
201,199,81072,1,8,0:0:0:0:
186,188,81389,1,4,0:0:0:0:
227,189,81707,1,0,0:0:0:0:
227,189,82024,1,8,0:0:0:0:
227,189,82342,1,0,0:0:0:0:
227,189,82500,1,8,0:0:0:0:
206,194,82659,1,0,0:0:0:0:
206,194,82818,1,0,0:0:0:0:
205,192,83135,1,8,0:0:0:0:
205,192,83294,1,0,0:0:0:0:
211,193,83453,1,0,0:0:0:0:
211,193,83612,1,8,0:0:0:0:
355,162,83929,1,4,0:0:0:0:
311,238,84246,1,8,0:0:0:0:
189,198,84405,1,8,0:0:0:0:
311,238,84564,1,0,0:0:0:0:
311,238,84723,1,0,0:0:0:0:
238,190,84881,1,8,0:0:0:0:
253,81,85040,1,0,0:0:0:0:
321,283,85358,1,0,0:0:0:0:
321,283,85516,1,8,0:0:0:0:
321,283,85675,1,0,0:0:0:0:
405,39,85834,1,12,0:0:0:0:
405,39,85993,1,12,0:0:0:0:
405,39,86151,1,4,0:0:0:0:
400,57,86310,1,4,0:0:0:0:
