osu file format v14

[General]
AudioFilename: audio.mp3
AudioLeadIn: 0
PreviewTime: 48373
Countdown: 0
SampleSet: Normal
StackLeniency: 0.7
Mode: 1
LetterboxInBreaks: 0
WidescreenStoryboard: 0

[Editor]
DistanceSpacing: 1
BeatDivisor: 4
GridSize: 32
TimelineZoom: 1.6

[Metadata]
Title:Datte Atashi no Hero. -TV ver.-
TitleUnicode:だってアタシのヒーロー。-TV ver.-
Artist:LiSA
ArtistUnicode:LiSA
Creator:TAKAHIRO69
Version:Kantan
Source:僕のヒーローアカデミア
Tags:season two boku no hero academia my anime bakugou midoriya
BeatmapID:1399818
BeatmapSetID:657576

[Difficulty]
HPDrainRate:8
CircleSize:5
OverallDifficulty:3
ApproachRate:5
SliderMultiplier:1.4
SliderTickRate:1

[Events]
//Background and Video events
0,0,"izuku_midoriya-vs-katsuki_bakugou-my_hero_academia-(13233).jpg",0,0
//Break Periods
//Storyboard Layer 0 (Background)
//Storyboard Layer 1 (Fail)
//Storyboard Layer 2 (Pass)
//Storyboard Layer 3 (Foreground)
//Storyboard Sound Samples

[TimingPoints]
120,317.460317460317,4,1,0,80,1,0
48373,-100,4,1,0,90,0,1
72500,-100,4,1,0,80,0,0
73770,-100,4,1,0,90,0,1
86310,-100,4,1,0,90,0,0

[HitObjects]
264,249,120,5,0,0:0:0:0:
281,308,1389,1,8,0:0:0:0:
190,214,2024,1,0,0:0:0:0:
281,308,2659,1,0,0:0:0:0:
281,304,3929,1,8,0:0:0:0:
190,301,5199,1,4,0:0:0:0:
301,228,5834,1,8,0:0:0:0:
203,227,6469,1,0,0:0:0:0:
213,153,7104,1,8,0:0:0:0:
203,227,7421,1,8,0:0:0:0:
213,153,7739,1,0,0:0:0:0:
213,153,8373,1,8,0:0:0:0:
213,153,9008,1,0,0:0:0:0:
195,201,9326,1,0,0:0:0:0:
195,201,9643,1,8,0:0:0:0:
205,233,10278,1,4,0:0:0:0:
252,213,10913,1,8,0:0:0:0:
215,257,11548,1,8,0:0:0:0:
252,213,11866,1,8,0:0:0:0:
215,257,12183,1,0,0:0:0:0:
171,270,12818,1,12,0:0:0:0:
399,251,14088,1,0,0:0:0:0:
305,158,15358,1,4,0:0:0:0:
305,158,16627,1,8,0:0:0:0:
305,158,17897,1,0,0:0:0:0:
305,158,18532,1,0,0:0:0:0:
305,158,19167,1,8,0:0:0:0:
318,186,20437,1,0,0:0:0:0:
318,186,21707,1,8,0:0:0:0:
318,186,22977,1,4,0:0:0:0:
318,186,24246,1,12,0:0:0:0:
311,227,25516,1,4,0:0:0:0:
207,218,26151,1,8,0:0:0:0:
207,218,26786,1,0,0:0:0:0:
187,232,27104,1,8,0:0:0:0:
188,230,27739,1,8,0:0:0:0:
187,232,28056,1,0,0:0:0:0:
188,230,28691,1,8,0:0:0:0:
188,230,29326,1,0,0:0:0:0:
320,253,30596,1,8,0:0:0:0:
320,253,31231,1,8,0:0:0:0:
280,249,31548,1,8,0:0:0:0:
280,249,31866,1,0,0:0:0:0:
280,249,32500,1,8,0:0:0:0:
280,249,33135,1,0,0:0:0:0:
270,246,33453,1,8,0:0:0:0:
270,246,34088,1,8,0:0:0:0:
270,246,34405,1,0,0:0:0:0:
231,289,35675,1,0,0:0:0:0:
231,289,36945,1,0,0:0:0:0:
231,289,37580,1,8,0:0:0:0:
231,289,38215,1,0,0:0:0:0:
231,289,38532,1,0,0:0:0:0:
231,289,38850,1,8,0:0:0:0:
231,289,39485,1,0,0:0:0:0:
231,288,40754,1,0,0:0:0:0:
378,221,41389,1,0,0:0:0:0:
231,288,42024,1,8,0:0:0:0:
231,288,42659,1,0,0:0:0:0:
338,202,42977,1,8,0:0:0:0:
338,202,43294,1,0,0:0:0:0:
231,288,44564,1,8,0:0:0:0:
169,192,45199,1,8,0:0:0:0:
228,287,45834,1,4,0:0:0:0:
228,287,46469,1,0,0:0:0:0:
228,287,46786,1,0,0:0:0:0:
228,287,47104,1,8,0:0:0:0:
226,284,48373,1,4,0:0:0:0:
226,284,49008,1,4,0:0:0:0:
226,284,49643,1,8,0:0:0:0:
48,178,49961,1,8,0:0:0:0:
147,185,50278,1,0,0:0:0:0:
226,284,50596,1,0,0:0:0:0:
226,284,50913,1,8,0:0:0:0:
226,284,51548,1,0,0:0:0:0:
226,284,52183,1,8,0:0:0:0:
216,228,52818,1,8,0:0:0:0:
225,235,53135,1,8,0:0:0:0:
343,211,53453,1,4,0:0:0:0:
343,211,54405,1,12,0:0:0:0:
222,279,55358,1,0,0:0:0:0:
222,279,55675,1,0,0:0:0:0:
343,211,55993,1,12,0:0:0:0:
263,297,56945,1,8,0:0:0:0:
263,297,57262,1,0,0:0:0:0:
263,297,57897,1,8,0:0:0:0:
197,213,58215,1,8,0:0:0:0:
197,213,58532,1,4,0:0:0:0:
197,213,59167,1,4,0:0:0:0:
177,187,59802,1,8,0:0:0:0:
119,173,60119,1,8,0:0:0:0:
177,187,60437,1,0,0:0:0:0:
177,187,60754,1,0,0:0:0:0:
177,187,61072,1,8,0:0:0:0:
287,245,61707,1,8,0:0:0:0:
159,167,62342,1,0,0:0:0:0:
389,210,62977,1,8,0:0:0:0:
389,210,63294,1,8,0:0:0:0:
159,167,63612,1,4,0:0:0:0:
396,207,64564,1,12,0:0:0:0:
353,181,65516,1,8,0:0:0:0:
353,181,65834,1,8,0:0:0:0:
301,172,66151,1,4,0:0:0:0:
301,172,67104,1,12,0:0:0:0:
175,238,68373,1,8,0:0:0:0:
256,250,68691,1,0,0:0:0:0:
256,250,69326,1,8,0:0:0:0:
256,250,69961,1,0,0:0:0:0:
256,227,70596,1,8,0:0:0:0:
290,161,70913,1,8,0:0:0:0:
256,227,71231,1,4,0:0:0:0:
290,161,71866,1,0,0:0:0:0:
256,227,72183,1,0,0:0:0:0:
248,223,72500,1,8,0:0:0:0:
294,197,73770,1,4,0:0:0:0:
253,202,74405,1,8,0:0:0:0:
253,202,75040,1,0,0:0:0:0:
312,262,75358,1,0,0:0:0:0:
312,262,75675,1,8,0:0:0:0:
301,276,76310,1,4,0:0:0:0:
301,276,76945,1,8,0:0:0:0:
301,276,77580,1,8,0:0:0:0:
301,276,77897,1,0,0:0:0:0:
301,276,78215,1,8,0:0:0:0:
301,276,78850,1,4,0:0:0:0:
220,236,80119,1,12,0:0:0:0:
220,236,81389,1,4,0:0:0:0:
220,236,82024,1,8,0:0:0:0:
220,236,82659,1,0,0:0:0:0:
220,236,82977,1,0,0:0:0:0:
220,236,83294,1,8,0:0:0:0:
211,223,83929,1,0,0:0:0:0:
211,223,84564,1,8,0:0:0:0:
211,223,84881,1,0,0:0:0:0:
211,223,85199,1,8,0:0:0:0:
211,223,85834,1,0,0:0:0:0:
211,223,86310,1,12,0:0:0:0:
