osu file format v14

[General]
AudioFilename: hero.mp3
AudioLeadIn: 0
PreviewTime: 48294
Countdown: 0
SampleSet: Soft
StackLeniency: 0.5
Mode: 0
LetterboxInBreaks: 0
WidescreenStoryboard: 1

[Editor]
DistanceSpacing: 1
BeatDivisor: 4
GridSize: 8
TimelineZoom: 3.299999

[Metadata]
Title:Datte Atashi no Hero. -TV ver.-
TitleUnicode:だってアタシのヒーロー。-TV ver.-
Artist:LiSA
ArtistUnicode:LiSA
Creator:Monstrata
Version:Insane
Source:僕のヒーローアカデミア
Tags:season two boku no hero academia my anime bakugou midoriya yuii- alacat kibbleru quib kibboo kuaib quaib irohas mugiwarasekai naotoshi nao tomori -sh1n1- doormat akitoshi corinn snownino_ haruto haruto_aizawa haruto- kalibe
BeatmapID:1352360
BeatmapSetID:637445

[Difficulty]
HPDrainRate:6
CircleSize:4
OverallDifficulty:8
ApproachRate:9
SliderMultiplier:1.7
SliderTickRate:1

[Events]
//Background and Video events
0,0,"izuku_midoriya-vs-katsuki_bakugou-my_hero_academia-(13233).jpg",0,0
Video,0,"academia ed.avi"
//Break Periods
//Storyboard Layer 0 (Background)
//Storyboard Layer 1 (Fail)
//Storyboard Layer 2 (Pass)
//Storyboard Layer 3 (Foreground)
//Storyboard Sound Samples

[TimingPoints]
120,317.460317460317,4,2,2,50,1,0
120,-133.333333333333,4,2,2,50,0,0
5119,-100,4,2,2,5,0,0
5199,-100,4,2,2,70,0,0
12818,-100,4,2,2,75,0,0
14088,-100,4,2,2,70,0,0
14881,-133.333333333333,4,2,2,60,0,0
15358,-133.333333333333,4,2,2,50,0,0
22897,-133.333333333333,4,2,2,5,0,0
22977,-133.333333333333,4,2,2,60,0,0
23373,-133.333333333333,4,2,2,5,0,0
23453,-133.333333333333,4,2,2,60,0,0
23850,-133.333333333333,4,2,2,5,0,0
23929,-133.333333333333,4,2,2,60,0,0
24246,-133.333333333333,4,2,2,75,0,0
25119,-133.333333333333,4,2,2,5,0,0
25199,-133.333333333333,4,2,2,60,0,0
25516,-100,4,2,2,55,0,0
33056,-100,4,2,2,5,0,0
33135,-100,4,2,2,55,0,0
34326,-100,4,2,2,5,0,0
34405,-100,4,2,2,55,0,0
35358,-100,4,2,2,60,0,0
35596,-100,4,2,2,5,0,0
35675,-100,4,2,2,50,0,0
40437,-100,4,2,2,60,0,0
40754,-100,4,2,2,50,0,0
45516,-100,4,2,2,60,0,0
45754,-100,4,2,2,5,0,0
45834,-100,4,2,2,70,0,0
47739,-100,4,2,2,75,0,0
48373,-100,4,2,2,80,0,1
53373,-100,4,2,2,5,0,1
53453,-100,4,2,2,80,0,1
54643,-100,4,2,2,5,0,1
54723,-100,4,2,2,80,0,1
55913,-100,4,2,2,5,0,1
55993,-100,4,2,2,80,0,1
58056,-100,4,2,2,75,0,1
58453,-100,4,2,2,75,0,0
58532,-100,4,2,2,80,0,1
68691,-100,4,2,2,70,0,1
71231,-100,4,2,2,80,0,1
72500,-100,4,2,2,50,0,1
73453,-100,4,2,2,60,0,1
73691,-100,4,2,2,5,0,1
73770,-100,4,2,2,70,0,0

[Colours]
Combo1 : 251,194,2
Combo2 : 0,128,0

[HitObjects]
189,107,120,6,0,L|173:251,1,127.500004863739,2|2,0:0|0:0,0:0:0:0:
115,292,596,2,0,P|161:316|192:310,1,63.7500024318696,2|0,0:0|0:0,0:0:0:0:
245,279,913,1,2,0:0:0:0:
318,242,1072,2,0,P|349:246|374:265,1,63.7500024318696,0|2,0:0|0:0,0:0:0:0:
282,352,1389,5,2,0:0:0:0:
171,315,1548,2,0,L|156:188,1,127.500004863739,2|2,0:0|0:0,0:0:0:0:
237,215,2024,2,0,L|244:286,1,63.7500024318696,2|2,0:0|0:0,0:0:0:0:
272,309,2262,1,2,0:0:0:0:
272,309,2342,2,0,L|264:372,1,63.7500024318696,2|0,0:0|0:0,0:0:0:0:
343,266,2659,6,0,B|369:205|323:205|349:140,1,127.500004863739,2|2,0:0|0:0,0:0:0:0:
421,177,3135,2,0,L|484:177,1,63.7500024318696,2|0,0:0|0:0,0:0:0:0:
416,94,3453,1,2,0:0:0:0:
348,141,3612,2,0,L|284:141,1,63.7500024318696,0|2,0:0|0:0,0:0:0:0:
163,255,3929,5,2,0:0:0:0:
168,170,4088,2,0,P|198:178|239:280,1,127.500004863739,2|2,0:0|0:0,0:0:0:0:
155,318,4564,2,0,L|163:252,1,63.7500024318696,2|2,0:0|0:0,0:0:0:0:
237,336,4881,2,0,L|233:361,6,15.9375006079674,0|0|0|0|0|0|0,0:0|0:0|0:0|0:0|0:0|0:0|0:0,0:0:0:0:
244,257,5199,6,0,P|330:242|356:147,1,170,4|8,0:0|0:0,0:0:0:0:
256,91,5675,2,0,L|272:174,1,85,0|8,0:0|0:0,0:0:0:0:
345,89,5993,1,0,0:0:0:0:
210,15,6151,2,0,P|181:43|168:84,1,85,8|2,0:3|0:0,0:0:0:0:
76,238,6469,5,0,0:0:0:0:
121,161,6627,2,0,P|151:190|164:231,1,85,8|0,0:0|0:0,0:0:0:0:
30,314,6945,1,8,0:3:0:0:
32,160,7104,1,8,0:0:0:0:
76,238,7262,1,8,0:3:0:0:
76,238,7342,1,2,0:0:0:0:
76,238,7421,1,12,0:0:0:0:
76,238,7739,6,0,B|49:192|49:192|80:57,1,170,4|8,0:0|0:0,0:0:0:0:
222,176,8215,2,0,L|137:176,1,85,0|8,0:0|0:0,0:0:0:0:
179,102,8532,1,0,0:0:0:0:
264,249,8691,2,0,L|307:323,1,85,8|8,0:3|0:3,0:0:0:0:
307,176,9008,5,2,0:0:0:0:
179,249,9167,2,0,L|94:249,1,85,8|0,0:0|0:0,0:0:0:0:
222,176,9485,1,8,0:3:0:0:
349,249,9643,1,12,0:0:0:0:
349,103,9802,2,0,L|349:18,1,85,0|2,0:0|0:0,0:0:0:0:
307,176,10119,1,8,0:0:0:0:
391,322,10278,6,0,P|427:278|433:232,2,85,4|0|8,0:0|0:3|0:0,0:0:0:0:
222,321,10754,2,0,P|264:312|304:322,1,85,0|12,0:0|0:0,0:0:0:0:
161,380,11072,1,0,0:0:0:0:
164,260,11231,2,0,L|166:161,1,85,8|8,0:3|0:3,0:0:0:0:
92,216,11548,5,2,0:0:0:0:
238,219,11707,2,0,L|323:222,1,85,8|0,0:0|0:0,0:0:0:0:
240,134,12024,1,8,0:3:0:0:
236,304,12183,1,8,0:0:0:0:
406,224,12342,1,8,0:3:0:0:
406,224,12421,1,2,0:0:0:0:
406,224,12500,2,0,P|397:183|369:151,1,85,12|0,0:0|0:0,0:0:0:0:
154,217,12818,5,12,0:0:0:0:
236,304,12977,1,8,0:3:0:0:
238,219,13135,1,2,0:0:0:0:
156,132,13294,5,10,0:0:0:0:
154,217,13453,1,8,0:3:0:0:
240,134,13611,1,2,0:0:0:0:
158,47,13770,5,12,0:0:0:0:
238,219,13929,1,0,0:0:0:0:
327,52,14088,5,2,0:0:0:0:
156,132,14246,1,8,0:0:0:0:
156,132,14326,1,8,0:0:0:0:
156,132,14405,1,8,0:0:0:0:
238,219,14564,1,8,0:3:0:0:
242,49,14723,1,8,0:0:0:0:
154,217,14881,2,0,P|175:274|258:303,1,127.500004863739,2|0,0:0|0:0,0:0:0:0:
315,305,15278,1,0,0:0:0:0:
315,305,15358,6,0,L|306:382,1,63.7500024318696,4|0,0:0|0:0,0:0:0:0:
238,219,15675,2,0,L|245:155,1,63.7500024318696,0|0,1:0|0:0,0:0:0:0:
330,158,15993,2,0,L|322:221,1,63.7500024318696,0|0,1:0|0:0,0:0:0:0:
290,83,16310,2,0,P|326:73|362:77,1,63.7500024318696,0|2,1:0|0:0,0:0:0:0:
411,132,16627,5,0,1:0:0:0:
469,189,16786,1,0,0:0:0:0:
411,246,16945,1,0,1:0:0:0:
353,303,17104,1,0,0:0:0:0:
411,360,17262,2,0,L|480:358,1,63.7500024318696,0|0,1:0|0:0,0:0:0:0:
295,360,17580,2,0,L|226:358,1,63.7500024318696,0|0,1:0|0:0,0:0:0:0:
168,304,17897,5,0,1:0:0:0:
246,276,18056,1,0,0:0:0:0:
243,193,18215,1,0,1:0:0:0:
163,169,18373,1,0,0:0:0:0:
117,238,18532,2,0,L|48:236,1,63.7500024318696,0|0,1:0|0:0,0:0:0:0:
22,158,18850,2,0,L|85:159,1,63.7500024318696,0|0,1:0|0:0,0:0:0:0:
133,91,19167,6,0,L|134:27,1,63.7500024318696,0|0,1:0|0:0,0:0:0:0:
51,17,19485,2,0,L|49:80,1,63.7500024318696,0|0,1:0|0:0,0:0:0:0:
85,159,19802,1,2,1:2:0:0:
200,245,19961,1,8,0:0:0:0:
117,235,20119,1,0,1:0:0:0:
168,169,20278,1,2,0:0:0:0:
249,179,20437,6,0,P|273:205|281:234,1,63.7500024318696,0|0,1:0|0:0,0:0:0:0:
251,309,20754,1,0,1:0:0:0:
301,372,20913,1,2,0:0:0:0:
380,360,21072,1,0,1:0:0:0:
409,285,21231,2,0,L|394:203,1,63.7500024318696,0|8,0:0|1:3,0:0:0:0:
329,173,21548,1,0,0:0:0:0:
409,61,21707,6,0,L|394:143,1,63.7500024318696,0|0,1:0|0:0,0:0:0:0:
320,92,22024,1,0,1:0:0:0:
275,20,22183,2,0,P|305:8|337:10,1,63.7500024318696,0|0,0:0|1:0,0:0:0:0:
235,95,22500,1,8,0:3:0:0:
144,37,22659,2,0,L|152:101,1,63.7500024318696,12|0,0:0|0:0,0:0:0:0:
232,180,22977,6,0,P|210:122|151:101,1,127.500004863739,4|0,0:0|0:0,0:0:0:0:
164,229,23453,2,0,B|199:260|199:260|305:258,1,127.500004863739,4|0,0:0|0:0,0:0:0:0:
295,179,23929,2,0,B|231:180,1,63.7500024318696,4|0,0:0|0:0,0:0:0:0:
322,329,24246,5,12,0:0:0:0:
375,175,24405,1,8,0:0:0:0:
279,258,24564,1,8,0:0:0:0:
418,246,24723,2,0,L|444:245,10,15.9375006079674,10|0|0|0|0|0|0|0|0|0|0,0:0|0:0|0:0|0:0|0:0|0:0|0:0|0:0|0:0|0:0|0:0,0:0:0:0:
375,175,25199,6,0,P|372:143|382:113,1,63.7500024318696,8|8,0:0|0:0,0:0:0:0:
462,105,25437,1,8,0:0:0:0:
462,105,25516,6,0,P|423:121|382:114,1,85,4|0,0:0|0:0,0:0:0:0:
214,121,25834,2,0,P|253:106|295:113,1,85,8|0,0:0|0:0,0:0:0:0:
259,276,26151,1,2,0:0:0:0:
262,191,26309,1,0,0:0:0:0:
307,346,26469,2,0,P|268:361|226:354,1,85,8|0,0:0|0:0,0:0:0:0:
177,188,26786,5,2,0:0:0:0:
259,276,26945,1,0,0:0:0:0:
262,191,27104,1,8,0:0:0:0:
174,273,27262,1,0,0:0:0:0:
92,184,27421,2,0,L|200:188,1,85,2|8,0:0|0:3,0:0:0:0:
265,106,27739,2,0,L|180:102,1,85,8|0,0:0|0:0,0:0:0:0:
346,194,28056,5,2,0:0:0:0:
350,110,28215,1,0,0:0:0:0:
262,191,28373,1,8,0:0:0:0:
343,279,28532,1,0,0:0:0:0:
431,197,28691,2,0,L|346:193,1,85,2|8,0:0|0:3,0:0:0:0:
174,273,29008,2,0,L|258:276,1,85,8|0,0:0|0:0,0:0:0:0:
265,106,29326,6,0,L|180:102,1,85,2|0,0:0|0:0,0:0:0:0:
262,191,29643,1,8,0:0:0:0:
350,110,29801,1,0,0:0:0:0:
346,194,29961,1,2,0:0:0:0:
421,156,30119,1,8,0:3:0:0:
384,269,30278,1,8,0:0:0:0:
459,231,30437,1,0,0:0:0:0:
422,344,30596,6,0,L|370:242,1,85,2|0,0:0|0:0,0:0:0:0:
252,334,30913,1,8,0:0:0:0:
337,339,31071,1,0,0:0:0:0:
214,258,31231,2,0,P|178:291|168:344,1,85,2|8,0:0|0:3,0:0:0:0:
298,263,31548,2,0,P|287:215|246:180,1,85,8|0,0:0|0:0,0:0:0:0:
207,58,31866,6,0,P|199:139|263:189,1,170,2|8,0:0|0:0,0:0:0:0:
278,105,32342,1,0,0:0:0:0:
120,173,32500,2,0,L|109:274,1,85,2|8,0:0|0:3,0:0:0:0:
205,345,32818,2,0,L|196:261,1,85,12|0,0:0|0:0,0:0:0:0:
316,261,33135,5,2,0:0:0:0:
306,345,33293,1,8,0:0:0:0:
385,212,33453,1,8,0:3:0:0:
392,296,33611,1,12,0:0:0:0:
454,163,33770,2,0,P|427:138|350:134,1,85,2|8,0:0|0:3,0:0:0:0:
239,213,34088,2,0,P|278:200|307:169,1,85,12|0,0:0|0:0,0:0:0:0:
224,42,34405,5,8,0:0:0:0:
161,177,34564,1,8,0:3:0:0:
303,79,34723,1,8,0:0:0:0:
153,91,34881,1,8,0:3:0:0:
246,298,35040,1,8,0:0:0:0:
232,128,35199,1,8,0:3:0:0:
174,347,35358,1,12,0:0:0:0:
174,347,35675,5,10,0:2:0:0:
246,298,35834,1,0,0:0:0:0:
167,260,35993,2,0,P|109:289|90:325,1,85,2|8,0:0|0:0,0:0:0:0:
239,210,36310,2,0,P|297:181|316:145,1,85,8|0,0:3|0:0,0:0:0:0:
226,38,36627,2,0,L|233:123,1,85,8|0,0:0|0:0,0:0:0:0:
381,207,36945,6,0,P|392:163|379:122,2,85,10|0|2,0:0|0:0|0:0,0:0:0:0:
239,210,37421,1,8,0:0:0:0:
381,125,37580,2,0,L|465:118,1,85,8|2,0:3|0:0,0:0:0:0:
381,289,37897,2,0,L|296:295,1,85,8|0,0:0|0:0,0:0:0:0:
155,204,38215,5,10,0:0:0:0:
239,210,38373,1,0,0:0:0:0:
107,273,38532,1,2,0:0:0:0:
71,198,38691,1,8,0:0:0:0:
206,135,38850,2,0,P|232:168|239:210,1,85,8|0,0:3|0:0,0:0:0:0:
143,348,39167,1,8,0:0:0:0:
155,204,39326,1,0,0:0:0:0:
227,354,39485,5,10,0:0:0:0:
323,216,39643,2,0,L|238:209,1,85,12|8,0:0|0:3,0:0:0:0:
312,361,39961,1,8,0:3:0:0:
408,225,40119,1,2,0:0:0:0:
275,284,40278,1,8,0:3:0:0:
371,148,40437,2,0,P|426:142|463:160,1,85,12|0,0:0|0:0,0:0:0:0:
360,293,40754,5,10,0:0:0:0:
239,210,40913,1,0,0:0:0:0:
312,361,41072,2,0,P|353:375|401:365,1,85,2|8,0:0|0:0,0:0:0:0:
407,226,41389,2,0,P|374:254|359:301,1,85,2|8,0:0|0:3,0:0:0:0:
490,233,41707,2,0,P|481:190|448:153,1,85,8|0,0:0|0:0,0:0:0:0:
304,102,42024,6,0,P|312:144|345:181,2,85,10|0|2,0:0|0:0|0:0,0:0:0:0:
348,29,42500,1,8,0:0:0:0:
434,42,42659,2,0,P|418:81|387:109,1,85,2|8,0:0|0:3,0:0:0:0:
221,95,42977,1,8,0:0:0:0:
348,29,43135,1,8,0:3:0:0:
260,175,43294,6,0,P|215:183|160:160,1,85,12|2,0:0|0:0,0:0:0:0:
133,96,43612,1,8,0:3:0:0:
8,172,43770,2,0,P|53:164|108:187,1,85,2|2,0:0|0:0,0:0:0:0:
135,251,44088,1,8,0:3:0:0:
43,336,44246,2,0,L|47:252,1,85,8|0,0:0|0:0,0:0:0:0:
262,330,44564,6,0,P|217:338|162:315,1,85,10|0,0:0|0:0,0:0:0:0:
226,165,44881,2,0,L|222:249,1,85,2|8,0:0|0:3,0:0:0:0:
346,332,45199,1,2,0:0:0:0:
354,183,45358,1,8,0:3:0:0:
222,249,45516,2,0,P|262:259|304:251,1,85,12|0,0:0|0:0,0:0:0:0:
230,81,45834,5,12,0:0:0:0:
150,204,45993,1,8,0:3:0:0:
302,126,46151,1,8,0:0:0:0:
156,121,46310,1,8,0:3:0:0:
294,294,46469,5,8,0:0:0:0:
230,81,46627,1,8,0:0:0:0:
220,334,46786,1,8,0:0:0:0:
302,126,46945,1,12,0:0:0:0:
291,378,47104,5,0,0:0:0:0:
222,250,47262,2,0,P|253:220|293:209,1,85,0|0,0:0|0:0,0:0:0:0:
294,294,47580,1,0,0:0:0:0:
148,290,47739,1,8,0:3:0:0:
145,268,47818,1,8,0:3:0:0:
142,247,47897,1,8,0:0:0:0:
140,226,47977,1,8,0:0:0:0:
137,205,48056,1,8,0:0:0:0:
134,184,48135,1,8,0:3:0:0:
132,163,48215,1,8,0:0:0:0:
129,142,48294,1,8,0:0:0:0:
126,121,48373,6,0,B|177:101|177:101|313:126,1,170,4|8,0:0|0:0,0:0:0:0:
375,134,48850,1,0,0:3:0:0:
310,36,49008,2,0,L|335:226,1,170,8|8,0:3|0:0,0:0:0:0:
394,48,49485,1,2,0:0:0:0:
226,24,49643,6,0,L|242:146,1,85,8|0,0:3|0:0,0:0:0:0:
103,212,49961,1,8,0:0:0:0:
92,128,50119,1,2,0:0:0:0:
181,244,50278,1,8,0:3:0:0:
170,160,50437,1,2,0:0:0:0:
36,264,50596,1,8,0:0:0:0:
25,180,50755,1,2,0:0:0:0:
191,328,50913,6,0,P|230:313|261:273,1,85,8|0,0:3|0:0,0:0:0:0:
161,78,51231,2,0,P|154:118|174:165,1,85,8|0,0:0|0:0,0:0:0:0:
247,191,51469,1,8,0:0:0:0:
247,191,51548,2,0,P|253:149|239:110,1,85,8|8,0:3|0:3,0:0:0:0:
102,211,51866,2,0,L|181:244,1,85,8|0,0:0|0:0,0:0:0:0:
317,77,52183,6,0,L|238:109,1,85,2|8,0:0|0:3,0:0:0:0:
333,159,52421,1,8,0:3:0:0:
333,159,52500,2,0,L|393:133,1,42.5,10|0,0:0|0:0,0:0:0:0:
364,8,52659,2,0,L|324:-8,1,42.5,8|8,0:0|0:0,0:0:0:0:
247,191,52818,1,8,0:0:0:0:
249,212,52897,1,8,0:3:0:0:
252,233,52976,1,8,0:0:0:0:
255,254,53056,1,8,0:3:0:0:
258,275,53135,2,0,P|300:279|343:317,1,85,12|0,0:0|0:0,0:0:0:0:
122,377,53453,6,0,L|111:292,1,85,4|2,0:0|0:0,0:0:0:0:
100,207,53770,1,8,0:3:0:0:
236,106,53929,2,0,L|246:190,1,85,12|0,0:0|0:0,0:0:0:0:
258,276,54246,1,8,0:3:0:0:
32,258,54405,2,0,P|16:219|27:163,1,85,10|0,0:0|0:0,0:0:0:0:
168,156,54723,5,8,0:3:0:0:
111,292,54881,1,8,0:3:0:0:
246,190,55040,1,8,0:3:0:0:
89,122,55199,1,12,0:0:0:0:
177,240,55358,1,2,0:0:0:0:
237,106,55516,1,8,0:3:0:0:
100,207,55675,2,0,P|97:262|125:306,1,85,12|0,0:0|0:0,0:0:0:0:
324,224,55993,5,2,0:0:0:0:
168,156,56151,1,0,0:0:0:0:
315,140,56310,1,10,0:0:0:0:
185,324,56469,2,0,L|177:240,1,85,12|0,0:0|0:0,0:0:0:0:
237,106,56786,1,8,0:3:0:0:
392,173,56945,2,0,P|407:213|402:256,1,85,12|2,0:0|0:0,0:0:0:0:
262,358,57262,5,8,0:3:0:0:
315,140,57421,1,8,0:3:0:0:
185,324,57580,1,8,0:3:0:0:
393,174,57739,2,0,L|480:108,1,85,12|2,0:0|0:0,0:0:0:0:
107,290,58056,2,0,L|52:330,1,42.5,12|8,0:0|0:3,0:0:0:0:
184,324,58215,1,8,0:0:0:0:
191,303,58294,1,8,0:0:0:0:
191,282,58373,1,8,0:0:0:0:
187,261,58453,1,8,0:0:0:0:
177,242,58532,6,0,P|162:202|238:109,1,170,4|8,0:0|0:0,0:0:0:0:
247,195,59008,1,0,0:0:0:0:
107,290,59167,2,0,L|62:122,1,170,8|8,0:3|0:0,0:0:0:0:
23,282,59643,1,2,0:0:0:0:
247,195,59802,6,0,L|331:198,1,85,8|0,0:3|0:0,0:0:0:0:
207,119,60119,1,8,0:0:0:0:
201,266,60278,1,0,0:0:0:0:
370,273,60437,1,2,0:0:0:0:
247,195,60596,1,8,0:3:0:0:
241,341,60754,1,8,0:0:0:0:
331,198,60913,1,2,0:0:0:0:
162,191,61072,6,0,P|128:222|119:285,1,85,8|0,0:3|0:0,0:0:0:0:
370,273,61389,2,0,P|403:241|413:179,1,85,8|0,0:0|0:0,0:0:0:0:
334,113,61627,1,8,0:3:0:0:
334,113,61707,2,0,L|330:197,1,85,8|2,0:3|0:0,0:0:0:0:
367,357,62024,2,0,L|370:272,1,85,8|0,0:0|0:0,0:0:0:0:
336,28,62342,6,0,P|289:41|251:94,1,85,2|8,0:0|0:3,0:0:0:0:
177,67,62580,1,8,0:3:0:0:
177,67,62659,2,0,P|180:88|188:107,1,42.5,8|0,0:0|0:0,0:0:0:0:
262,148,62818,2,0,P|259:170|251:189,1,42.5,12|0,0:0|0:0,0:0:0:0:
162,270,62977,2,0,P|153:229|165:189,1,85,8|8,0:3|0:3,0:0:0:0:
247,276,63215,1,8,0:3:0:0:
247,276,63294,2,0,L|304:279,1,42.5,8|8,0:0|0:0,0:0:0:0:
378,209,63453,2,0,L|336:207,1,42.5,8|8,0:0|0:0,0:0:0:0:
321,356,63612,6,0,P|355:331|373:293,1,85,12|0,0:0|0:0,0:0:0:0:
251,189,63929,1,2,0:0:0:0:
162,270,64088,2,0,L|268:277,1,85,12|0,0:0|0:0,0:0:0:0:
336,207,64405,1,0,0:0:0:0:
129,192,64564,6,0,P|95:216|77:255,1,85,12|0,0:0|0:0,0:0:0:0:
251,189,64881,1,8,0:3:0:0:
123,107,65040,2,0,L|130:213,1,85,12|8,0:0|0:3,0:0:0:0:
246,105,65358,1,8,0:3:0:0:
46,69,65516,6,0,L|52:154,1,85,10|8,0:0|0:3,0:0:0:0:
240,20,65834,2,0,P|269:24|320:63,1,85,12|2,0:0|0:0,0:0:0:0:
252,186,66151,6,0,P|239:146|246:105,1,85,12|0,0:0|0:0,0:0:0:0:
402,171,66469,1,2,0:0:0:0:
264,275,66627,2,0,P|222:266|189:240,1,85,12|0,0:0|0:0,0:0:0:0:
324,138,66945,1,0,0:0:0:0:
346,310,67104,6,0,P|317:341|278:356,1,85,12|0,0:0|0:0,0:0:0:0:
252,186,67421,1,8,0:3:0:0:
417,262,67580,2,0,L|526:253,1,85,12|8,0:0|0:3,0:0:0:0:
324,138,67897,1,8,0:3:0:0:
180,234,68056,6,0,L|70:225,1,85,10|8,0:0|0:3,0:0:0:0:
162,93,68373,2,0,L|246:99,1,85,12|0,0:0|0:3,0:0:0:0:
264,240,68691,6,0,L|154:231,1,85,4|8,0:0|0:3,0:0:0:0:
311,169,69008,2,0,P|339:201|347:242,1,85,8|0,0:0|0:0,0:0:0:0:
218,307,69326,2,0,P|232:267|263:239,1,85,2|8,0:0|0:3,0:0:0:0:
384,319,69643,2,0,L|468:325,1,85,8|0,0:0|0:0,0:0:0:0:
396,176,69961,6,0,L|311:169,1,85,2|0,0:0|0:0,0:0:0:0:
436,250,70278,2,0,P|467:222|480:182,1,85,8|0,0:0|0:0,0:0:0:0:
359,99,70596,1,8,0:3:0:0:
348,246,70754,1,0,0:0:0:0:
444,106,70913,2,0,P|438:65|407:28,1,85,8|0,0:0|0:0,0:0:0:0:
263,239,71231,5,2,0:0:0:0:
274,92,71389,1,8,0:3:0:0:
348,246,71548,1,8,0:3:0:0:
359,99,71706,1,8,0:3:0:0:
215,309,71866,5,8,0:0:0:0:
226,162,72024,1,8,0:0:0:0:
300,316,72183,1,8,0:0:0:0:
311,169,72341,1,8,0:0:0:0:
263,239,72500,6,0,L|347:245,1,85,2|8,0:0|0:3,0:0:0:0:
395,175,72739,1,8,0:3:0:0:
395,175,72818,2,0,L|480:181,1,85,8|8,0:3|0:3,0:0:0:0:
354,100,73135,2,0,P|323:128|311:169,1,85,8|8,0:3|0:3,0:0:0:0:
388,320,73453,2,0,P|418:291|431:251,1,85,12|0,0:0|0:0,0:0:0:0:
263,239,73770,6,0,L|277:335,1,85,4|8,0:0|0:3,0:0:0:0:
275,323,74008,1,0,0:0:0:0:
275,323,74088,1,0,0:0:0:0:
196,291,74246,1,8,0:3:0:0:
250,154,74405,2,0,P|299:161|343:210,1,85,12|2,0:0|0:0,0:0:0:0:
182,207,74723,2,0,P|163:161|183:98,1,85,0|8,0:0|0:3,0:0:0:0:
262,69,75040,6,0,L|248:165,1,85,2|8,0:0|0:0,0:0:0:0:
250,153,75278,1,0,0:0:0:0:
250,153,75358,1,0,0:0:0:0:
316,205,75516,1,8,0:3:0:0:
393,170,75675,2,0,P|366:137|328:121,1,85,12|2,0:0|0:0,0:0:0:0:
238,239,75993,2,0,P|264:271|303:288,1,85,0|2,0:0|0:0,0:0:0:0:
167,126,76310,6,0,P|125:120|86:137,1,85,4|8,0:0|0:3,0:0:0:0:
86,137,76548,1,0,0:0:0:0:
86,137,76627,1,0,0:0:0:0:
51,213,76786,1,8,0:3:0:0:
145,288,76945,2,0,L|136:204,1,85,12|2,0:0|0:0,0:0:0:0:
51,213,77262,2,0,L|60:297,1,85,0|8,0:0|0:3,0:0:0:0:
222,322,77580,6,0,L|291:271,1,85,2|8,0:0|0:0,0:0:0:0:
291,271,77818,1,0,0:0:0:0:
291,271,77897,1,0,0:0:0:0:
213,236,78056,1,8,0:3:0:0:
359,220,78215,2,0,P|376:277|361:321,1,85,12|2,0:0|0:0,0:0:0:0:
280,185,78532,2,0,P|263:129|278:85,1,85,8|0,0:3|0:0,0:0:0:0:
207,2,78850,6,0,L|165:166,1,170,4|0,0:0|0:0,0:0:0:0:
104,63,79326,1,2,0:0:0:0:
268,105,79485,2,0,L|432:146,1,170,8|0,0:0|0:0,0:0:0:0:
371,43,79960,1,8,0:3:0:0:
329,207,80119,6,0,L|300:322,1,85,2|8,0:0|0:0,0:0:0:0:
412,228,80437,2,0,L|432:145,1,85,2|8,0:0|0:3,0:0:0:0:
246,186,80754,2,0,L|217:301,1,85,8|0,0:0|0:0,0:0:0:0:
391,310,81072,2,0,L|411:227,1,85,8|0,0:3|0:3,0:0:0:0:
266,103,81389,6,0,P|229:102|170:148,1,85,4|0,0:0|0:0,0:0:0:0:
205,351,81707,2,0,P|242:352|301:306,1,85,8|0,0:3|0:0,0:0:0:0:
105,147,82024,2,0,L|85:230,1,85,8|0,0:0|0:0,0:0:0:0:
225,268,82342,2,0,L|245:185,1,85,8|8,0:3|0:3,0:0:0:0:
3,253,82659,6,0,P|50:309|159:274,1,170,0|8,0:0|0:3,0:0:0:0:
186,123,83135,2,0,L|104:147,1,85,8|2,0:0|0:0,0:0:0:0:
42,88,83453,1,8,0:3:0:0:
267,98,83612,2,0,P|268:137|239:191,1,85,12|0,0:0|0:0,0:0:0:0:
139,297,83929,5,4,0:0:0:0:
186,123,84088,1,8,0:3:0:0:
313,250,84246,1,12,0:0:0:0:
85,230,84405,2,0,L|-23:220,1,85,2|12,0:0|0:0,0:0:0:0:
192,363,84723,2,0,L|300:353,1,85,2|8,0:0|0:3,0:0:0:0:
186,123,85040,5,10,0:3:0:0:
139,297,85199,1,2,0:0:0:0:
313,250,85358,2,0,P|337:205|334:153,1,85,8|0,0:0|0:0,0:0:0:0:
210,37,85675,1,8,0:3:0:0:
249,186,85833,1,8,0:0:0:0:
296,14,85993,1,8,0:0:0:0:
162,209,86151,1,8,0:0:0:0:
358,76,86310,6,0,B|408:23|514:41|532:126|457:164|411:134,1,255,12|0,0:0|0:0,0:0:0:0:
