osu file format v14

[General]
AudioFilename: hero.mp3
AudioLeadIn: 0
PreviewTime: 48294
Countdown: 0
SampleSet: Soft
StackLeniency: 0.5
Mode: 0
LetterboxInBreaks: 0
WidescreenStoryboard: 0

[Editor]
DistanceSpacing: 1.1
BeatDivisor: 4
GridSize: 4
TimelineZoom: 1.8

[Metadata]
Title:Datte Atashi no Hero. -TV ver.-
TitleUnicode:だってアタシのヒーロー。-TV ver.-
Artist:LiSA
ArtistUnicode:LiSA
Creator:Monstrata
Version:Easy
Source:僕のヒーローアカデミア
Tags:season two boku no hero academia my anime bakugou midoriya yuii- alacat kibbleru quib kibboo kuaib quaib irohas mugiwarasekai naotoshi nao tomori -sh1n1- doormat akitoshi corinn snownino_ haruto haruto_aizawa haruto- kalibe
BeatmapID:1355890
BeatmapSetID:637445

[Difficulty]
HPDrainRate:2
CircleSize:2
OverallDifficulty:2
ApproachRate:3
SliderMultiplier:0.799999999999999
SliderTickRate:1

[Events]
//Background and Video events
0,0,"izuku_midoriya-vs-katsuki_bakugou-my_hero_academia-(13233).jpg",0,0
Video,0,"academia ed.avi"
//Break Periods
//Storyboard Layer 0 (Background)
//Storyboard Layer 1 (Fail)
//Storyboard Layer 2 (Pass)
//Storyboard Layer 3 (Foreground)
//Storyboard Sound Samples

[TimingPoints]
120,317.460317460317,4,2,2,50,1,0
120,-100,4,2,2,50,0,0
5119,-100,4,2,2,5,0,0
5199,-100,4,2,2,70,0,0
12818,-100,4,2,2,75,0,0
14088,-100,4,2,2,70,0,0
14881,-100,4,2,2,60,0,0
15278,-100,4,2,2,5,0,0
15358,-100,4,2,2,50,0,0
22897,-100,4,2,2,5,0,0
22977,-100,4,2,2,60,0,0
23373,-100,4,2,2,5,0,0
23453,-100,4,2,2,60,0,0
23850,-100,4,2,2,5,0,0
23929,-100,4,2,2,60,0,0
24246,-100,4,2,2,75,0,0
25119,-100,4,2,2,5,0,0
25199,-100,4,2,2,60,0,0
25516,-100,4,2,2,55,0,0
32977,-100,4,2,2,55,0,0
33056,-100,4,2,2,5,0,0
33135,-100,4,2,2,55,0,0
34326,-100,4,2,2,5,0,0
34405,-100,4,2,2,55,0,0
35358,-100,4,2,2,60,0,0
35516,-100,4,2,2,60,0,0
35596,-100,4,2,2,5,0,0
35675,-100,4,2,2,50,0,0
40437,-100,4,2,2,60,0,0
40754,-100,4,2,2,50,0,0
43135,-100,4,2,2,50,0,0
45516,-100,4,2,2,60,0,0
45754,-100,4,2,2,5,0,0
45834,-100,4,2,2,70,0,0
47739,-100,4,2,2,75,0,0
48373,-100,4,2,2,80,0,1
53373,-100,4,2,2,5,0,1
53453,-100,4,2,2,80,0,1
54643,-100,4,2,2,5,0,1
54723,-100,4,2,2,80,0,1
55913,-100,4,2,2,5,0,1
55993,-100,4,2,2,80,0,1
58056,-100,4,2,2,75,0,1
58453,-100,4,2,2,75,0,0
58532,-100,4,2,2,80,0,1
68691,-100,4,2,2,70,0,1
71231,-100,4,2,2,80,0,1
72500,-100,4,2,2,50,0,1
73453,-100,4,2,2,60,0,1
73691,-100,4,2,2,5,0,1
73770,-100,4,2,2,70,0,0

[Colours]
Combo1 : 251,194,2
Combo2 : 0,128,0

[HitObjects]
258,101,120,6,0,L|380:84,1,120,2|2,0:0|0:0,0:0:0:0:
456,47,913,2,0,P|464:100|428:159,1,120,2|2,0:0|0:0,0:0:0:0:
286,255,2024,2,0,L|272:346,1,79.9999999999999,2|2,0:0|0:0,0:0:0:0:
190,366,2659,6,0,P|130:366|82:332,1,120,2|2,0:0|0:0,0:0:0:0:
46,252,3453,2,0,L|65:125,1,120,2|2,0:0|0:0,0:0:0:0:
212,39,4564,2,0,L|303:53,1,79.9999999999999,2|0,0:0|0:0,0:0:0:0:
378,38,5199,6,0,P|376:74|321:135,1,120,4|0,0:0|0:0,0:0:0:0:
234,135,5993,2,0,L|249:265,1,120,0|0,0:0|0:0,0:0:0:0:
415,308,7104,2,0,L|424:228,1,79.9999999999999,8|12,0:0|0:0,0:0:0:0:
495,176,7739,6,0,P|466:151|376:154,1,120,4|0,0:0|0:0,0:0:0:0:
338,220,8532,2,0,P|309:245|219:242,1,120,0|2,0:0|0:0,0:0:0:0:
90,141,9643,1,12,0:0:0:0:
230,33,10278,6,0,P|288:28|337:61,1,120,4|0,0:0|0:0,0:0:0:0:
266,113,11072,2,0,L|265:244,1,120,0|2,0:0|0:0,0:0:0:0:
89,232,12183,2,0,L|89:147,1,79.9999999999999,8|12,0:0|0:0,0:0:0:0:
90,63,12818,6,0,P|138:78|178:146,2,120,12|10|12,0:0|0:0|0:0,0:0:0:0:
13,107,14088,2,0,B|-5:148|-5:148|-5:233,1,120,2|8,0:0|0:3,0:0:0:0:
50,291,14881,2,0,B|91:273|91:273|176:273,1,120,2|4,0:0|0:0,0:0:0:0:
227,209,15675,6,0,L|320:209,1,79.9999999999999,0|0,1:0|1:0,0:0:0:0:
364,142,16310,1,0,1:0:0:0:
421,75,16627,2,0,P|444:106|451:146,2,79.9999999999999,0|0|0,1:0|1:0|1:0,0:0:0:0:
335,60,17580,1,0,1:0:0:0:
248,44,17897,6,0,L|153:53,1,79.9999999999999,0|0,1:0|1:0,0:0:0:0:
120,125,18532,2,0,L|25:134,1,79.9999999999999,0|0,1:0|1:0,0:0:0:0:
0,211,19167,1,0,1:0:0:0:
115,344,19802,2,0,L|210:353,1,79.9999999999999,2|0,1:2|1:0,0:0:0:0:
261,293,20437,5,0,1:0:0:0:
209,221,20754,2,0,P|196:183|204:141,2,79.9999999999999,0|0|8,1:0|1:0|1:3,0:0:0:0:
284,175,21707,2,0,P|290:135|277:98,2,79.9999999999999,0|0|0,1:0|1:0|1:0,0:0:0:0:
289,262,22659,1,12,0:0:0:0:
367,302,22977,6,0,L|484:360,2,120,4|4|4,0:0|0:0|0:0,0:0:0:0:
361,214,24246,2,0,L|353:83,1,120,12|10,0:0|0:0,0:0:0:0:
405,23,25040,2,0,P|339:7|286:37,1,120,0|4,0:0|0:0,0:0:0:0:
236,95,25834,6,0,L|148:91,1,79.9999999999999,8|2,0:0|0:0,0:0:0:0:
68,87,26469,1,8,0:0:0:0:
26,164,26786,2,0,P|12:205|21:253,1,79.9999999999999,2|8,0:0|0:0,0:0:0:0:
91,288,27421,2,0,P|104:246|95:198,1,79.9999999999999,2|8,0:0|0:0,0:0:0:0:
159,143,28056,6,0,P|198:139|236:151,1,79.9999999999999,2|8,0:0|0:0,0:0:0:0:
322,170,28691,2,0,P|305:206|275:232,1,79.9999999999999,2|8,0:0|0:0,0:0:0:0:
187,230,29326,2,0,P|208:289|295:320,1,160,2|2,0:0|0:0,0:0:0:0:
367,271,30278,2,0,L|445:214,1,79.9999999999999,8|2,0:0|0:0,0:0:0:0:
420,136,30913,6,0,L|411:56,2,79.9999999999999,8|2|8,0:0|0:0|0:0,0:0:0:0:
499,170,31866,2,0,P|516:205|515:245,1,79.9999999999999,2|8,0:0|0:0,0:0:0:0:
471,321,32500,2,0,P|435:338|395:337,1,79.9999999999999,2|12,0:0|0:0,0:0:0:0:
340,268,33135,6,0,P|317:234|282:215,2,79.9999999999999,2|8|2,0:0|0:3|0:0,0:0:0:0:
258,302,34088,1,12,0:0:0:0:
176,336,34405,2,0,L|90:372,2,79.9999999999999,8|8|8,0:0|0:0|0:0,0:0:0:0:
188,248,35358,1,12,0:0:0:0:
200,160,35675,6,0,L|273:129,2,79.9999999999999,10|2|8,0:2|0:0|0:3,0:0:0:0:
118,194,36627,1,8,0:0:0:0:
36,228,36945,2,0,P|41:149|106:105,1,160,10|8,0:0|0:3,0:0:0:0:
184,73,37897,1,8,0:0:0:0:
265,105,38215,6,0,L|277:193,2,79.9999999999999,10|2|8,0:0|0:0|0:3,0:0:0:0:
253,19,39167,1,8,0:0:0:0:
334,53,39485,2,0,B|377:71|412:56|412:56|450:42|492:65,1,160,10|2,0:0|0:0,0:0:0:0:
442,140,40437,1,12,0:0:0:0:
397,215,40754,6,0,L|415:295,1,79.9999999999999,10|2,0:0|0:0,0:0:0:0:
336,336,41389,2,0,L|318:257,1,79.9999999999999,2|8,0:0|0:0,0:0:0:0:
317,168,42024,2,0,B|273:169|248:200|248:200|168:200,1,160,10|2,0:0|0:0,0:0:0:0:
78,198,42977,1,8,0:0:0:0:
28,125,43294,6,0,B|23:46|23:46|38:7,2,120,12|2|8,0:0|0:0|0:0,0:0:0:0:
78,198,44564,2,0,L|82:292,2,79.9999999999999,10|2|2,0:0|0:0|0:0,0:0:0:0:
118,119,45516,1,12,0:0:0:0:
256,192,45834,12,0,46945,0:0:0:0:
224,259,48373,6,0,L|215:354,1,79.9999999999999,4|8,0:0|0:0,0:0:0:0:
304,340,49008,2,0,L|311:260,1,79.9999999999999,8|8,0:3|0:0,0:0:0:0:
270,182,49643,1,8,0:3:0:0:
181,180,49961,2,0,P|143:219|132:254,2,79.9999999999999,8|8|8,0:0|0:3|0:0,0:0:0:0:
227,104,50913,6,0,L|228:21,1,79.9999999999999,8|8,0:3|0:0,0:0:0:0:
314,9,51548,2,0,L|313:88,1,79.9999999999999,8|8,0:3|0:0,0:0:0:0:
287,173,52183,2,0,P|328:176|369:158,1,79.9999999999999,2|10,0:0|0:0,0:0:0:0:
436,112,52818,2,0,P|450:149|447:188,1,79.9999999999999,8|12,0:0|0:0,0:0:0:0:
383,250,53453,6,0,L|407:370,2,120,4|12|10,0:0|0:0|0:0,0:0:0:0:
307,204,54723,2,0,L|291:124,1,79.9999999999999,8|8,0:3|0:3,0:0:0:0:
203,123,55358,2,0,L|218:201,1,79.9999999999999,2|12,0:0|0:0,0:0:0:0:
209,289,55993,6,0,P|162:305|90:277,2,120,2|12|12,0:0|0:0|0:0,0:0:0:0:
290,257,57262,2,0,P|337:241|409:269,1,120,8|12,0:3|0:0,0:0:0:0:
441,340,58056,1,12,0:0:0:0:
311,367,58532,6,0,L|216:379,1,79.9999999999999,4|8,0:0|0:0,0:0:0:0:
167,316,59167,2,0,L|72:304,1,79.9999999999999,8|8,0:3|0:0,0:0:0:0:
42,229,59802,1,8,0:3:0:0:
87,152,60119,2,0,L|77:72,2,79.9999999999999,8|8|8,0:0|0:3|0:0,0:0:0:0:
144,219,61072,6,0,P|182:229|221:224,1,79.9999999999999,8|8,0:3|0:0,0:0:0:0:
298,268,61707,2,0,P|308:229|303:190,1,79.9999999999999,8|8,0:3|0:0,0:0:0:0:
232,137,62342,2,0,P|221:98|226:59,1,79.9999999999999,2|8,0:0|0:0,0:0:0:0:
308,93,62977,2,0,P|347:98|386:88,1,79.9999999999999,8|8,0:3|0:0,0:0:0:0:
459,38,63612,6,0,P|474:78|439:161,4,120,12|12|12|12|10,0:0|0:0|0:0|0:0|0:0,0:0:0:0:
386,88,65834,1,12,0:0:0:0:
333,158,66151,6,0,L|353:291,4,120,12|12|12|12|10,0:0|0:0|0:0|0:0|0:0,0:0:0:0:
252,121,68373,1,12,0:0:0:0:
170,84,68691,6,0,P|164:123|173:162,1,79.9999999999999,4|8,0:0|0:0,0:0:0:0:
246,210,69326,2,0,P|252:249|243:287,1,79.9999999999999,2|8,0:0|0:0,0:0:0:0:
158,308,69961,2,0,L|35:285,2,120,2|0|8,0:0|0:0|0:0,0:0:0:0:
215,374,71231,6,0,P|248:378|306:355,1,79.9999999999999,2|8,0:0|0:3,0:0:0:0:
347,295,71866,2,0,L|425:280,1,79.9999999999999,8|8,0:0|0:0,0:0:0:0:
479,210,72500,1,2,0:0:0:0:
154,71,73770,6,0,B|127:148|127:148|165:235,1,160,4|12,0:0|0:0,0:0:0:0:
201,297,74723,1,0,0:0:0:0:
262,233,75040,2,0,B|311:172|311:172|305:91,1,160,2|12,0:0|0:0,0:0:0:0:
363,24,75993,1,0,0:0:0:0:
422,91,76310,6,0,B|416:172|416:172|465:234,1,160,4|12,0:0|0:0,0:0:0:0:
442,319,77262,1,0,0:0:0:0:
354,320,77580,2,0,B|303:260|303:260|222:251,1,160,2|12,0:0|0:0,0:0:0:0:
135,239,78532,1,8,0:3:0:0:
46,226,78850,6,0,P|55:280|145:330,1,160,4|8,0:0|0:0,0:0:0:0:
191,161,80119,2,0,L|215:72,1,79.9999999999999,2|2,0:0|0:0,0:0:0:0:
300,83,80754,2,0,L|321:161,1,79.9999999999999,8|8,0:0|0:3,0:0:0:0:
401,194,81389,6,0,P|379:226|345:246,2,79.9999999999999,4|8|8,0:0|0:3|0:0,0:0:0:0:
395,105,82342,1,8,0:3:0:0:
344,33,82659,2,0,L|220:21,2,120,0|8|12,0:0|0:0|0:0,0:0:0:0:
431,25,83929,6,0,P|467:54|481:125,1,120,4|2,0:0|0:0,0:0:0:0:
419,186,84723,2,0,L|299:174,1,120,2|2,0:0|0:0,0:0:0:0:
160,282,85834,2,0,L|40:270,1,120,8|12,0:0|0:0,0:0:0:0:
