osu file format v14

[General]
AudioFilename: audio.mp3
AudioLeadIn: 0
PreviewTime: 47016
Countdown: 0
SampleSet: Soft
StackLeniency: 0.7
Mode: 0
LetterboxInBreaks: 0
WidescreenStoryboard: 1

[Editor]
DistanceSpacing: 1
BeatDivisor: 4
GridSize: 4
TimelineZoom: 2.5

[Metadata]
Title:Datte Atashi no Hero. -TV ver.-
TitleUnicode:だってアタシのヒーロー。-TV ver.-
Artist:LiSA
ArtistUnicode:LiSA
Creator:Ipas
Version:Normal
Source:僕のヒーローアカデミア
Tags:boku no my hero academia second season ending farel12345 wendao2000 Harez wendao
BeatmapID:1357440
BeatmapSetID:638877

[Difficulty]
HPDrainRate:4
CircleSize:3
OverallDifficulty:4
ApproachRate:5
SliderMultiplier:0.999999999999999
SliderTickRate:1

[Events]
//Background and Video events
Video,-2914,"video.avi"
0,0,"bg.jpg",0,0
//Break Periods
//Storyboard Layer 0 (Background)
//Storyboard Layer 1 (Fail)
//Storyboard Layer 2 (Pass)
//Storyboard Layer 3 (Foreground)
//Storyboard Sound Samples

[TimingPoints]
350,317.460317460317,4,2,1,35,1,0
350,-100,4,1,1,35,0,0
5429,-100,4,2,1,65,0,0
15111,-100,4,2,1,65,0,0
15588,-100,4,2,1,45,0,0
23207,-100,4,2,1,45,0,0
24476,-100,4,2,1,65,0,0
25746,-100,4,2,1,55,0,0
35905,-100,4,2,1,50,0,0
43524,-100,4,2,1,55,0,0
46064,-100,4,2,1,65,0,0
47334,-100,4,2,1,45,0,0
48603,-100,4,2,1,75,0,1
72730,-100,4,2,1,75,0,0
74000,-100,4,2,1,55,0,0
86540,-100,4,2,1,35,0,0

[Colours]
Combo1 : 255,66,66
Combo2 : 0,174,87
Combo3 : 252,204,116
Combo4 : 253,126,0
Combo5 : 0,0,160

[HitObjects]
164,292,350,6,0,P|216:288|268:304,1,99.9999999999999
296,336,826,2,0,P|344:352|400:336,2,99.9999999999999,0|0|0,0:0|0:0|0:0,0:0:0:0:
344,248,1778,1,0,0:0:0:0:
284,168,2096,2,0,L|292:112,2,50,0|0|0,0:0|0:0|0:0,0:0:0:0:
240,192,2572,1,0,0:0:0:0:
140,196,2889,6,0,L|152:296,1,99.9999999999999,0|0,0:0|0:0,0:0:0:0:
128,340,3365,2,0,B|76:340|76:340|32:364,2,99.9999999999999,0|0|0,0:0|0:0|0:0,0:0:0:0:
228,352,4318,1,0,0:0:0:0:
304,288,4635,2,0,P|320:256|324:240,1,50,0|0,0:0|0:0,0:0:0:0:
352,200,4953,2,0,P|400:184|456:192,1,99.9999999999999,0|0,0:0|0:0,0:0:0:0:
492,164,5429,6,0,L|496:64,1,99.9999999999999,6|8,0:0|0:0,0:0:0:0:
468,24,5905,1,0,0:0:0:0:
376,64,6223,2,0,P|324:72|276:52,1,99.9999999999999,0|2,0:0|0:0,0:0:0:0:
236,32,6699,1,2,0:0:0:0:
236,32,6857,2,0,L|136:44,1,99.9999999999999,8|2,0:0|0:0,0:0:0:0:
104,84,7334,1,8,0:0:0:0:
72,180,7651,1,8,0:0:0:0:
88,280,7969,6,0,P|136:268|168:232,1,99.9999999999999,6|8,0:0|0:0,0:0:0:0:
196,188,8445,2,0,B|248:188|248:188|292:212,1,99.9999999999999,0|0,0:0|0:0,0:0:0:0:
356,284,9080,2,0,P|388:296|408:296,2,50,2|0|8,0:0|0:0|0:0,0:0:0:0:
272,336,9715,2,0,P|247:339|222:340,1,50,2|8,0:0|0:0,0:0:0:0:
172,340,10032,2,0,P|122:332|72:331,1,99.9999999999999,2|8,0:0|0:0,0:0:0:0:
36,300,10508,6,0,L|40:200,1,99.9999999999999,6|8,0:0|0:0,0:0:0:0:
64,156,10984,1,0,0:0:0:0:
156,116,11302,1,0,0:0:0:0:
232,180,11619,2,0,L|288:184,2,50,2|2|8,0:0|0:0|0:0,0:0:0:0:
144,228,12254,2,0,P|140:264|144:288,1,50,2|8,0:0|0:0,0:0:0:0:
164,324,12572,2,0,L|216:328,1,50,2|8,0:0|0:0,0:0:0:0:
312,332,13048,6,0,P|368:324|424:328,1,99.9999999999999,12|0,0:0|0:0,0:0:0:0:
460,340,13524,2,0,P|488:344|512:344,1,50,8|2,0:0|0:0,0:0:0:0:
484,248,14000,2,0,L|476:144,1,99.9999999999999,8|8,0:0|3:0,0:0:0:0:
444,108,14476,2,0,P|416:96|392:88,1,50,2|8,0:0|0:0,0:0:0:0:
348,103,14794,2,0,P|274:107|215:63,1,150,2|0,0:0|0:0,0:0:0:0:
132,116,15588,6,0,L|140:216,1,99.9999999999999,6|2,0:0|0:0,0:0:0:0:
84,296,16223,2,0,P|129:315|177:305,1,99.9999999999999,2|2,0:0|0:0,0:0:0:0:
272,276,16857,2,0,L|380:288,2,99.9999999999999,2|2|2,0:0|0:0|0:0,0:0:0:0:
236,184,17810,1,2,0:0:0:0:
160,115,18127,6,0,P|250:84|328:144,1,200,2|2,0:0|0:0,0:0:0:0:
332,244,19080,1,2,0:0:0:0:
424,204,19397,2,0,P|432:256|416:304,1,99.9999999999999,2|2,0:0|0:0,0:0:0:0:
348,372,20032,2,0,P|320:364|296:360,1,50,2|8,0:0|0:0,0:0:0:0:
248,368,20349,1,2,0:0:0:0:
208,276,20667,5,2,0:0:0:0:
108,296,20984,2,0,P|88:272|80:256,1,50,2|0,0:0|0:0,0:0:0:0:
72,204,21302,2,0,L|80:104,1,99.9999999999999,2|8,0:0|3:0,0:0:0:0:
164,48,21937,2,0,P|216:64|264:48,1,99.9999999999999,2|2,0:0|0:0,0:0:0:0:
308,64,22413,2,0,P|288:112|296:164,1,99.9999999999999,0|8,0:0|3:0,0:0:0:0:
328,196,22889,1,12,0:0:0:0:
256,192,23207,12,8,24476,0:0:0:0:
336,248,25746,6,0,P|288:236|232:240,1,99.9999999999999,6|8,0:0|0:0,0:0:0:0:
140,216,26381,2,0,P|112:224|80:228,2,50,0|2|8,0:0|0:0|0:0,0:0:0:0:
192,132,27016,2,0,L|212:32,1,99.9999999999999,2|8,0:0|0:0,0:0:0:0:
308,64,27651,2,0,L|288:164,1,99.9999999999999,0|8,0:0|0:0,0:0:0:0:
316,260,28286,6,0,P|340:280|360:288,1,50,2|0,0:0|0:0,0:0:0:0:
404,268,28604,2,0,P|428:248|448:240,1,50,8|0,0:0|0:0,0:0:0:0:
488,212,28921,2,0,B|500:160|500:160|484:112,2,99.9999999999999,0|8|2,0:0|0:0|0:0,0:0:0:0:
400,160,29873,1,8,0:0:0:0:
314,107,30191,2,0,B|300:152|300:152|312:204,1,99.9999999999999,2|8,0:0|0:0,0:0:0:0:
276,296,30826,6,0,B|224:288|224:288|176:304,1,99.9999999999999,2|8,0:0|0:0,0:0:0:0:
136,328,31302,1,0,0:0:0:0:
136,328,31461,2,0,P|112:280|112:228,1,99.9999999999999,0|8,0:0|0:0,0:0:0:0:
172,156,32096,2,0,P|192:104|180:52,1,99.9999999999999,2|8,0:0|0:0,0:0:0:0:
224,28,32572,1,0,0:0:0:0:
224,28,32730,2,0,L|324:40,1,99.9999999999999,0|8,0:0|0:0,0:0:0:0:
324,140,33365,6,0,P|296:148|272:148,1,50,2|8,0:0|0:0,0:0:0:0:
228,160,33683,2,0,P|200:152|176:152,1,50,2|12,0:0|0:0,0:0:0:0:
136,176,34000,2,0,P|120:224|128:272,1,99.9999999999999,0|12,0:0|0:0,0:0:0:0:
216,316,34635,2,0,L|324:328,1,99.9999999999999,8|8,0:0|3:0,0:0:0:0:
352,296,35111,1,2,0:0:0:0:
352,296,35270,2,0,P|360:264|360:248,1,50,8|4,3:0|3:0,0:0:0:0:
348,200,35588,1,12,0:0:0:0:
296,116,35905,6,0,L|196:120,1,99.9999999999999,2|2,0:0|0:0,0:0:0:0:
104,160,36540,2,0,P|96:212|116:260,1,99.9999999999999,2|8,0:0|0:0,0:0:0:0:
200,304,37175,2,0,B|256:316|256:316|292:304|292:304|346:311,1,150,2|8,0:0|0:0,0:0:0:0:
384,344,37810,1,2,0:0:0:0:
456,276,38127,1,8,0:0:0:0:
424,180,38445,6,0,L|432:128,1,50,2|2,0:0|0:0,0:0:0:0:
412,84,38762,2,0,P|384:64|364:56,1,50,2|0,0:0|0:0,0:0:0:0:
320,64,39080,1,2,0:0:0:0:
252,136,39397,1,8,0:0:0:0:
152,140,39715,2,0,L|168:292,2,150,2|8|12,0:0|3:0|0:0,0:0:0:0:
84,68,40984,6,0,P|56:112|56:160,1,99.9999999999999,2|2,0:0|0:0,0:0:0:0:
76,256,41619,2,0,L|72:360,1,99.9999999999999,2|8,0:0|0:0,0:0:0:0:
172,352,42254,2,0,B|216:332|268:352|268:352|320:368|368:344,1,200,2|2,0:0|0:0,0:0:0:0:
428,264,43207,1,8,0:0:0:0:
356,192,43524,6,0,L|368:88,2,99.9999999999999,12|2|2,0:0|0:0|0:0,0:0:0:0:
276,252,44476,1,8,0:0:0:0:
192,200,44794,2,0,L|80:204,1,99.9999999999999,8|8,0:0|3:0,0:0:0:0:
44,116,45429,2,0,P|48:72|36:8,1,99.9999999999999,8|12,0:3|0:0,0:0:0:0:
256,192,46064,12,0,47334,1:0:0:0:
176,256,48603,6,0,P|224:256|272:276,1,99.9999999999999,6|8,0:0|0:0,0:0:0:0:
312,308,49080,1,0,0:0:0:0:
312,308,49238,2,0,P|364:316|412:304,1,99.9999999999999,2|8,0:0|0:0,0:0:0:0:
456,216,49873,2,0,L|460:116,1,99.9999999999999,0|8,0:0|0:0,0:0:0:0:
432,72,50349,2,0,P|400:64|372:64,1,50,0|2,0:0|0:0,0:0:0:0:
344,96,50667,2,0,P|312:104|284:104,1,50,2|8,0:0|0:0,0:0:0:0:
252,80,50984,1,0,0:0:0:0:
252,80,51143,6,0,L|248:180,1,99.9999999999999,2|8,0:0|0:0,0:0:0:0:
192,264,51778,2,0,P|140:256|92:272,2,99.9999999999999,2|8|2,0:0|0:0|0:0,0:0:0:0:
272,324,52730,1,2,0:0:0:0:
348,256,53048,2,0,L|448:264,1,99.9999999999999,8|8,0:0|0:0,0:0:0:0:
468,360,53683,6,0,L|368:352,1,99.9999999999999,6|2,0:0|0:0,0:0:0:0:
320,340,54159,2,0,P|272:328|216:340,1,99.9999999999999,12|2,0:0|0:0,0:0:0:0:
176,356,54635,2,0,P|176:304|160:256,1,99.9999999999999,8|8,0:0|3:0,0:0:0:0:
92,188,55270,1,2,0:0:0:0:
160,116,55588,2,0,L|260:120,1,99.9999999999999,0|12,0:0|0:0,0:0:0:0:
220,28,56223,6,0,L|120:24,1,99.9999999999999,2|2,0:0|0:0,0:0:0:0:
72,40,56699,2,0,P|48:88|52:136,1,99.9999999999999,8|2,0:0|0:0,0:0:0:0:
84,172,57175,1,8,0:0:0:0:
168,228,57492,2,0,P|192:240|216:244,1,50,8|8,0:0|0:0,0:0:0:0:
260,220,57810,2,0,P|284:208|308:204,1,50,8|8,0:0|0:0,0:0:0:0:
384,268,58286,1,12,0:0:0:0:
472,148,58762,6,0,L|460:48,1,99.9999999999999,6|8,0:0|0:0,0:0:0:0:
416,24,59238,1,0,0:0:0:0:
416,24,59397,2,0,P|364:20|320:36,1,99.9999999999999,8|8,0:0|0:0,0:0:0:0:
292,132,60032,2,0,B|304:184|304:184|288:228,1,99.9999999999999,2|8,0:0|0:0,0:0:0:0:
239,248,60508,2,0,P|221:264|208:286,1,50,0|2,0:0|0:0,0:0:0:0:
179,328,60826,2,0,P|157:338|132:343,1,50,2|8,0:0|0:0,0:0:0:0:
88,320,61143,1,0,0:0:0:0:
88,320,61302,6,0,L|96:216,1,99.9999999999999,2|8,0:0|0:0,0:0:0:0:
160,144,61937,2,0,P|116:120|68:124,2,99.9999999999999,2|8|2,0:0|0:0|0:0,0:0:0:0:
216,228,62889,1,8,0:0:0:0:
288,296,63207,2,0,P|312:252|308:200,1,99.9999999999999,2|8,0:0|0:0,0:0:0:0:
331,104,63842,6,0,P|405:100|464:144,2,150,6|12|2,0:0|0:0|0:0,0:0:0:0:
236,136,65111,2,0,L|136:120,1,99.9999999999999,2|2,0:0|0:0,0:0:0:0:
124,220,65746,2,0,L|224:236,1,99.9999999999999,2|8,0:0|0:0,0:0:0:0:
263,263,66223,1,2,0:0:0:0:
263,263,66381,6,0,P|328:304|400:288,2,150,12|8|8,0:0|0:0|0:0,0:0:0:0:
344,204,67651,2,0,L|348:152,1,50,0|8,0:0|0:0,0:0:0:0:
324,108,67969,1,2,0:0:0:0:
324,108,68127,2,0,L|224:116,1,99.9999999999999,8|2,0:0|0:0,0:0:0:0:
184,148,68603,1,8,0:0:0:0:
104,208,68921,6,0,P|116:256|108:312,1,99.9999999999999,2|8,0:0|0:0,0:0:0:0:
204,336,69556,2,0,L|308:328,1,99.9999999999999,2|8,0:0|0:0,0:0:0:0:
364,248,70191,2,0,P|352:200|360:144,1,99.9999999999999,2|8,0:0|0:0,0:0:0:0:
356,100,70667,2,0,P|310:80|260:82,1,99.9999999999999,0|2,0:0|0:0,0:0:0:0:
228,120,71143,1,8,0:0:0:0:
256,192,71461,12,2,72730,0:0:0:0:
360,280,74000,5,2,0:0:0:0:
360,280,74159,2,0,L|252:272,1,99.9999999999999,2|2,0:0|0:0,0:0:0:0:
224,240,74635,1,8,0:0:0:0:
236,92,75111,2,0,L|336:100,1,99.9999999999999,2|8,0:0|0:0,0:0:0:0:
420,152,75746,1,2,0:0:0:0:
420,152,75905,2,0,P|432:200|420:252,1,99.9999999999999,8|0,0:0|0:0,0:0:0:0:
332,296,76540,6,0,L|232:288,1,99.9999999999999,6|0,0:0|0:0,0:0:0:0:
184,292,77016,1,2,0:0:0:0:
184,292,77175,2,0,P|152:296|128:296,1,50,8|0,0:0|0:0,0:0:0:0:
88,208,77651,2,0,L|96:104,1,99.9999999999999,2|8,0:0|0:0,0:0:0:0:
184,64,78286,2,0,P|216:64|240:68,1,50,2|2,0:0|0:0,0:0:0:0:
272,96,78603,2,0,P|300:100|328:100,1,50,8|8,0:0|3:0,0:0:0:0:
404,156,79080,6,0,P|376:196|376:248,1,99.9999999999999,6|0,0:0|0:0,0:0:0:0:
400,288,79556,1,2,0:0:0:0:
400,288,79715,2,0,L|300:296,1,99.9999999999999,8|0,0:0|0:0,0:0:0:0:
256,320,80191,1,2,0:0:0:0:
256,320,80349,2,0,B|208:340|208:340|160:328,1,99.9999999999999,0|0,0:0|0:0,0:0:0:0:
108,244,80984,2,0,B|156:224|156:224|204:236,1,99.9999999999999,8|2,0:0|0:0,0:0:0:0:
276,168,81619,6,0,P|272:96|264:52,2,99.9999999999999,8|2|8,0:0|0:0|0:0,0:0:0:0:
300,264,82572,1,2,0:0:0:0:
392,300,82889,2,0,P|400:260|380:204,1,99.9999999999999,2|2,0:0|0:0,0:0:0:0:
364,156,83365,2,0,L|468:144,1,99.9999999999999,8|2,0:0|0:0,0:0:0:0:
492,104,83842,1,8,0:0:0:0:
412,44,84159,6,0,L|308:56,1,99.9999999999999,2|8,1:2|0:0,0:0:0:0:
272,84,84635,1,2,0:0:0:0:
196,152,84953,1,0,0:0:0:0:
112,96,85270,2,0,P|100:124|96:148,2,50,2|0|8,0:0|0:0|0:0,0:0:0:0:
196,152,85905,2,0,L|204:208,1,50,8|8,0:0|0:0,0:0:0:0:
232,244,86223,2,0,P|260:244|288:240,1,50,8|8,0:0|0:0,0:0:0:0:
327,220,86540,1,12,0:0:0:0:
