osu file format v14

[General]
AudioFilename: audio.mp3
AudioLeadIn: 0
PreviewTime: 47016
Countdown: 0
SampleSet: Soft
StackLeniency: 0.7
Mode: 0
LetterboxInBreaks: 0
WidescreenStoryboard: 1

[Editor]
DistanceSpacing: 1.3
BeatDivisor: 4
GridSize: 4
TimelineZoom: 2.5

[Metadata]
Title:Datte Atashi no Hero. -TV ver.-
TitleUnicode:だってアタシのヒーロー。-TV ver.-
Artist:LiSA
ArtistUnicode:LiSA
Creator:Ipas
Version:Hard
Source:僕のヒーローアカデミア
Tags:boku no my hero academia second season ending farel12345 wendao2000 Harez wendao
BeatmapID:1357439
BeatmapSetID:638877

[Difficulty]
HPDrainRate:6
CircleSize:3.5
OverallDifficulty:6
ApproachRate:7.5
SliderMultiplier:1.25
SliderTickRate:1

[Events]
//Background and Video events
Video,-2914,"video.avi"
0,0,"bg.jpg",0,0
//Break Periods
//Storyboard Layer 0 (Background)
//Storyboard Layer 1 (Fail)
//Storyboard Layer 2 (Pass)
//Storyboard Layer 3 (Foreground)
//Storyboard Sound Samples

[TimingPoints]
350,317.460317460317,4,2,1,35,1,0
350,-100,4,1,1,35,0,0
5429,-100,4,2,1,65,0,0
15588,-100,4,2,1,45,0,0
23207,-100,4,2,1,45,0,0
24476,-100,4,2,1,65,0,0
25746,-100,4,2,1,55,0,0
35905,-100,4,2,1,50,0,0
43524,-100,4,2,1,55,0,0
46064,-100,4,2,1,65,0,0
47334,-100,4,2,1,45,0,0
48603,-100,4,2,1,75,0,1
72730,-100,4,2,1,75,0,0
74000,-100,4,2,1,55,0,0
86540,-100,4,2,1,35,0,0

[Colours]
Combo1 : 255,66,66
Combo2 : 0,174,87
Combo3 : 252,204,116
Combo4 : 253,126,0
Combo5 : 0,0,160

[HitObjects]
192,308,350,6,0,P|156:304|128:308,2,62.5,0|0|0,0:0|0:0|0:0,0:0:0:0:
260,352,826,2,0,L|384:344,1,125,0|0,0:0|0:0,0:0:0:0:
448,196,1461,2,0,P|452:160|448:128,1,62.5,0|0,0:0|0:0,0:0:0:0:
388,80,1778,2,0,L|264:88,1,125,0|0,0:0|0:0,0:0:0:0:
196,136,2254,1,0,0:0:0:0:
140,80,2413,2,0,L|76:84,1,62.5,0|0,0:0|0:0,0:0:0:0:
84,248,2889,6,0,B|88:284|88:284|80:312,2,62.5,0|0|0,0:0|0:0|0:0,0:0:0:0:
160,216,3365,2,0,L|288:224,1,125,0|0,0:0|0:0,0:0:0:0:
420,316,4000,2,0,P|440:288|460:268,1,62.5,0|0,0:0|0:0,0:0:0:0:
492,192,4318,2,0,L|367:181,1,125,0|0,0:0|0:0,0:0:0:0:
308,124,4794,1,0,0:0:0:0:
384,92,4953,2,0,P|392:56|388:24,1,62.5,0|0,0:0|0:0,0:0:0:0:
389,30,5429,6,0,L|452:36,1,62.5,6|2,0:0|0:0,0:0:0:0:
312,56,5746,2,0,L|249:50,1,62.5,8|0,0:0|0:0,0:0:0:0:
176,88,6064,2,0,P|184:120|176:152,2,62.5,8|0|2,0:0|0:0|0:0,0:0:0:0:
96,108,6540,1,2,0:0:0:0:
96,108,6699,2,0,L|104:176,1,62.5,2|8,0:0|0:0,0:0:0:0:
180,312,7175,1,2,0:0:0:0:
256,344,7334,1,8,0:0:0:0:
248,264,7492,2,0,L|260:224,2,31.25,2|2|8,0:0|0:0|0:0,0:0:0:0:
408,300,7969,6,0,P|440:288|460:264,1,62.5,6|2,0:0|0:0,0:0:0:0:
392,180,8286,2,0,P|360:192|340:216,1,62.5,8|0,0:0|0:0,0:0:0:0:
320,292,8603,2,0,L|327:354,1,62.5,8|0,0:0|0:0,0:0:0:0:
240,296,8921,2,0,L|248:228,1,62.5,2|2,0:0|0:0,0:0:0:0:
220,156,9238,1,0,0:0:0:0:
220,156,9397,1,8,0:0:0:0:
360,72,9715,1,2,0:0:0:0:
436,96,9873,1,8,0:0:0:0:
376,152,10032,1,2,0:0:0:0:
256,44,10349,1,8,0:0:0:0:
176,40,10508,6,0,P|184:80|204:104,1,62.5,6|2,0:0|0:0,0:0:0:0:
272,124,10826,2,0,L|264:186,1,62.5,8|0,0:0|0:0,0:0:0:0:
168,260,11144,2,0,L|160:197,1,62.5,12|0,0:0|0:0,0:0:0:0:
248,268,11461,1,2,0:0:0:0:
248,268,11619,2,0,P|256:304|260:336,2,62.5,2|2|8,0:0|0:0|0:0,0:0:0:0:
92,224,12254,1,2,0:0:0:0:
124,148,12413,2,0,P|116:112|112:84,1,62.5,8|2,0:0|0:0,0:0:0:0:
160,20,12730,1,8,0:0:0:0:
288,124,13048,5,12,0:0:0:0:
288,124,13207,2,0,L|416:128,1,125,2|8,0:0|0:0,0:0:0:0:
456,196,13683,2,0,P|440:232|436:260,1,62.5,2|2,0:0|0:0,0:0:0:0:
448,336,14000,2,0,L|385:328,1,62.5,8|0,0:0|0:0,0:0:0:0:
308,308,14317,1,8,3:0:0:0:
236,348,14476,2,0,L|200:360,2,31.25,2|2|8,0:0|0:0|0:0,0:0:0:0:
308,308,14794,1,2,0:0:0:0:
280,232,14953,1,8,0:0:0:0:
360,244,15111,1,8,3:0:0:0:
120,296,15588,6,0,P|128:248|112:164,1,125,6|2,0:0|0:0,0:0:0:0:
80,100,16064,1,0,0:0:0:0:
80,100,16223,2,0,P|140:72|204:84,1,125,2|2,0:0|0:0,0:0:0:0:
252,140,16699,1,0,0:0:0:0:
252,139,16857,2,0,P|244:168|246:201,2,62.5,2|0|2,0:0|0:0|0:0,0:0:0:0:
324,176,17334,1,0,0:0:0:0:
384,124,17492,1,2,0:0:0:0:
400,288,17810,1,2,0:0:0:0:
236,296,18127,6,0,L|172:288,1,62.5,2|0,0:0|0:0,0:0:0:0:
96,308,18445,2,0,P|56:324|28:348,1,62.5,0|0,0:0|0:0,0:0:0:0:
12,260,18762,2,0,B|8:216|8:216|20:188|20:188|16:132,1,125,2|2,0:0|0:0,0:0:0:0:
156,52,19397,2,0,P|216:80|280:64,1,125,2|2,0:0|0:0,0:0:0:0:
408,156,20032,1,2,0:0:0:0:
345,243,20191,2,0,L|408:236,1,62.5,8|2,0:0|0:0,0:0:0:0:
484,268,20508,1,0,0:0:0:0:
416,316,20667,6,0,L|292:336,1,125,2|2,0:0|0:0,0:0:0:0:
232,280,21143,1,0,0:0:0:0:
232,280,21302,2,0,L|244:216,2,62.5,2|0|8,0:0|0:0|3:0,0:0:0:0:
172,332,21778,1,0,0:0:0:0:
104,284,21937,2,0,P|73:280|41:279,1,62.5,2|0,0:0|0:0,0:0:0:0:
172,332,22254,1,2,0:0:0:0:
232,280,22413,2,0,B|212:240|212:240|224:152,1,125,0|8,0:0|3:0,0:0:0:0:
268,92,22889,1,12,0:0:0:0:
396,192,23207,6,0,P|420:252|400:312,1,125,6|0,0:0|0:0,0:0:0:0:
324,312,23683,2,0,B|260:296|260:296|204:316,1,125,6|0,0:0|0:0,0:0:0:0:
132,352,24159,2,0,L|128:288,1,62.5,2|2,0:0|0:0,0:0:0:0:
120,168,24477,1,8,0:0:0:0:
184,220,24635,1,8,0:0:0:0:
232,152,24794,1,8,0:0:0:0:
172,100,24953,1,8,0:0:0:0:
396,252,25746,6,0,P|401:191|360:144,2,125,6|8|0,0:0|0:0|0:0,0:0:0:0:
376,332,26540,1,2,0:0:0:0:
296,328,26699,2,0,P|256:320|220:316,1,62.5,8|0,0:0|0:0,0:0:0:0:
156,332,27016,1,2,0:0:0:0:
80,356,27175,1,0,0:0:0:0:
96,276,27334,2,0,L|88:212,1,62.5,8|0,0:0|0:0,0:0:0:0:
208,184,27651,2,0,L|200:246,1,62.5,0|0,0:0|0:0,0:0:0:0:
136,144,27969,1,8,0:0:0:0:
288,88,28286,6,0,P|320:88|352:100,1,62.5,2|0,0:0|0:0,0:0:0:0:
428,120,28604,2,0,P|424:88|424:56,1,62.5,8|0,0:0|0:0,0:0:0:0:
504,68,28921,2,0,P|508:128|500:196,2,125,0|8|2,0:0|0:0|0:0,0:0:0:0:
344,36,29873,1,8,0:0:0:0:
260,176,30191,2,0,L|267:238,1,62.5,0|2,0:0|0:0,0:0:0:0:
336,340,30508,1,8,0:0:0:0:
340,260,30666,1,0,0:0:0:0:
408,308,30826,6,0,P|460:304|504:248,1,125,2|8,0:0|0:0,0:0:0:0:
424,228,31302,1,0,0:0:0:0:
480,168,31461,2,0,L|468:40,2,125,0|8|2,0:0|0:0|0:0,0:0:0:0:
424,228,32254,1,0,0:0:0:0:
368,172,32413,2,0,P|332:168|304:172,1,62.5,8|0,0:0|0:0,0:0:0:0:
238,252,32731,2,0,P|269:256|300:252,1,62.5,0|2,0:0|0:0,0:0:0:0:
228,172,33048,2,0,P|197:167|166:171,1,62.5,8|0,0:0|0:0,0:0:0:0:
108,228,33365,5,2,0:0:0:0:
64,160,33524,1,8,0:0:0:0:
108,92,33683,2,0,L|172:88,1,62.5,2|12,0:0|0:0,0:0:0:0:
240,44,34000,1,0,0:0:0:0:
304,96,34159,2,0,L|340:92,2,31.25,2|2|12,0:0|0:0|0:0,0:0:0:0:
180,204,34635,2,0,L|188:268,1,62.5,8|2,0:0|0:0,0:0:0:0:
268,272,34953,2,0,L|260:208,1,62.5,8|2,3:0|0:0,0:0:0:0:
340,196,35270,2,0,L|347:258,1,62.5,8|4,3:0|3:0,0:0:0:0:
400,140,35588,1,12,0:0:0:0:
400,140,35905,6,0,P|344:112|284:132,1,125,2|2,0:0|0:0,0:0:0:0:
216,168,36381,1,8,0:0:0:0:
216,168,36540,2,0,L|196:40,1,125,2|8,0:0|0:0,0:0:0:0:
144,200,37175,2,0,P|187:242|248:240,1,125,2|2,0:0|0:0,0:0:0:0:
304,180,37651,1,8,0:0:0:0:
304,180,37810,2,0,B|376:164|352:204|428:184,1,125,2|8,0:0|0:0,0:0:0:0:
436,348,38445,6,0,P|400:340|368:340,1,62.5,2|2,0:0|0:0,0:0:0:0:
292,352,38763,2,0,P|256:360|224:360,1,62.5,2|0,0:0|0:0,0:0:0:0:
168,308,39080,2,0,P|104:304|48:340,1,125,2|8,0:0|0:0,0:0:0:0:
12,264,39556,2,0,L|16:196,1,62.5,0|2,0:0|0:0,0:0:0:0:
24,80,39874,1,12,0:0:0:0:
72,144,40032,2,0,P|112:140|136:140,1,62.5,4|8,0:0|3:0,0:0:0:0:
204,184,40349,1,4,3:0:0:0:
260,124,40508,1,2,0:0:0:0:
256,44,40667,1,12,0:0:0:0:
256,44,40984,6,0,B|304:48|304:48|336:40|336:40|380:44,1,125,2|2,0:0|0:0,0:0:0:0:
440,100,41461,1,8,0:0:0:0:
440,100,41619,2,0,P|424:128|416:160,1,62.5,2|8,0:0|0:0,0:0:0:0:
440,236,41937,1,8,0:0:0:0:
332,356,42254,2,0,P|272:328|208:336,1,125,2|2,0:0|0:0,0:0:0:0:
160,272,42730,1,8,0:0:0:0:
220,216,42889,2,0,L|288:204,1,62.5,2|0,0:0|0:0,0:0:0:0:
160,272,43207,2,0,L|92:284,1,62.5,8|0,0:0|0:0,0:0:0:0:
48,220,43524,5,12,0:0:0:0:
84,148,43683,2,0,L|72:84,2,62.5,0|2|2,0:0|0:0|0:0,0:0:0:0:
160,180,44159,2,0,P|184:160|212:148,1,62.5,2|0,0:0|0:0,0:0:0:0:
332,135,44476,2,0,P|303:123|279:103,1,62.5,8|0,0:0|0:0,0:0:0:0:
412,120,44794,2,0,L|396:184,1,62.5,8|0,0:0|0:0,0:0:0:0:
428,256,45111,2,0,P|432:288|428:320,1,62.5,8|0,3:0|0:0,0:0:0:0:
268,300,45429,1,8,3:0:0:0:
344,276,45588,1,0,0:0:0:0:
360,356,45746,1,12,0:0:0:0:
196,360,46064,6,0,P|168:344|140:336,1,62.5,12|0,0:0|0:0,0:0:0:0:
80,280,46382,2,0,P|108:264|136:256,1,62.5,8|0,0:0|0:0,0:0:0:0:
212,224,46699,1,8,0:0:0:0:
212,224,46857,1,8,0:0:0:0:
264,160,47016,2,0,L|252:96,2,62.5,8|12|0,0:0|0:0|1:0,0:0:0:0:
332,200,47492,1,0,1:0:0:0:
332,200,47969,5,8,3:0:0:0:
400,240,48127,2,0,L|440:232,5,31.25,8|2|8|2|8|2,0:0|0:0|0:0|0:0|0:0|0:0,0:0:0:0:
464,212,48603,6,0,P|472:144|444:96,1,125,6|8,0:0|0:0,0:0:0:0:
368,68,49080,1,0,0:0:0:0:
368,68,49159,1,8,0:0:0:0:
368,68,49238,2,0,P|308:84|244:64,1,125,2|8,0:0|0:0,0:0:0:0:
176,36,49715,1,0,0:0:0:0:
152,112,49873,2,0,L|176:236,2,125,0|8|2,0:0|0:0|0:0,0:0:0:0:
76,140,50667,2,0,L|88:204,1,62.5,2|8,0:0|0:0,0:0:0:0:
100,284,50984,1,0,0:0:0:0:
180,304,51143,6,0,P|236:272|312:252,1,125,2|8,0:0|0:0,0:0:0:0:
376,260,51619,1,0,0:0:0:0:
456,252,51778,2,0,L|460:184,1,62.5,2|2,0:0|0:0,0:0:0:0:
376,260,52095,2,0,L|380:328,1,62.5,8|0,0:0|0:0,0:0:0:0:
308,364,52413,1,2,0:0:0:0:
244,312,52572,2,0,L|208:320,2,31.25,8|8|2,0:0|0:0|0:0,0:0:0:0:
276,236,52889,1,8,0:0:0:0:
276,236,52969,1,8,0:0:0:0:
276,236,53048,2,0,P|272:196|264:160,1,62.5,8|4,0:0|3:0,0:0:0:0:
224,104,53365,1,8,0:0:0:0:
68,148,53683,6,0,P|80:196|76:280,1,125,6|2,0:0|0:0,0:0:0:0:
144,320,54159,2,0,P|192:308|276:312,1,125,12|2,0:0|0:0,0:0:0:0:
340,344,54635,1,8,0:0:0:0:
432,208,54953,2,0,L|424:140,2,62.5,8|2|2,3:0|0:0|0:0,0:0:0:0:
352,188,55429,1,8,0:0:0:0:
356,108,55588,2,0,P|380:84|408:72,1,62.5,0|2,0:0|0:0,0:0:0:0:
352,188,55905,2,0,L|288:184,1,62.5,12|0,0:0|0:0,0:0:0:0:
276,264,56223,6,0,L|404:268,1,125,2|2,0:0|0:0,0:0:0:0:
460,324,56699,2,0,P|484:264|456:212,1,125,8|2,0:0|0:0,0:0:0:0:
408,152,57175,1,8,0:0:0:0:
268,72,57492,1,8,0:0:0:0:
192,48,57651,1,8,0:0:0:0:
164,124,57810,1,8,0:0:0:0:
240,148,57969,2,0,P|200:196|136:200,1,125,8|12,0:0|0:0,0:0:0:0:
80,256,58445,2,0,L|60:224,3,31.25,2|2|8|8,0:0|0:0|0:0|0:0,0:0:0:0:
48,192,58762,6,0,L|56:64,1,125,6|8,0:0|0:0,0:0:0:0:
128,32,59238,1,0,0:0:0:0:
128,32,59318,1,8,0:0:0:0:
128,32,59397,2,0,P|192:32|248:64,1,125,2|8,0:0|0:0,0:0:0:0:
248,140,59873,1,0,0:0:0:0:
316,96,60032,2,0,B|360:88|360:88|392:96|392:96|440:88,2,125,2|8|2,0:0|0:0|0:0,0:0:0:0:
356,168,60826,2,0,B|388:176|388:176|424:168,1,62.5,2|8,0:0|0:0,0:0:0:0:
448,244,61143,1,0,0:0:0:0:
448,328,61302,6,0,L|324:316,1,125,2|8,0:0|0:0,0:0:0:0:
256,272,61778,1,0,0:0:0:0:
188,228,61937,2,0,P|184:192|188:160,1,62.5,2|2,0:0|0:0,0:0:0:0:
256,272,62254,2,0,L|252:336,1,62.5,8|0,0:0|0:0,0:0:0:0:
176,368,62572,1,2,0:0:0:0:
104,332,62730,2,0,L|72:344,2,31.25,0|2|8,0:0|0:0|0:0,0:0:0:0:
136,256,63048,1,8,0:0:0:0:
136,256,63207,2,0,P|136:224|128:192,1,62.5,2|8,0:0|0:0,0:0:0:0:
96,120,63524,2,0,L|100:80,3,31.25,8|8|8|8,0:0|0:0|0:0|0:0,0:0:0:0:
116,52,63842,6,0,L|240:60,1,125,6|2,0:0|0:0,0:0:0:0:
299,111,64318,2,0,P|313:172|290:229,1,125,12|0,0:0|0:0,0:0:0:0:
220,272,64794,1,2,0:0:0:0:
360,352,65111,2,0,P|392:356|424:352,2,62.5,2|12|2,0:0|0:0|0:0,0:0:0:0:
308,288,65588,1,8,3:0:0:0:
375,244,65746,2,0,P|383:213|381:182,1,62.5,2|0,0:0|0:0,0:0:0:0:
308,288,66064,2,0,L|244:292,1,62.5,12|2,0:0|0:0,0:0:0:0:
180,340,66381,6,0,P|164:280|192:228,1,125,12|2,0:0|0:0,0:0:0:0:
256,176,66857,2,0,B|324:200|316:160|380:180,1,125,8|0,0:0|0:0,0:0:0:0:
428,244,67334,1,8,0:0:0:0:
424,80,67651,2,0,L|488:88,2,62.5,0|8|2,0:0|0:0|0:0,0:0:0:0:
348,48,68128,2,0,L|284:40,2,62.5,8|2|2,0:0|0:0|0:0,0:0:0:0:
364,128,68603,1,8,0:0:0:0:
356,292,68921,6,0,P|296:275|238:295,2,125,2|8|2,0:0|0:0|0:0,0:0:0:0:
416,348,69715,1,2,0:0:0:0:
432,268,69873,2,0,L|440:204,1,62.5,8|0,0:0|0:0,0:0:0:0:
432,124,70191,2,0,B|388:116|388:116|352:120|352:120|308:112,1,125,2|8,0:0|0:0,0:0:0:0:
232,140,70667,2,0,P|248:200|220:256,1,125,0|2,0:0|0:0,0:0:0:0:
141,326,71143,2,0,P|137:295|140:264,1,62.5,8|0,0:0|0:0,0:0:0:0:
112,188,71461,5,8,0:0:0:0:
152,120,71619,1,8,0:0:0:0:
232,140,71778,2,0,P|268:148|300:148,1,62.5,8|8,0:0|0:0,0:0:0:0:
364,188,72096,1,8,0:0:0:0:
348,268,72254,1,8,0:0:0:0:
428,284,72413,1,8,0:0:0:0:
444,204,72572,1,8,0:0:0:0:
412,128,72730,6,0,L|400:64,1,62.5,2|2,0:0|0:0,0:0:0:0:
320,56,73048,2,0,L|332:120,1,62.5,8|2,3:0|0:0,0:0:0:0:
364,188,73365,1,8,3:0:0:0:
364,188,73524,1,2,0:0:0:0:
308,248,73683,2,0,P|277:239|246:236,1,62.5,12|0,0:0|0:0,0:0:0:0:
180,284,74000,5,2,0:0:0:0:
180,284,74159,2,0,P|120:300|60:272,1,125,2|2,0:0|0:0,0:0:0:0:
40,200,74635,1,8,0:0:0:0:
40,200,74794,2,0,P|64:140|48:76,1,125,0|2,0:0|0:0,0:0:0:0:
104,20,75270,1,2,0:0:0:0:
104,20,75429,1,8,0:0:0:0:
224,128,75746,2,0,L|288:120,1,62.5,2|8,0:0|0:0,0:0:0:0:
368,128,76064,2,0,P|352:188|372:248,1,125,0|0,0:0|0:0,0:0:0:0:
436,292,76540,5,6,0:0:0:0:
436,292,76699,2,0,B|396:288|396:288|360:296|360:296|312:292,1,125,8|2,0:0|0:0,0:0:0:0:
256,352,77175,1,8,0:0:0:0:
256,352,77334,2,0,L|264:228,1,125,0|2,0:0|0:0,0:0:0:0:
228,152,77810,1,2,0:0:0:0:
228,152,77969,1,8,0:0:0:0:
96,59,78286,2,0,P|95:91|99:122,1,62.5,2|2,0:0|0:0,0:0:0:0:
227,152,78604,2,0,P|228:120|224:89,1,62.5,8|8,0:0|3:0,0:0:0:0:
224,89,79080,6,0,P|288:88|352:188,1,187.5,6|2,0:0|0:0,0:0:0:0:
340,264,79715,2,0,B|236:228|272:300|156:260,1,187.5,8|2,0:0|0:0,0:0:0:0:
116,192,80349,2,0,L|128:68,2,125,0|0|8,0:0|0:0|0:0,0:0:0:0:
204,328,81302,1,2,0:0:0:0:
364,348,81619,2,0,B|404:308|396:248|396:248|432:268|472:256,1,187.5,8|0,0:0|0:0,0:0:0:0:
444,180,82254,2,0,P|440:144|444:112,1,62.5,8|0,0:0|0:0,0:0:0:0:
408,44,82572,2,0,L|340:56,1,62.5,2|0,0:0|0:0,0:0:0:0:
304,124,82889,2,0,L|180:112,1,125,2|2,0:0|0:0,0:0:0:0:
120,60,83365,1,8,0:0:0:0:
108,224,83683,1,2,0:0:0:0:
156,288,83842,2,0,P|188:280|220:280,1,62.5,8|0,0:0|1:0,0:0:0:0:
292,312,84159,6,0,L|356:316,2,62.5,2|2|8,1:2|0:0|0:0,0:0:0:0:
296,232,84635,2,0,L|424:240,1,125,2|0,0:0|0:0,0:0:0:0:
416,76,85270,1,2,0:0:0:0:
340,108,85429,1,0,0:0:0:0:
352,28,85588,1,8,0:0:0:0:
196,76,85905,1,8,0:0:0:0:
196,156,86064,1,8,0:0:0:0:
124,116,86223,1,8,0:0:0:0:
128,196,86381,1,8,0:0:0:0:
56,156,86540,6,0,P|52:224|148:276,1,187.5,12|0,0:0|0:0,0:0:0:0:
