osu file format v14

[General]
AudioFilename: audio.mp3
AudioLeadIn: 0
PreviewTime: 47016
Countdown: 0
SampleSet: Soft
StackLeniency: 0.7
Mode: 0
LetterboxInBreaks: 0
WidescreenStoryboard: 0

[Editor]
DistanceSpacing: 1
BeatDivisor: 4
GridSize: 4
TimelineZoom: 3.799999

[Metadata]
Title:Datte Atashi no Hero. -TV ver.-
TitleUnicode:だってアタシのヒーロー。-TV ver.-
Artist:LiSA
ArtistUnicode:LiSA
Creator:Ipas
Version:Extra
Source:僕のヒーローアカデミア
Tags:boku no my hero academia second season ending farel12345 wendao2000 Harez wendao
BeatmapID:1355092
BeatmapSetID:638877

[Difficulty]
HPDrainRate:6.5
CircleSize:4.3
OverallDifficulty:8.5
ApproachRate:9.3
SliderMultiplier:2
SliderTickRate:1

[Events]
//Background and Video events
Video,-2914,"video.avi"
0,0,"bg.jpg",0,0
//Break Periods
//Storyboard Layer 0 (Background)
//Storyboard Layer 1 (Fail)
//Storyboard Layer 2 (Pass)
//Storyboard Layer 3 (Foreground)
//Storyboard Sound Samples

[TimingPoints]
350,317.460317460317,4,2,1,35,1,0
350,-117.647058823529,4,1,1,45,0,0
5429,-100,4,2,1,65,0,0
15111,-200,4,2,1,65,0,0
15588,-117.647058823529,4,2,1,45,0,0
24476,-117.647058823529,4,2,1,65,0,0
25746,-100,4,2,1,55,0,0
35905,-117.647058823529,4,2,1,50,0,0
43524,-100,4,2,1,55,0,0
46064,-100,4,2,1,65,0,0
47334,-100,4,2,1,45,0,0
48603,-83.3333333333333,4,2,1,75,0,1
72730,-83.3333333333333,4,2,1,75,0,0
74000,-100,4,2,1,55,0,0
86540,-200,4,2,1,35,0,0

[Colours]
Combo1 : 255,66,66
Combo2 : 0,174,87
Combo3 : 252,204,116
Combo4 : 253,126,0
Combo5 : 0,0,160

[HitObjects]
44,220,350,5,0,0:0:0:0:
112,336,508,1,0,0:0:0:0:
140,232,667,1,0,0:0:0:0:
8,320,826,2,0,B|56:312|56:312|116:328|116:328|176:316,2,170.000003242493
44,220,1619,1,0,0:0:0:0:
100,360,1778,1,0,0:0:0:0:
229,148,2096,1,0,0:0:0:0:
201,232,2254,1,0,0:0:0:0:
173,316,2413,1,0,0:0:0:0:
173,316,2492,1,0,0:0:0:0:
173,316,2572,1,0,0:0:0:0:
144,68,2889,5,0,0:0:0:0:
120,180,3048,1,0,0:0:0:0:
48,104,3207,1,0,0:0:0:0:
220,144,3365,2,0,B|260:164|304:144|304:144|340:124|384:142,1,170.000003242493
400,156,4000,2,0,L|392:68,1,85.0000016212464
484,256,4318,2,0,B|440:272|400:252|400:252|364:232|319:250,1,170.000003242493
280,336,4794,1,0,0:0:0:0:
152,284,4953,2,0,P|156:264|160:256,10,21.2500004053116
152,284,5429,6,0,P|148:212|136:168,1,100,6|2,0:0|0:0,0:0:0:0:
280,336,5747,2,0,P|284:264|296:220,1,100,8|0,0:0|0:0,0:0:0:0:
232,132,6064,1,8,0:0:0:0:
408,252,6223,2,0,L|508:236,2,100,0|2|2,0:0|0:0|0:0,0:0:0:0:
172,316,6699,2,0,L|180:212,1,100,2|8,0:0|0:0,0:0:0:0:
179,216,7175,1,2,0:0:0:0:
320,316,7334,1,8,0:0:0:0:
304,80,7492,1,2,0:0:0:0:
300,104,7572,1,2,0:0:0:0:
296,128,7651,2,0,L|400:116,1,100,8|0,0:0|0:0,0:0:0:0:
144,220,7969,6,0,L|44:232,1,100,6|0,0:0|0:0,0:0:0:0:
128,56,8285,1,8,0:0:0:0:
128,56,8444,1,0,0:0:0:0:
272,212,8603,2,0,P|280:264|288:328,1,100,8|0,0:0|0:0,0:0:0:0:
204,360,8921,1,2,0:0:0:0:
396,164,9080,2,0,L|380:264,2,100,2|0|8,0:0|0:0|0:0,0:0:0:0:
360,80,9556,1,0,0:0:0:0:
360,80,9715,1,2,0:0:0:0:
472,234,9873,2,0,P|432:258|380:262,1,100,8|2,0:0|0:0,0:0:0:0:
124,232,10191,2,0,P|164:208|216:204,1,100,2|8,0:0|0:0,0:0:0:0:
44,336,10508,5,6,0:0:0:0:
24,236,10667,1,2,0:0:0:0:
152,328,10826,2,0,P|208:316|252:308,1,100,8|0,0:0|0:0,0:0:0:0:
432,360,11143,1,12,0:0:0:0:
360,196,11302,2,0,B|372:248|372:248|364:296,1,100,0|2,0:0|0:0,0:0:0:0:
268,156,11619,1,2,0:0:0:0:
460,92,11778,2,0,P|460:141|456:191,1,100,2|8,0:0|0:0,0:0:0:0:
456,191,12254,1,2,0:0:0:0:
288,256,12413,1,8,0:0:0:0:
480,332,12572,1,2,0:0:0:0:
480,332,12651,1,2,0:0:0:0:
480,332,12730,2,0,B|392:312|428:356|332:333,1,150,8|0,0:0|0:0,0:0:0:0:
276,376,13048,6,0,B|288:328|288:328|272:280,1,100,12|2,0:0|0:0,0:0:0:0:
140,132,13365,1,0,0:0:0:0:
100,344,13524,2,0,P|108:284|116:240,1,100,8|2,0:0|0:0,0:0:0:0:
232,132,13842,1,2,0:0:0:0:
40,180,14000,1,8,0:0:0:0:
72,84,14159,1,0,0:0:0:0:
216,292,14318,1,8,3:0:0:0:
304,156,14476,1,2,0:0:0:0:
268,144,14556,1,2,0:0:0:0:
232,132,14635,1,8,0:0:0:0:
420,336,14794,1,2,0:0:0:0:
480,176,14953,1,8,0:0:0:0:
285,328,15111,6,0,P|281:265|283:203,1,125,8|0,3:0|0:0,0:0:0:0:
324,140,15588,5,6,0:0:0:0:
64,220,15905,2,0,P|104:232|152:224,1,85.0000016212464,2|0,0:0|0:0,0:0:0:0:
224,336,16223,2,0,L|232:252,2,85.0000016212464,2|0|2,0:0|0:0|0:0,0:0:0:0:
320,300,16699,1,0,0:0:0:0:
116,360,16857,2,0,L|124:276,1,85.0000016212464,2|0,0:0|0:0,0:0:0:0:
264,208,17175,1,2,0:0:0:0:
320,300,17334,1,0,0:0:0:0:
472,240,17492,2,0,L|384:232,1,85.0000016212464,2|0,0:0|0:0,0:0:0:0:
208,304,17810,2,0,L|296:312,1,85.0000016212464,2|0,0:0|0:0,0:0:0:0:
408,140,18127,5,2,0:0:0:0:
376,288,18286,1,0,0:0:0:0:
456,228,18445,1,0,0:0:0:0:
400,384,18603,1,0,0:0:0:0:
456,228,18762,2,0,L|440:144,1,85.0000016212464,2|0,0:0|0:0,0:0:0:0:
280,284,19080,2,0,L|296:368,1,85.0000016212464,2|0,0:0|0:0,0:0:0:0:
440,144,19397,1,2,0:0:0:0:
280,284,19715,1,2,0:0:0:0:
296,72,20032,1,2,0:0:0:0:
396,244,20191,1,8,0:0:0:0:
416,112,20349,1,2,0:0:0:0:
488,192,20508,1,0,0:0:0:0:
320,164,20667,6,0,B|276:148|240:164|240:164|200:180|152:160,1,170.000003242493,2|2,0:0|0:0,0:0:0:0:
112,76,21143,1,0,0:0:0:0:
72,200,21302,2,0,L|80:296,1,85.0000016212464,2|0,0:0|0:0,0:0:0:0:
112,76,21619,1,8,3:0:0:0:
256,216,21778,1,0,0:0:0:0:
255,216,21937,2,0,P|220:238|178:247,1,85.0000016212464,2|0,0:0|0:0,0:0:0:0:
348,260,22254,2,0,L|356:348,1,85.0000016212464,2|0,0:0|0:0,0:0:0:0:
380,184,22572,1,2,0:0:0:0:
178,247,22730,1,8,3:0:0:0:
120,40,22889,1,12,0:0:0:0:
120,40,23207,5,6,0:0:0:0:
40,192,23365,2,0,P|35:149|28:107,1,85.0000016212464,4|0,0:0|0:0,0:0:0:0:
144,232,23683,1,6,0:0:0:0:
240,360,23842,2,0,P|244:317|251:275,1,85.0000016212464,4|0,0:0|0:0,0:0:0:0:
144,232,24159,1,2,0:0:0:0:
144,232,24318,1,2,0:0:0:0:
376,360,24476,5,0,0:0:0:0:
247,155,24635,1,8,0:0:0:0:
120,360,24794,1,8,0:0:0:0:
44,152,24953,6,0,B|100:128|144:156|144:156|188:184|247:155,1,212.500004053116,8|0,0:0|0:0,0:0:0:0:
296,96,25429,1,8,3:0:0:0:
292,132,25508,1,2,0:0:0:0:
288,168,25588,1,8,0:0:0:0:
284,204,25667,1,8,0:0:0:0:
280,244,25746,5,6,0:0:0:0:
24,148,26064,2,0,P|32:200|36:248,1,100,8|0,0:0|0:0,0:0:0:0:
132,352,26381,2,0,B|180:332|180:332|228:340,1,100,0|2,0:0|0:0,0:0:0:0:
408,232,26699,1,8,0:0:0:0:
360,336,26857,1,0,0:0:0:0:
224,216,27016,1,2,0:0:0:0:
328,156,27175,1,0,0:0:0:0:
240,324,27334,2,0,P|184:316|128:316,1,100,8|0,0:0|0:0,0:0:0:0:
20,192,27651,2,0,B|84:200|84:200|144:188|144:188|224:196,2,200,0|8|2,0:0|0:0|0:0,0:0:0:0:
80,88,28445,5,0,0:0:0:0:
124,280,28603,1,8,0:0:0:0:
232,104,28762,1,0,0:0:0:0:
20,192,28921,2,0,L|28:292,1,100,0|2,0:0|0:0,0:0:0:0:
236,324,29239,2,0,L|244:224,1,100,8|0,0:0|0:0,0:0:0:0:
328,80,29556,2,0,B|400:96|400:96|476:72|476:72|452:112,2,200,2|8|0,0:0|0:0|0:0,0:0:0:0:
152,116,30349,1,2,0:0:0:0:
304,232,30508,1,8,0:0:0:0:
260,132,30667,1,0,0:0:0:0:
92,276,30826,6,0,B|156:312|212:264|212:264|220:300|260:316,1,200,2|8,0:0|0:0,0:0:0:0:
408,196,31302,2,0,P|400:136|388:80,2,100,0|0|2,0:0|0:0|0:0,0:0:0:0:
256,314,31778,2,0,B|292:306|292:306|320:314|320:314|356:306,1,100,8|0,0:0|0:0,0:0:0:0:
468,116,32096,2,0,P|364:128|320:204,1,200,2|8,0:0|0:0,0:0:0:0:
372,360,32572,1,0,0:0:0:0:
420,224,32730,1,0,0:0:0:0:
232,40,32889,1,2,0:0:0:0:
248,184,33048,1,8,0:0:0:0:
248,184,33365,6,0,P|256:236|260:292,1,100,2|8,0:0|0:0,0:0:0:0:
104,100,33683,2,0,P|98:152|87:207,1,100,2|12,0:0|0:0,0:0:0:0:
148,368,34000,1,0,0:0:0:0:
416,296,34159,1,2,0:0:0:0:
428,308,34238,1,2,0:0:0:0:
440,320,34318,2,0,B|468:272|468:272|452:176,1,150,12|0,0:0|0:0,0:0:0:0:
420,156,34635,6,0,L|520:136,1,100,8|2,0:0|0:0,0:0:0:0:
316,112,34953,1,8,3:0:0:0:
200,264,35111,1,2,0:0:0:0:
232,52,35270,1,8,3:0:0:0:
304,236,35429,1,4,3:0:0:0:
72,136,35588,2,0,P|80:80|88:36,1,100,12|0,0:0|0:0,0:0:0:0:
199,263,35905,6,0,P|199:305|196:348,1,85.0000016212464,2|2,0:0|0:0,0:0:0:0:
272,176,36223,2,0,L|360:164,1,85.0000016212464,2|8,0:0|0:0,0:0:0:0:
440,288,36540,2,0,L|352:300,1,85.0000016212464,2|2,0:0|0:0,0:0:0:0:
476,196,36857,2,0,P|460:124|472:64,1,127.50000243187,8|0,0:0|0:0,0:0:0:0:
440,56,37175,2,0,B|400:72|400:72|356:64,1,85.0000016212464,2|2,0:0|0:0,0:0:0:0:
168,124,37492,2,0,B|209:116|209:116|249:132,1,85.0000016212464,2|8,0:0|0:0,0:0:0:0:
372,264,37810,2,0,P|336:284|292:284,1,85.0000016212464,2|2,0:0|0:0,0:0:0:0:
104,360,38128,2,0,P|140:340|184:340,1,85.0000016212464,8|0,0:0|0:0,0:0:0:0:
364,360,38445,5,2,0:0:0:0:
340,268,38603,1,2,0:0:0:0:
316,176,38762,1,2,0:0:0:0:
440,40,38921,1,0,0:0:0:0:
367,95,39080,2,0,P|398:122|439:132,1,85.0000016212464,2|2,0:0|0:0,0:0:0:0:
280,12,39397,2,0,L|268:96,1,85.0000016212464,8|0,0:0|0:0,0:0:0:0:
244,256,39715,5,2,0:0:0:0:
176,124,39873,1,12,0:0:0:0:
144,216,40032,1,4,0:0:0:0:
232,368,40191,1,8,3:0:0:0:
216,272,40349,1,4,3:0:0:0:
140,336,40508,1,2,0:0:0:0:
308,304,40667,2,0,B|380:284|352:328|432:305,1,127.50000243187,12|0,0:0|0:0,0:0:0:0:
456,328,40984,6,0,L|452:240,1,85.0000016212464,2|2,0:0|0:0,0:0:0:0:
360,136,41302,2,0,L|364:224,1,85.0000016212464,2|8,0:0|0:0,0:0:0:0:
436,76,41619,2,0,B|404:48|404:48|356:40,1,85.0000016212464,2|8,0:0|0:0,0:0:0:0:
272,160,41937,2,0,L|276:292,1,127.50000243187,8|0,0:0|0:0,0:0:0:0:
288,316,42254,2,0,P|249:299|206:299,1,85.0000016212464,2|2,0:0|0:0,0:0:0:0:
72,356,42572,2,0,P|80:304|80:256,1,85.0000016212464,2|8,0:0|0:0,0:0:0:0:
72,252,42810,1,2,0:0:0:0:
60,236,42889,2,0,L|68:148,1,85.0000016212464,2|0,0:0|0:0,0:0:0:0:
196,56,43207,2,0,L|204:144,1,85.0000016212464,8|0,0:0|0:0,0:0:0:0:
376,348,43524,5,12,0:0:0:0:
480,164,43683,2,0,P|476:212|476:268,1,100,0|2,0:0|0:0,0:0:0:0:
396,60,44000,1,2,0:0:0:0:
248,228,44159,2,0,L|348:216,1,100,2|0,0:0|0:0,0:0:0:0:
152,128,44476,2,0,L|52:116,1,100,8|0,0:0|0:0,0:0:0:0:
176,368,44794,2,0,P|168:308|156:264,1,100,8|0,0:0|0:0,0:0:0:0:
52,116,45111,1,8,3:0:0:0:
248,56,45270,1,0,0:0:0:0:
392,204,45429,2,0,P|379:252|373:302,1,100,8|0,3:0|0:0,0:0:0:0:
176,168,45746,1,12,0:0:0:0:
176,168,46064,5,12,0:0:0:0:
392,204,46223,1,0,0:0:0:0:
196,264,46381,1,8,0:0:0:0:
216,52,46540,1,0,0:0:0:0:
44,204,46699,1,8,0:0:0:0:
316,100,46857,1,8,0:0:0:0:
232,364,47016,1,8,0:0:0:0:
224,160,47175,1,12,0:0:0:0:
472,256,47334,5,0,1:0:0:0:
400,360,47492,1,0,1:0:0:0:
400,360,47810,1,0,1:0:0:0:
184,124,47969,1,8,3:0:0:0:
180,160,48048,1,2,0:0:0:0:
176,196,48127,1,8,0:0:0:0:
172,228,48207,1,2,0:0:0:0:
168,264,48286,2,0,P|192:272|220:272,1,50,8|2,0:0|0:0,0:0:0:0:
344,108,48445,2,0,P|327:89|302:75,1,50,8|2,0:0|0:0,0:0:0:0:
64,96,48603,6,0,L|56:340,1,239.999992675781,6|8,0:0|0:0,0:0:0:0:
288,328,49080,1,0,0:0:0:0:
280,308,49159,1,8,0:0:0:0:
268,288,49238,2,0,P|208:264|152:264,1,119.999996337891,2|2,0:0|0:0,0:0:0:0:
370,245,49556,2,0,B|362:205|362:205|370:173|370:173|358:125,1,119.999996337891,8|0,0:0|0:0,0:0:0:0:
392,356,49873,2,0,P|369:246|470:199,1,239.999992675781,0|8,0:0|0:0,0:0:0:0:
244,276,50349,2,0,P|252:220|284:164,2,119.999996337891,0|2|2,0:0|0:0|0:0,0:0:0:0:
300,376,50826,1,8,0:0:0:0:
164,232,50984,1,0,0:0:0:0:
364,208,51143,5,2,0:0:0:0:
364,208,51302,1,2,0:0:0:0:
199,88,51461,2,0,P|240:152|280:88,1,179.999994506836,8|0,0:0|0:0,0:0:0:0:
304,60,51778,2,0,B|300:120|300:120|324:176,1,119.999996337891,2|2,0:0|0:0,0:0:0:0:
60,280,52096,2,0,B|104:240|96:156|96:156|113:198,1,179.999994506836,8|0,0:0|0:0,0:0:0:0:
136,220,52413,2,0,B|120:160|120:160|132:100,1,119.999996337891,2|8,0:0|0:0,0:0:0:0:
120,84,52651,1,8,0:0:0:0:
108,64,52730,1,2,0:0:0:0:
456,212,52889,1,8,0:0:0:0:
424,176,52969,1,8,0:0:0:0:
376,168,53048,1,8,0:0:0:0:
332,184,53127,1,8,3:0:0:0:
304,224,53207,1,4,3:0:0:0:
304,272,53286,1,2,0:0:0:0:
332,312,53365,1,8,0:0:0:0:
332,312,53683,6,0,B|280:340|280:340|220:328,2,119.999996337891,6|0|2,0:0|0:0|0:0,0:0:0:0:
372,96,54159,2,0,P|356:152|360:216,1,119.999996337891,12|0,0:0|0:0,0:0:0:0:
428,304,54476,1,2,0:0:0:0:
280,72,54635,2,0,P|304:156|440:156,1,239.999992675781,8|8,0:0|3:0,0:0:0:0:
448,140,55032,1,2,0:0:0:0:
456,116,55111,1,2,0:0:0:0:
280,72,55270,1,2,0:0:0:0:
336,296,55429,1,8,0:0:0:0:
440,248,55588,1,0,0:0:0:0:
139,225,55746,1,2,0:0:0:0:
131,253,55826,1,2,0:0:0:0:
122,280,55905,2,0,P|174:347|258:331,1,179.999994506836,12|0,0:0|0:0,0:0:0:0:
284,308,56223,6,0,B|296:252|296:252|276:192,1,119.999996337891,2|0,0:0|0:0,0:0:0:0:
120,152,56540,1,2,0:0:0:0:
34,355,56699,2,0,P|70:306|123:279,1,119.999996337891,8|0,0:0|0:0,0:0:0:0:
375,324,57016,1,2,0:0:0:0:
267,212,57175,2,0,L|259:331,1,119.999996337891,8|0,0:0|0:0,0:0:0:0:
368,36,57492,5,8,0:0:0:0:
267,212,57651,1,8,0:0:0:0:
496,176,57810,1,8,0:0:0:0:
280,112,57969,1,8,0:0:0:0:
258,331,58127,1,2,0:0:0:0:
80,200,58286,1,12,0:0:0:0:
407,247,58445,1,2,0:0:0:0:
391,291,58524,1,2,0:0:0:0:
355,323,58603,1,8,0:0:0:0:
307,335,58683,1,8,0:0:0:0:
259,331,58762,6,0,B|315:299|375:331|375:331|439:367|495:335,1,239.999992675781,6|8,0:0|0:0,0:0:0:0:
435,91,59238,1,0,0:0:0:0:
419,111,59318,1,8,0:0:0:0:
403,131,59397,2,0,B|423:167|415:203|415:203|431:247,1,119.999996337891,2|2,0:0|0:0,0:0:0:0:
176,160,59715,2,0,B|228:188|228:188|288:176,1,119.999996337891,8|0,0:0|0:0,0:0:0:0:
500,308,60032,2,0,B|396:252|396:252|277:279,1,239.999992675781,2|8,0:0|0:0,0:0:0:0:
44,360,60508,2,0,P|96:332|156:336,1,119.999996337891,0|2,0:0|0:0,0:0:0:0:
328,364,60826,1,2,0:0:0:0:
204,184,60984,1,8,0:0:0:0:
240,364,61143,1,0,0:0:0:0:
336,208,61302,5,2,0:0:0:0:
336,208,61461,1,2,0:0:0:0:
32,262,61619,2,0,P|85:317|120:248,1,179.999994506836,8|0,0:0|0:0,0:0:0:0:
139,216,61937,2,0,L|154:336,1,119.999996337891,2|2,0:0|0:0,0:0:0:0:
420,192,62254,2,0,L|240:168,1,179.999994506836,8|0,0:0|0:0,0:0:0:0:
204,184,62572,2,0,B|216:124|216:124|192:69,1,119.999996337891,2|0,0:0|0:0,0:0:0:0:
176,60,62810,1,2,0:0:0:0:
156,56,62889,1,8,0:0:0:0:
264,264,63048,1,8,0:0:0:0:
328,140,63207,1,2,0:0:0:0:
104,272,63365,1,8,0:0:0:0:
136,236,63445,1,8,0:0:0:0:
180,224,63524,1,8,0:0:0:0:
228,232,63603,1,8,0:0:0:0:
264,264,63683,1,8,0:0:0:0:
284,308,63762,1,8,0:0:0:0:
280,356,63842,6,0,L|398:340,1,119.999996337891,6|0,0:0|0:0,0:0:0:0:
172,344,64159,1,2,0:0:0:0:
344,252,64318,2,0,L|462:236,1,119.999996337891,12|2,0:0|0:0,0:0:0:0:
172,344,64635,1,0,0:0:0:0:
307,120,64794,2,0,P|356:221|283:307,1,239.999992675781,2|2,0:0|0:0,0:0:0:0:
104,188,65270,2,0,B|148:196|148:196|184:196|184:196|228:204,1,119.999996337891,12|2,0:0|0:0,0:0:0:0:
400,304,65588,1,8,3:0:0:0:
432,168,65746,2,0,P|444:108|420:56,1,119.999996337891,2|0,0:0|0:0,0:0:0:0:
232,40,66064,1,12,0:0:0:0:
266,239,66223,1,2,0:0:0:0:
246,219,66302,1,2,0:0:0:0:
222,203,66381,6,0,P|162:191|98:207,1,119.999996337891,12|0,0:0|0:0,0:0:0:0:
104,320,66699,1,2,0:0:0:0:
328,168,66857,2,0,B|304:116|304:116|312:48,1,119.999996337891,8|2,0:0|0:0,0:0:0:0:
256,328,67175,1,0,0:0:0:0:
458,198,67334,2,0,B|386:191|386:191|310:211|310:211|222:203,1,239.999992675781,8|0,0:0|0:0,0:0:0:0:
428,88,67810,1,8,0:0:0:0:
220,120,67969,1,2,0:0:0:0:
340,292,68127,1,8,0:0:0:0:
344,128,68286,2,0,P|332:76|308:12,1,119.999996337891,0|2,0:0|0:0,0:0:0:0:
232,316,68603,1,8,0:0:0:0:
100,184,68762,1,2,0:0:0:0:
104,160,68842,1,2,0:0:0:0:
114,137,68921,6,0,P|168:113|227:119,1,119.999996337891,2|2,0:0|0:0,0:0:0:0:
340,360,69238,2,0,B|328:300|328:300|340:256|340:256|328:184,1,179.999994506836,8|0,0:0|0:0,0:0:0:0:
300,184,69556,2,0,P|250:213|189:205,1,119.999996337891,2|2,0:0|0:0,0:0:0:0:
56,16,69873,2,0,B|36:100|36:100|74:185,1,179.999994506836,8|0,0:0|0:0,0:0:0:0:
92,208,70191,2,0,L|76:328,1,119.999996337891,2|2,0:0|0:0,0:0:0:0:
333,343,70508,2,0,P|261:327|197:315,1,119.999996337891,8|0,0:0|0:0,0:0:0:0:
160,80,70826,1,2,0:0:0:0:
256,184,70984,1,2,0:0:0:0:
215,319,71144,2,0,P|162:343|108:324,1,119.999996337891,8|0,0:0|0:0,0:0:0:0:
40,88,71461,5,8,0:0:0:0:
120,240,71619,1,8,0:0:0:0:
120,128,71778,1,8,0:0:0:0:
32,284,71937,1,8,0:0:0:0:
216,260,72096,1,8,0:0:0:0:
120,128,72254,1,8,0:0:0:0:
192,352,72413,1,8,0:0:0:0:
288,212,72572,1,8,0:0:0:0:
120,128,72730,5,2,0:0:0:0:
224,36,72889,1,2,0:0:0:0:
220,56,72969,1,2,0:0:0:0:
216,76,73048,1,8,3:0:0:0:
288,212,73207,1,2,0:0:0:0:
312,116,73365,1,8,3:0:0:0:
188,192,73524,1,2,0:0:0:0:
376,192,73683,2,0,B|364:132|364:132|372:88|372:88|360:14,1,179.999994506836,12|0,0:0|0:0,0:0:0:0:
360,14,74000,5,2,0:0:0:0:
472,152,74159,1,2,0:0:0:0:
472,152,74476,1,2,0:0:0:0:
456,328,74635,2,0,B|468:280|468:280|452:232,2,100,8|0|0,0:0|0:0|0:0,0:0:0:0:
176,352,75111,1,2,0:0:0:0:
276,299,75271,2,0,L|376:287,1,100,2|8,0:0|0:0,0:0:0:0:
375,287,75746,1,2,0:0:0:0:
296,120,75905,2,0,P|284:168|300:216,2,100,8|0|0,0:0|0:0|0:0,0:0:0:0:
376,64,76381,1,0,0:0:0:0:
168,188,76540,6,0,L|68:180,1,100,6|8,0:0|0:0,0:0:0:0:
68,180,77016,1,2,0:0:0:0:
178,287,77175,2,0,P|174:237|167:187,1,100,8|0,0:0|0:0,0:0:0:0:
288,344,77492,2,0,P|291:294|298:244,1,100,0|2,0:0|0:0,0:0:0:0:
384,116,77810,2,0,B|336:128|336:128|286:116,1,100,2|8,0:0|0:0,0:0:0:0:
286,116,78286,1,2,0:0:0:0:
184,244,78445,2,0,P|183:194|175:144,1,100,2|8,0:0|0:0,0:0:0:0:
36,368,78762,2,0,P|95:328|160:359,1,150,8|0,3:0|0:0,0:0:0:0:
180,339,79080,6,0,B|168:291|168:291|184:243,2,100,6|2|2,0:0|0:0|0:0,0:0:0:0:
292,220,79556,1,0,0:0:0:0:
176,144,79715,2,0,L|68:152,2,100,8|0|0,0:0|0:0|0:0,0:0:0:0:
432,264,80191,1,0,0:0:0:0:
378,343,80349,2,0,B|328:336|328:336|280:348,1,100,0|8,0:0|0:0,0:0:0:0:
212,220,80667,2,0,B|204:260|204:260|188:276|188:276|180:312,1,100,0|2,0:0|0:0,0:0:0:0:
25,286,80984,2,0,P|54:327|92:360,1,100,8|0,0:0|0:0,0:0:0:0:
64,152,81302,1,2,0:0:0:0:
304,228,81461,1,8,0:0:0:0:
280,224,81540,1,8,0:0:0:0:
256,220,81619,6,0,P|206:212|156:208,1,100,8|0,0:0|0:0,0:0:0:0:
380,296,81937,2,0,P|384:244|384:192,1,100,2|0,0:0|0:0,0:0:0:0:
312,32,82254,2,0,B|300:104|300:104|268:152|268:152|256:220,1,200,8|2,0:0|0:0,0:0:0:0:
144,372,82730,1,0,0:0:0:0:
144,372,82889,2,0,B|132:300|132:300|100:252|100:252|88:184,1,200,2|2,0:0|0:0,0:0:0:0:
204,92,83365,2,0,L|104:76,1,100,8|0,0:0|0:0,0:0:0:0:
184,176,83683,1,2,0:0:0:0:
16,72,83842,1,8,0:0:0:0:
32,312,84000,1,0,1:0:0:0:
44,296,84080,1,0,1:0:0:0:
56,280,84159,5,2,1:2:0:0:
296,328,84318,1,2,0:0:0:0:
184,176,84476,2,0,L|172:276,1,100,8|2,0:0|0:0,0:0:0:0:
432,348,84794,2,0,L|420:248,1,100,8|0,0:0|0:0,0:0:0:0:
368,84,85111,1,2,0:0:0:0:
368,84,85270,1,2,0:0:0:0:
116,144,85429,1,0,0:0:0:0:
192,372,85588,2,0,P|193:322|201:273,1,100,8|0,0:0|0:0,0:0:0:0:
284,52,85905,5,8,0:0:0:0:
116,144,86064,1,8,0:0:0:0:
392,184,86223,1,8,0:0:0:0:
396,164,86302,1,8,0:0:0:0:
400,144,86381,1,0,0:0:0:0:
228,320,86540,6,0,B|176:328|176:328|136:344|136:344|83:352,1,150,12|0,0:0|0:0,0:0:0:0:
