osu file format v14

[General]
AudioFilename: audio.mp3
AudioLeadIn: 0
PreviewTime: 47016
Countdown: 0
SampleSet: Soft
StackLeniency: 0.7
Mode: 0
LetterboxInBreaks: 0
WidescreenStoryboard: 1

[Editor]
DistanceSpacing: 1
BeatDivisor: 4
GridSize: 4
TimelineZoom: 2.5

[Metadata]
Title:Datte Atashi no Hero. -TV ver.-
TitleUnicode:だってアタシのヒーロー。-TV ver.-
Artist:LiSA
ArtistUnicode:LiSA
Creator:Ipas
Version:Easy
Source:僕のヒーローアカデミア
Tags:boku no my hero academia second season ending farel12345 wendao2000 Harez wendao
BeatmapID:1357402
BeatmapSetID:638877

[Difficulty]
HPDrainRate:2
CircleSize:3
OverallDifficulty:2
ApproachRate:3
SliderMultiplier:0.799999999999999
SliderTickRate:1

[Events]
//Background and Video events
Video,-2914,"video.avi"
0,0,"bg.jpg",0,0
//Break Periods
//Storyboard Layer 0 (Background)
//Storyboard Layer 1 (Fail)
//Storyboard Layer 2 (Pass)
//Storyboard Layer 3 (Foreground)
//Storyboard Sound Samples

[TimingPoints]
350,317.460317460317,4,2,1,35,1,0
350,-100,4,1,1,35,0,0
5429,-100,4,2,1,65,0,0
15588,-100,4,2,1,45,0,0
23207,-100,4,2,1,45,0,0
24476,-100,4,2,1,65,0,0
25746,-100,4,2,1,55,0,0
35905,-100,4,2,1,50,0,0
43524,-100,4,2,1,55,0,0
46064,-100,4,2,1,65,0,0
47334,-100,4,2,1,45,0,0
48603,-100,4,2,1,75,0,1
72730,-100,4,2,1,75,0,0
74000,-100,4,2,1,55,0,0
86540,-100,4,2,1,35,0,0

[Colours]
Combo1 : 255,66,66
Combo2 : 0,174,87
Combo3 : 252,204,116
Combo4 : 253,126,0
Combo5 : 0,0,160

[HitObjects]
88,328,350,6,0,B|120:340|148:328|148:328|176:312|204:324,1,120,0|0,0:0|0:0,0:0:0:0:
284,320,1143,2,0,P|291:237|304:160,1,160,0|0,0:0|0:0,0:0:0:0:
376,127,2096,2,0,P|426:82|432:32,1,120,0|0,0:0|0:0,0:0:0:0:
352,48,2889,6,0,L|228:56,1,120
160,92,3683,2,0,B|172:148|172:148|156:192|156:192|163:247,1,160,0|0,0:0|0:0,0:0:0:0:
132,320,4635,2,0,B|72:336|72:336|16:316,1,120,0|0,0:0|0:0,0:0:0:0:
44,239,5429,6,0,P|56:200|49:163,1,79.9999999999999,6|8,0:0|0:0,0:0:0:0:
104,104,6064,2,0,L|224:116,1,120,8|2,0:0|0:0,0:0:0:0:
276,176,6857,1,8,0:0:0:0:
352,271,7334,2,0,P|392:264|429:278,1,79.9999999999999,8|8,0:0|0:0,0:0:0:0:
488,220,7969,6,0,P|496:181|485:143,1,79.9999999999999,6|8,0:0|0:0,0:0:0:0:
420,100,8603,2,0,B|376:92|376:92|352:76|352:76|304:64,1,120,8|2,0:0|0:0,0:0:0:0:
236,104,9397,1,8,0:0:0:0:
140,176,9873,2,0,L|144:256,1,79.9999999999999,12|2,0:0|0:0,0:0:0:0:
119,331,10508,6,0,P|85:313|68:277,1,79.9999999999999,6|8,0:0|0:0,0:0:0:0:
60,200,11143,2,0,L|56:80,1,120,12|2,0:0|0:0,0:0:0:0:
116,28,11937,1,8,0:0:0:0:
220,84,12413,2,0,P|260:96|300:84,1,79.9999999999999,8|8,0:0|0:0,0:0:0:0:
256,192,13048,12,8,14318,3:0:0:0:
160,252,15588,6,0,P|200:244|248:252,1,79.9999999999999,6|2,0:0|0:0,0:0:0:0:
304,292,16223,1,2,0:0:0:0:
440,208,16857,2,0,L|432:124,2,79.9999999999999,2|2|2,0:0|0:0|0:0,0:0:0:0:
412,284,17810,1,2,0:0:0:0:
351,339,18127,6,0,P|333:304|330:265,1,79.9999999999999,2|0,0:0|0:0,0:0:0:0:
352,188,18762,2,0,B|356:148|356:148|340:108,1,79.9999999999999,2|2,0:0|0:0,0:0:0:0:
276,68,19397,1,2,0:0:0:0:
144,160,20032,2,0,B|140:200|140:200|156:240,1,79.9999999999999,2|2,0:0|0:0,0:0:0:0:
132,312,20667,6,0,P|200:304|232:224,1,160,2|2,0:0|0:0,0:0:0:0:
284,164,21619,1,8,3:0:0:0:
344,216,21937,2,0,B|384:212|384:212|424:224|424:224|464:220,2,120,2|0|12,0:0|0:0|0:0,0:0:0:0:
256,192,23207,12,8,24476,0:0:0:0:
304,176,25746,6,0,P|312:216|304:256,1,79.9999999999999,6|8,0:0|0:0,0:0:0:0:
248,312,26381,2,0,L|84:292,1,160,0|2,0:0|0:0,0:0:0:0:
48,224,27334,2,0,L|56:144,1,79.9999999999999,8|0,0:0|0:0,0:0:0:0:
104,80,27969,1,8,0:0:0:0:
160,139,28286,6,0,P|181:106|183:67,2,79.9999999999999,2|8|0,0:0|0:0|0:0,0:0:0:0:
180,216,29238,2,0,P|220:212|260:208,1,79.9999999999999,8|2,0:0|0:0,0:0:0:0:
412,256,30191,2,0,P|416:212|412:176,1,79.9999999999999,0|8,0:0|0:0,0:0:0:0:
368,108,30826,6,0,B|268:128|308:72|212:88,1,160,2|0,0:0|0:0,0:0:0:0:
160,148,31778,1,8,0:0:0:0:
80,148,32096,2,0,P|116:216|196:220,1,160,2|0,0:0|0:0,0:0:0:0:
260,176,33048,1,8,0:0:0:0:
320,232,33365,6,0,L|312:312,1,79.9999999999999,2|2,0:0|0:0,0:0:0:0:
392,308,34000,2,0,L|400:228,1,79.9999999999999,0|12,0:0|0:0,0:0:0:0:
444,164,34635,1,8,0:0:0:0:
292,120,35270,1,8,3:0:0:0:
232,268,35905,6,0,B|190:264|190:264|154:276|154:276|114:272,2,120,2|8|8,0:0|0:0|0:0,0:0:0:0:
292,323,37175,2,0,P|312:264|292:212,2,120,2|8|8,0:0|0:0|0:0,0:0:0:0:
216,348,38445,2,0,L|136:344,1,79.9999999999999,2|2,0:0|0:0,0:0:0:0:
71,295,39080,2,0,P|67:256|81:219,1,79.9999999999999,2|8,0:0|0:0,0:0:0:0:
152,184,39715,2,0,P|192:196|232:188,1,79.9999999999999,2|4,0:0|0:0,0:0:0:0:
308,204,40349,2,0,L|300:288,1,79.9999999999999,4|12,3:0|0:0,0:0:0:0:
376,316,40984,6,0,L|388:196,2,120,2|8|8,0:0|0:0|0:0,0:0:0:0:
456,320,42254,2,0,B|460:280|460:280|480:256|480:256|484:208,2,120,2|8|8,0:0|0:0|0:0,0:0:0:0:
376,316,43524,6,0,B|339:319|339:319|303:303|303:303|259:311|259:311|235:275|195:263|155:283,1,240,12|8,0:0|0:0,0:0:0:0:
91,335,44794,2,0,P|76:256|132:204,1,160,8|8,0:0|3:0,0:0:0:0:
208,192,45746,1,12,0:0:0:0:
256,192,46064,12,0,47334,1:0:0:0:
304,268,48603,6,0,L|384:280,1,79.9999999999999,6|8,0:0|0:0,0:0:0:0:
436,339,49238,2,0,P|463:268|416:208,1,160,2|0,0:0|0:0,0:0:0:0:
348,168,50191,2,0,L|356:88,2,79.9999999999999,8|2|8,0:0|0:0|0:0,0:0:0:0:
292,228,51143,1,2,0:0:0:0:
228,276,51461,2,0,P|212:240|216:200,2,79.9999999999999,8|2|8,0:0|0:0|0:0,0:0:0:0:
300,312,52413,2,0,P|344:304|380:304,1,79.9999999999999,2|2,0:0|0:0,0:0:0:0:
456,328,53048,2,0,L|460:248,1,79.9999999999999,8|8,0:0|0:0,0:0:0:0:
431,171,53683,6,0,P|376:151|321:171,2,120,6|12|8,0:0|0:0|0:0,0:0:0:0:
488,116,54953,2,0,P|496:72|484:40,1,79.9999999999999,8|2,3:0|0:0,0:0:0:0:
408,20,55588,2,0,L|320:28,1,79.9999999999999,0|12,0:0|0:0,0:0:0:0:
284,92,56223,2,0,L|304:216,2,120,2|8|8,0:0|0:0|0:0,0:0:0:0:
215,51,57492,2,0,P|158:63|118:107,1,120,8|8,0:0|0:0,0:0:0:0:
120,188,58286,1,12,0:0:0:0:
184,288,58762,6,0,P|148:308|108:308,1,79.9999999999999,6|8,0:0|0:0,0:0:0:0:
32,292,59397,2,0,B|40:232|40:232|28:200|28:200|36:136,1,160,8|2,0:0|0:0,0:0:0:0:
92,76,60349,2,0,P|132:60|172:68,2,79.9999999999999,8|2|8,0:0|0:0|0:0,0:0:0:0:
140,140,61302,1,2,0:0:0:0:
188,204,61619,2,0,P|148:220|108:212,2,79.9999999999999,8|2|8,0:0|0:0|0:0,0:0:0:0:
268,208,62572,2,0,L|260:288,1,79.9999999999999,2|8,0:0|0:0,0:0:0:0:
340,304,63207,2,0,L|348:224,1,79.9999999999999,2|8,0:0|0:0,0:0:0:0:
424,196,63842,6,0,P|384:152|324:148,2,120,6|12|2,0:0|0:0|0:0,0:0:0:0:
495,228,65111,2,0,P|471:259|434:272,1,79.9999999999999,2|2,0:0|0:0,0:0:0:0:
356,272,65746,2,0,L|272:264,1,79.9999999999999,2|12,0:0|0:0,0:0:0:0:
212,316,66381,2,0,L|92:304,2,120,12|8|8,0:0|0:0|0:0,0:0:0:0:
284,348,67651,2,0,B|344:356|344:356|400:364|432:320,1,160,0|2,0:0|0:0,0:0:0:0:
364,276,68603,1,8,0:0:0:0:
360,196,68921,6,0,B|368:136|368:136|344:80,2,120,2|0|8,0:0|0:0|0:0,0:0:0:0:
292,240,70191,2,0,P|232:232|164:236,2,120,2|0|8,0:0|0:0|0:0,0:0:0:0:
364,276,71461,2,0,P|404:264|432:236,1,79.9999999999999,8|8,0:0|0:0,0:0:0:0:
452,160,72096,2,0,L|440:76,1,79.9999999999999,8|8,0:0|0:0,0:0:0:0:
376,32,72730,1,2,0:0:0:0:
256,136,73365,1,8,3:0:0:0:
136,32,74000,6,0,P|104:80|140:168,1,160,2|8,0:0|0:0,0:0:0:0:
296,192,75270,2,0,L|460:184,1,160,2|8,0:0|0:0,0:0:0:0:
388,328,76540,2,0,B|336:320|336:320|284:332|284:332|228:324,1,160,6|8,0:0|0:0,0:0:0:0:
88,256,77810,2,0,B|100:176|100:176|168:132|168:132|180:52,1,240,2|8,0:0|3:0,0:0:0:0:
260,64,79080,6,0,P|336:77|398:30,1,160,6|8,0:0|0:0,0:0:0:0:
492,160,80349,2,0,L|484:240,1,79.9999999999999,0|0,0:0|0:0,0:0:0:0:
404,244,80984,2,0,L|412:164,1,79.9999999999999,8|2,0:0|0:0,0:0:0:0:
344,120,81619,2,0,B|256:88|280:156|188:124,1,160,8|8,0:0|0:0,0:0:0:0:
72,232,82889,2,0,P|64:272|80:316,1,79.9999999999999,2|2,0:0|0:0,0:0:0:0:
144,268,83524,2,0,P|184:260|224:268,1,79.9999999999999,0|8,0:0|0:0,0:0:0:0:
256,192,84159,12,12,86540,0:0:0:0:
