osu file format v14

[General]
AudioFilename: audio.mp3
AudioLeadIn: 0
PreviewTime: -1
Countdown: 1
SampleSet: Soft
StackLeniency: 0.7
Mode: 3
LetterboxInBreaks: 0
SpecialStyle: 0
WidescreenStoryboard: 1

[Editor]
DistanceSpacing: 0.8
BeatDivisor: 4
GridSize: 8
TimelineZoom: 1.850006

[Metadata]
Title:Datte Atashi No Hero (TV size)
TitleUnicode:Datte Atashi No Hero (TV size)
Artist:LiSA
ArtistUnicode:LiSA
Creator:KamiaGasii
Version:Normal
Source:Boku no Hero Academia
Tags:Datte Atashi No Hero TV Size Boku No Hero Academia Ending Theme
BeatmapID:1965742
BeatmapSetID:941302

[Difficulty]
HPDrainRate:7
CircleSize:6
OverallDifficulty:7
ApproachRate:5
SliderMultiplier:1.4
SliderTickRate:1

[Events]
//Background and Video events
Video,0,"My Hero Academia - Ending 3 Datte Atashi no Hiro.mp4"
0,0,"maxresdefault.jpg",0,0
//Break Periods
//Storyboard Layer 0 (Background)
//Storyboard Layer 1 (Fail)
//Storyboard Layer 2 (Pass)
//Storyboard Layer 3 (Foreground)
//Storyboard Sound Samples

[TimingPoints]
385,317.460317460317,4,2,0,0,1,0
15623,317.460317460317,4,2,0,0,1,0
35940,317.460317460317,4,2,0,0,1,0
48638,317.460317460317,4,2,0,0,1,0

[HitObjects]
213,192,385,5,0,0:0:0:0:
298,192,543,1,0,0:0:0:0:
384,192,702,1,0,0:0:0:0:
128,192,861,128,0,1178:0:0:0:0:
42,192,1178,128,0,1496:0:0:0:0:
469,192,1496,1,0,0:0:0:0:
384,192,1654,1,0,0:0:0:0:
298,192,1813,1,0,0:0:0:0:
128,192,2131,1,0,0:0:0:0:
298,192,2289,1,0,0:0:0:0:
213,192,2448,1,0,0:0:0:0:
128,192,2607,128,0,2924:0:0:0:0:
213,192,2924,1,0,0:0:0:0:
298,192,3083,1,0,0:0:0:0:
384,192,3242,1,0,0:0:0:0:
128,192,3400,128,0,3718:0:0:0:0:
42,192,3718,128,0,4035:0:0:0:0:
469,192,4035,1,0,0:0:0:0:
384,192,4194,1,0,0:0:0:0:
298,192,4353,1,0,0:0:0:0:
42,192,4670,1,0,0:0:0:0:
298,192,4829,1,0,0:0:0:0:
213,192,4988,128,0,5464:0:0:0:0:
128,192,4988,128,0,5464:0:0:0:0:
298,192,5464,1,0,0:0:0:0:
384,192,5623,1,0,0:0:0:0:
469,192,5781,1,0,0:0:0:0:
128,192,5940,128,0,6258:0:0:0:0:
42,192,6258,128,0,6575:0:0:0:0:
469,192,6575,1,0,0:0:0:0:
384,192,6734,1,0,0:0:0:0:
298,192,6892,1,0,0:0:0:0:
128,192,7210,1,0,0:0:0:0:
298,192,7369,1,0,0:0:0:0:
213,192,7527,1,0,0:0:0:0:
128,192,7686,128,0,8004:0:0:0:0:
213,192,8004,1,0,0:0:0:0:
298,192,8162,1,0,0:0:0:0:
384,192,8321,1,0,0:0:0:0:
128,192,8480,128,0,8797:0:0:0:0:
42,192,8797,128,0,9115:0:0:0:0:
469,192,9115,1,0,0:0:0:0:
384,192,9273,1,0,0:0:0:0:
298,192,9432,1,0,0:0:0:0:
128,192,9750,1,0,0:0:0:0:
298,192,9908,1,0,0:0:0:0:
128,192,10067,128,0,10543:0:0:0:0:
213,192,10067,128,0,10543:0:0:0:0:
298,192,10543,1,0,0:0:0:0:
384,192,10702,1,0,0:0:0:0:
469,192,10861,1,0,0:0:0:0:
128,192,11019,128,0,11337:0:0:0:0:
42,192,11337,128,0,11654:0:0:0:0:
469,192,11654,1,0,0:0:0:0:
384,192,11813,1,0,0:0:0:0:
298,192,11972,1,0,0:0:0:0:
128,192,12289,1,0,0:0:0:0:
298,192,12448,1,0,0:0:0:0:
213,192,12607,1,0,0:0:0:0:
128,192,12765,128,0,13083:0:0:0:0:
298,192,13083,1,0,0:0:0:0:
213,192,13083,1,0,0:0:0:0:
298,192,13242,1,0,0:0:0:0:
213,192,13242,1,0,0:0:0:0:
128,192,13400,1,0,0:0:0:0:
469,192,13559,1,0,0:0:0:0:
384,192,13559,1,0,0:0:0:0:
384,192,13718,1,0,0:0:0:0:
469,192,13718,1,0,0:0:0:0:
298,192,13877,1,0,0:0:0:0:
213,192,14035,1,0,0:0:0:0:
128,192,14035,1,0,0:0:0:0:
213,192,14194,1,0,0:0:0:0:
128,192,14194,1,0,0:0:0:0:
42,192,14353,128,0,14511:0:0:0:0:
128,192,14511,128,0,14670:0:0:0:0:
384,192,14670,128,0,14829:0:0:0:0:
298,192,14829,128,0,15623:0:0:0:0:
213,192,14829,128,0,15623:0:0:0:0:
128,192,15623,128,0,16257:0:0:0:0:
384,192,15940,128,0,16575:0:0:0:0:
42,192,16257,128,0,16892:0:0:0:0:
298,192,16575,128,0,17210:0:0:0:0:
213,192,16892,128,0,17527:0:0:0:0:
469,192,17210,128,0,17845:0:0:0:0:
128,192,17527,128,0,18162:0:0:0:0:
298,192,17845,128,0,18480:0:0:0:0:
42,192,18162,128,0,18797:0:0:0:0:
384,192,18480,128,0,19115:0:0:0:0:
213,192,18797,128,0,19432:0:0:0:0:
469,192,19115,128,0,19749:0:0:0:0:
42,192,19432,128,0,20067:0:0:0:0:
298,192,19749,128,0,20384:0:0:0:0:
128,192,20067,128,0,20702:0:0:0:0:
384,192,20384,128,0,21019:0:0:0:0:
213,192,20702,128,0,21337:0:0:0:0:
469,192,21019,128,0,21654:0:0:0:0:
42,192,21337,128,0,21972:0:0:0:0:
298,192,21654,128,0,22289:0:0:0:0:
128,192,21972,128,0,22607:0:0:0:0:
469,192,22289,128,0,22924:0:0:0:0:
213,192,22607,128,0,23242:0:0:0:0:
128,192,23242,128,0,24511:0:0:0:0:
384,192,23242,128,0,24511:0:0:0:0:
42,192,23718,1,0,0:0:0:0:
42,192,24194,1,0,0:0:0:0:
213,192,24511,1,0,0:0:0:0:
298,192,24670,1,0,0:0:0:0:
384,192,24829,1,0,0:0:0:0:
469,192,24988,128,0,25781:0:0:0:0:
128,192,25464,1,0,0:0:0:0:
213,192,25622,1,0,0:0:0:0:
384,192,25781,128,0,26416:0:0:0:0:
42,192,26099,128,0,26734:0:0:0:0:
298,192,26416,1,0,0:0:0:0:
298,192,26575,1,0,0:0:0:0:
213,192,26734,128,0,27369:0:0:0:0:
469,192,27051,128,0,27686:0:0:0:0:
128,192,27369,128,0,28003:0:0:0:0:
298,192,27686,1,0,0:0:0:0:
298,192,27845,1,0,0:0:0:0:
42,192,28003,128,0,28638:0:0:0:0:
384,192,28321,128,0,28956:0:0:0:0:
213,192,28638,128,0,29273:0:0:0:0:
298,192,28956,1,0,0:0:0:0:
298,192,29115,1,0,0:0:0:0:
42,192,29273,128,0,29908:0:0:0:0:
469,192,29591,128,0,30226:0:0:0:0:
128,192,29908,128,0,30543:0:0:0:0:
298,192,30226,1,0,0:0:0:0:
298,192,30384,1,0,0:0:0:0:
213,192,30543,128,0,31178:0:0:0:0:
469,192,30861,128,0,31496:0:0:0:0:
42,192,31178,128,0,31813:0:0:0:0:
298,192,31496,1,0,0:0:0:0:
298,192,31654,1,0,0:0:0:0:
128,192,31813,128,0,32448:0:0:0:0:
469,192,32130,128,0,32765:0:0:0:0:
213,192,32448,128,0,33083:0:0:0:0:
298,192,32765,1,0,0:0:0:0:
298,192,32924,1,0,0:0:0:0:
42,192,33083,128,0,33400:0:0:0:0:
384,192,33400,1,0,0:0:0:0:
469,192,33400,1,0,0:0:0:0:
384,192,33559,1,0,0:0:0:0:
469,192,33559,1,0,0:0:0:0:
128,192,33718,1,0,0:0:0:0:
42,192,33718,1,0,0:0:0:0:
42,192,33876,1,0,0:0:0:0:
128,192,33877,1,0,0:0:0:0:
298,192,34194,1,0,0:0:0:0:
213,192,34194,1,0,0:0:0:0:
213,192,34353,1,0,0:0:0:0:
298,192,34353,1,0,0:0:0:0:
42,192,34670,128,0,35940:0:0:0:0:
469,192,34670,1,0,0:0:0:0:
384,192,34829,1,0,0:0:0:0:
298,192,34988,1,0,0:0:0:0:
384,192,35146,1,0,0:0:0:0:
469,192,35305,1,0,0:0:0:0:
384,192,35464,1,0,0:0:0:0:
298,192,35622,128,0,35940:0:0:0:0:
213,192,35940,1,0,0:0:0:0:
469,192,35940,1,0,0:0:0:0:
213,192,36098,1,0,0:0:0:0:
469,192,36098,1,0,0:0:0:0:
213,192,36257,1,0,0:0:0:0:
469,192,36257,1,0,0:0:0:0:
128,192,36416,128,0,36495:0:0:0:0:
384,192,36416,128,0,36495:0:0:0:0:
128,192,36733,1,0,0:0:0:0:
384,192,36733,1,0,0:0:0:0:
42,192,36892,128,0,37051:0:0:0:0:
298,192,36892,128,0,37051:0:0:0:0:
213,192,37209,1,0,0:0:0:0:
469,192,37209,1,0,0:0:0:0:
213,192,37368,1,0,0:0:0:0:
469,192,37368,1,0,0:0:0:0:
213,192,37527,1,0,0:0:0:0:
469,192,37527,1,0,0:0:0:0:
384,192,37686,128,0,37765:0:0:0:0:
128,192,37686,128,0,37765:0:0:0:0:
384,192,38003,1,0,0:0:0:0:
128,192,38003,1,0,0:0:0:0:
42,192,38162,128,0,38320:0:0:0:0:
298,192,38162,128,0,38320:0:0:0:0:
213,192,38479,1,0,0:0:0:0:
469,192,38479,1,0,0:0:0:0:
469,192,38638,1,0,0:0:0:0:
213,192,38638,1,0,0:0:0:0:
213,192,38797,1,0,0:0:0:0:
469,192,38797,1,0,0:0:0:0:
128,192,38955,128,0,39035:0:0:0:0:
384,192,38955,128,0,39035:0:0:0:0:
128,192,39273,1,0,0:0:0:0:
384,192,39273,1,0,0:0:0:0:
42,192,39432,128,0,39590:0:0:0:0:
298,192,39432,128,0,39590:0:0:0:0:
469,192,39749,128,0,39908:0:0:0:0:
213,192,39749,128,0,39908:0:0:0:0:
298,192,39908,128,0,40066:0:0:0:0:
42,192,39908,128,0,40066:0:0:0:0:
213,192,40066,128,0,40225:0:0:0:0:
469,192,40066,128,0,40225:0:0:0:0:
298,192,40225,128,0,40384:0:0:0:0:
42,192,40225,128,0,40384:0:0:0:0:
213,192,40384,128,0,40543:0:0:0:0:
469,192,40384,128,0,40543:0:0:0:0:
298,192,40543,128,0,40701:0:0:0:0:
42,192,40543,128,0,40701:0:0:0:0:
213,192,40701,128,0,40860:0:0:0:0:
469,192,40701,128,0,40860:0:0:0:0:
213,192,41019,1,0,0:0:0:0:
469,192,41019,1,0,0:0:0:0:
469,192,41178,1,0,0:0:0:0:
213,192,41178,1,0,0:0:0:0:
213,192,41336,1,0,0:0:0:0:
469,192,41336,1,0,0:0:0:0:
128,192,41495,128,0,41574:0:0:0:0:
384,192,41495,128,0,41574:0:0:0:0:
384,192,41813,1,0,0:0:0:0:
128,192,41813,1,0,0:0:0:0:
42,192,41971,128,0,42130:0:0:0:0:
298,192,41971,128,0,42130:0:0:0:0:
384,192,42289,1,0,0:0:0:0:
469,192,42289,1,0,0:0:0:0:
384,192,42447,1,0,0:0:0:0:
469,192,42447,1,0,0:0:0:0:
469,192,42606,1,0,0:0:0:0:
384,192,42606,1,0,0:0:0:0:
298,192,42765,128,0,42844:0:0:0:0:
298,192,43082,1,0,0:0:0:0:
384,192,43241,128,0,43400:0:0:0:0:
469,192,43241,128,0,43400:0:0:0:0:
128,192,43559,1,0,0:0:0:0:
42,192,43559,1,0,0:0:0:0:
42,192,43717,1,0,0:0:0:0:
128,192,43717,1,0,0:0:0:0:
128,192,43876,1,0,0:0:0:0:
42,192,43877,1,0,0:0:0:0:
213,192,44035,128,0,44114:0:0:0:0:
213,192,44352,1,0,0:0:0:0:
42,192,44511,128,0,44670:0:0:0:0:
128,192,44511,128,0,44670:0:0:0:0:
128,192,45146,128,0,45463:0:0:0:0:
384,192,45146,128,0,45463:0:0:0:0:
213,192,45463,128,0,45781:0:0:0:0:
298,192,45463,128,0,45781:0:0:0:0:
469,192,45781,128,0,47368:0:0:0:0:
42,192,45781,128,0,47368:0:0:0:0:
213,192,46098,1,0,0:0:0:0:
298,192,46257,1,0,0:0:0:0:
384,192,46416,1,0,0:0:0:0:
213,192,46574,128,0,46892:0:0:0:0:
128,192,46892,128,0,47209:0:0:0:0:
384,192,47209,1,0,0:0:0:0:
298,192,47368,1,0,0:0:0:0:
213,192,47527,1,0,0:0:0:0:
128,192,48638,1,0,0:0:0:0:
42,192,48638,1,0,0:0:0:0:
384,192,48638,1,0,0:0:0:0:
469,192,48638,1,0,0:0:0:0:
213,192,48796,1,0,0:0:0:0:
298,192,48796,1,0,0:0:0:0:
213,192,48955,1,0,0:0:0:0:
298,192,48955,1,0,0:0:0:0:
384,192,49272,1,0,0:0:0:0:
469,192,49272,1,0,0:0:0:0:
128,192,49272,1,0,0:0:0:0:
42,192,49272,1,0,0:0:0:0:
213,192,49431,1,0,0:0:0:0:
298,192,49431,1,0,0:0:0:0:
298,192,49590,1,0,0:0:0:0:
213,192,49590,1,0,0:0:0:0:
384,192,49907,1,0,0:0:0:0:
469,192,49907,1,0,0:0:0:0:
128,192,50066,1,0,0:0:0:0:
213,192,50225,1,0,0:0:0:0:
298,192,50384,1,0,0:0:0:0:
42,192,50542,1,0,0:0:0:0:
128,192,50543,1,0,0:0:0:0:
384,192,50701,1,0,0:0:0:0:
298,192,50860,1,0,0:0:0:0:
213,192,51018,1,0,0:0:0:0:
128,192,51177,1,0,0:0:0:0:
469,192,51178,128,0,51496:0:0:0:0:
298,192,51336,1,0,0:0:0:0:
42,192,51495,128,0,51812:0:0:0:0:
213,192,51495,1,0,0:0:0:0:
469,192,51812,128,0,52130:0:0:0:0:
384,192,51812,1,0,0:0:0:0:
213,192,51971,1,0,0:0:0:0:
42,192,52130,128,0,52447:0:0:0:0:
298,192,52130,1,0,0:0:0:0:
469,192,52447,128,0,52764:0:0:0:0:
128,192,52447,1,0,0:0:0:0:
298,192,52606,1,0,0:0:0:0:
213,192,52764,1,0,0:0:0:0:
128,192,52923,1,0,0:0:0:0:
42,192,53082,128,0,53717:0:0:0:0:
128,192,53399,1,0,0:0:0:0:
213,192,53399,1,0,0:0:0:0:
213,192,53718,1,0,0:0:0:0:
128,192,53718,1,0,0:0:0:0:
469,192,53876,1,0,0:0:0:0:
298,192,54035,1,0,0:0:0:0:
384,192,54114,1,0,0:0:0:0:
469,192,54193,1,0,0:0:0:0:
298,192,54352,1,0,0:0:0:0:
384,192,54431,1,0,0:0:0:0:
469,192,54511,1,0,0:0:0:0:
128,192,54670,128,0,55305:0:0:0:0:
213,192,54670,128,0,55305:0:0:0:0:
42,192,54987,1,0,0:0:0:0:
42,192,55304,1,0,0:0:0:0:
469,192,55622,128,0,56257:0:0:0:0:
384,192,55939,1,0,0:0:0:0:
298,192,55939,1,0,0:0:0:0:
298,192,56257,1,0,0:0:0:0:
384,192,56257,1,0,0:0:0:0:
42,192,56415,1,0,0:0:0:0:
128,192,56574,1,0,0:0:0:0:
213,192,56653,1,0,0:0:0:0:
298,192,56733,1,0,0:0:0:0:
128,192,56891,1,0,0:0:0:0:
213,192,56971,1,0,0:0:0:0:
298,192,57050,1,0,0:0:0:0:
42,192,57209,128,0,58003:0:0:0:0:
469,192,57209,128,0,58003:0:0:0:0:
384,192,57526,1,0,0:0:0:0:
128,192,57685,1,0,0:0:0:0:
384,192,57844,1,0,0:0:0:0:
128,192,58003,1,0,0:0:0:0:
298,192,58161,1,0,0:0:0:0:
213,192,58320,1,0,0:0:0:0:
298,192,58479,1,0,0:0:0:0:
213,192,58637,1,0,0:0:0:0:
128,192,58796,1,0,0:0:0:0:
42,192,58796,1,0,0:0:0:0:
469,192,58796,1,0,0:0:0:0:
384,192,58796,1,0,0:0:0:0:
298,192,58955,1,0,0:0:0:0:
213,192,58955,1,0,0:0:0:0:
213,192,59114,1,0,0:0:0:0:
298,192,59114,1,0,0:0:0:0:
128,192,59431,1,0,0:0:0:0:
42,192,59431,1,0,0:0:0:0:
469,192,59431,1,0,0:0:0:0:
384,192,59431,1,0,0:0:0:0:
298,192,59590,1,0,0:0:0:0:
213,192,59590,1,0,0:0:0:0:
213,192,59749,1,0,0:0:0:0:
298,192,59749,1,0,0:0:0:0:
384,192,60066,1,0,0:0:0:0:
469,192,60066,1,0,0:0:0:0:
128,192,60225,1,0,0:0:0:0:
213,192,60384,1,0,0:0:0:0:
298,192,60542,1,0,0:0:0:0:
128,192,60701,1,0,0:0:0:0:
42,192,60701,1,0,0:0:0:0:
384,192,60860,1,0,0:0:0:0:
298,192,61018,1,0,0:0:0:0:
213,192,61177,1,0,0:0:0:0:
469,192,61336,128,0,61653:0:0:0:0:
128,192,61336,1,0,0:0:0:0:
298,192,61495,1,0,0:0:0:0:
42,192,61653,128,0,61971:0:0:0:0:
213,192,61653,1,0,0:0:0:0:
469,192,61971,128,0,62288:0:0:0:0:
384,192,61971,1,0,0:0:0:0:
213,192,62130,1,0,0:0:0:0:
384,192,62288,128,0,62606:0:0:0:0:
298,192,62288,1,0,0:0:0:0:
469,192,62606,128,0,62923:0:0:0:0:
128,192,62606,1,0,0:0:0:0:
298,192,62764,1,0,0:0:0:0:
213,192,62923,1,0,0:0:0:0:
128,192,63082,1,0,0:0:0:0:
42,192,63241,128,0,63876:0:0:0:0:
128,192,63558,1,0,0:0:0:0:
213,192,63558,1,0,0:0:0:0:
128,192,63876,1,0,0:0:0:0:
213,192,63876,1,0,0:0:0:0:
384,192,64034,1,0,0:0:0:0:
469,192,64193,1,0,0:0:0:0:
384,192,64272,1,0,0:0:0:0:
298,192,64352,1,0,0:0:0:0:
469,192,64511,1,0,0:0:0:0:
384,192,64590,1,0,0:0:0:0:
298,192,64669,1,0,0:0:0:0:
384,192,64828,128,0,65463:0:0:0:0:
469,192,64828,128,0,65463:0:0:0:0:
213,192,65780,128,0,66098:0:0:0:0:
298,192,66098,128,0,66415:0:0:0:0:
384,192,66415,1,0,0:0:0:0:
469,192,66415,1,0,0:0:0:0:
128,192,66574,1,0,0:0:0:0:
42,192,66733,1,0,0:0:0:0:
128,192,66812,1,0,0:0:0:0:
213,192,66891,1,0,0:0:0:0:
42,192,67050,1,0,0:0:0:0:
128,192,67130,1,0,0:0:0:0:
213,192,67209,1,0,0:0:0:0:
128,192,67368,128,0,68003:0:0:0:0:
42,192,67368,128,0,68003:0:0:0:0:
298,192,68637,1,0,0:0:0:0:
469,192,68955,128,0,69272:0:0:0:0:
384,192,69114,128,0,69272:0:0:0:0:
298,192,69272,1,0,0:0:0:0:
42,192,69590,128,0,69907:0:0:0:0:
128,192,69749,128,0,69907:0:0:0:0:
213,192,69907,1,0,0:0:0:0:
384,192,70225,128,0,70542:0:0:0:0:
469,192,70384,128,0,70542:0:0:0:0:
298,192,70542,1,0,0:0:0:0:
128,192,70860,128,0,71177:0:0:0:0:
42,192,71018,128,0,71177:0:0:0:0:
213,192,71177,1,0,0:0:0:0:
298,192,71495,1,0,0:0:0:0:
384,192,71495,1,0,0:0:0:0:
213,192,71653,1,0,0:0:0:0:
128,192,71653,1,0,0:0:0:0:
298,192,71812,1,0,0:0:0:0:
384,192,71812,1,0,0:0:0:0:
213,192,71971,1,0,0:0:0:0:
128,192,71971,1,0,0:0:0:0:
298,192,72130,1,0,0:0:0:0:
384,192,72130,1,0,0:0:0:0:
213,192,72288,1,0,0:0:0:0:
128,192,72288,1,0,0:0:0:0:
298,192,72447,1,0,0:0:0:0:
384,192,72447,1,0,0:0:0:0:
213,192,72606,1,0,0:0:0:0:
128,192,72606,1,0,0:0:0:0:
42,192,72764,128,0,73717:0:0:0:0:
469,192,72764,128,0,73717:0:0:0:0:
128,192,72923,1,0,0:0:0:0:
213,192,73003,1,0,0:0:0:0:
298,192,73082,1,0,0:0:0:0:
384,192,73082,1,0,0:0:0:0:
298,192,73241,1,0,0:0:0:0:
384,192,73241,1,0,0:0:0:0:
213,192,73399,1,0,0:0:0:0:
384,192,73558,1,0,0:0:0:0:
213,192,73717,1,0,0:0:0:0:
128,192,73717,1,0,0:0:0:0:
213,192,74034,1,0,0:0:0:0:
298,192,74034,1,0,0:0:0:0:
213,192,74193,128,0,74352:0:0:0:0:
298,192,74193,128,0,74352:0:0:0:0:
128,192,74511,1,0,0:0:0:0:
42,192,74669,128,0,75304:0:0:0:0:
213,192,75304,1,0,0:0:0:0:
298,192,75304,1,0,0:0:0:0:
213,192,75463,128,0,75622:0:0:0:0:
298,192,75463,128,0,75622:0:0:0:0:
384,192,75780,1,0,0:0:0:0:
469,192,75939,128,0,76574:0:0:0:0:
213,192,76574,1,0,0:0:0:0:
298,192,76574,1,0,0:0:0:0:
298,192,76733,128,0,76891:0:0:0:0:
213,192,76733,128,0,76891:0:0:0:0:
128,192,77050,1,0,0:0:0:0:
42,192,77209,128,0,77844:0:0:0:0:
298,192,77844,1,0,0:0:0:0:
213,192,77844,1,0,0:0:0:0:
213,192,78003,128,0,78161:0:0:0:0:
298,192,78003,128,0,78161:0:0:0:0:
384,192,78320,1,0,0:0:0:0:
469,192,78479,128,0,79114:0:0:0:0:
128,192,79114,1,0,0:0:0:0:
42,192,79114,1,0,0:0:0:0:
42,192,79272,128,0,79431:0:0:0:0:
128,192,79272,128,0,79431:0:0:0:0:
213,192,79590,1,0,0:0:0:0:
298,192,79749,128,0,80384:0:0:0:0:
384,192,80384,1,0,0:0:0:0:
469,192,80384,1,0,0:0:0:0:
469,192,80542,128,0,80701:0:0:0:0:
384,192,80542,128,0,80701:0:0:0:0:
298,192,80860,1,0,0:0:0:0:
213,192,81018,128,0,81653:0:0:0:0:
42,192,81653,1,0,0:0:0:0:
128,192,81653,1,0,0:0:0:0:
42,192,81812,128,0,81971:0:0:0:0:
128,192,81812,128,0,81971:0:0:0:0:
213,192,82130,1,0,0:0:0:0:
469,192,82288,1,0,0:0:0:0:
298,192,82288,1,0,0:0:0:0:
213,192,82447,1,0,0:0:0:0:
298,192,82606,1,0,0:0:0:0:
128,192,82606,1,0,0:0:0:0:
213,192,82764,1,0,0:0:0:0:
384,192,82923,1,0,0:0:0:0:
469,192,82923,1,0,0:0:0:0:
384,192,83082,128,0,83241:0:0:0:0:
469,192,83082,128,0,83241:0:0:0:0:
298,192,83399,1,0,0:0:0:0:
213,192,83558,1,0,0:0:0:0:
42,192,83558,1,0,0:0:0:0:
298,192,83717,1,0,0:0:0:0:
384,192,83876,1,0,0:0:0:0:
213,192,83876,1,0,0:0:0:0:
298,192,84034,1,0,0:0:0:0:
213,192,84193,1,0,0:0:0:0:
298,192,84352,1,0,0:0:0:0:
384,192,84511,1,0,0:0:0:0:
128,192,84669,128,0,84987:0:0:0:0:
42,192,84987,128,0,85304:0:0:0:0:
469,192,85304,1,0,0:0:0:0:
384,192,85463,1,0,0:0:0:0:
298,192,85622,1,0,0:0:0:0:
213,192,85939,128,0,86098:0:0:0:0:
298,192,85939,128,0,86098:0:0:0:0:
42,192,86098,128,0,86257:0:0:0:0:
469,192,86098,128,0,86257:0:0:0:0:
128,192,86257,128,0,86415:0:0:0:0:
384,192,86257,128,0,86415:0:0:0:0:
213,192,86415,128,0,86574:0:0:0:0:
298,192,86415,128,0,86574:0:0:0:0:
128,192,86574,128,0,86733:0:0:0:0:
384,192,86574,128,0,86733:0:0:0:0:
