osu file format v14

[General]
AudioFilename: audio.mp3
AudioLeadIn: 0
PreviewTime: -1
Countdown: 1
SampleSet: None
StackLeniency: 0.7
Mode: 3
LetterboxInBreaks: 0
SpecialStyle: 0
WidescreenStoryboard: 0

[Editor]
DistanceSpacing: 0.9
BeatDivisor: 2
GridSize: 32
TimelineZoom: 1.7

[Metadata]
Title:Datte Atashi No Hero (TV Size)
TitleUnicode:Datte Atashi No Hero (TV Size)
Artist:LiSA
ArtistUnicode:LiSA
Creator:Wixdom
Version:Race!
Source:
Tags:
BeatmapID:1737186
BeatmapSetID:829153

[Difficulty]
HPDrainRate:5
CircleSize:4
OverallDifficulty:5
ApproachRate:5
SliderMultiplier:1.4
SliderTickRate:1

[Events]
//Background and Video events
0,0,"bg2.jpg",0,0
//Break Periods
//Storyboard Layer 0 (Background)
//Storyboard Layer 1 (Fail)
//Storyboard Layer 2 (Pass)
//Storyboard Layer 3 (Foreground)
//Storyboard Sound Samples

[TimingPoints]
140,317.460317460317,4,3,0,100,1,0
140,-95.2380952380952,4,3,0,100,0,0
35199,-95.2380952380952,4,1,0,100,0,0
35437,-95.2380952380952,4,3,0,100,0,0
48373,-90.9090909090909,4,3,0,100,0,1
57262,-95.2380952380952,4,3,0,100,0,0
58056,-95.2380952380952,4,1,0,100,0,0
58294,-95.2380952380952,4,3,0,100,0,0
58532,-90.9090909090909,4,3,0,100,0,1
71231,-100,4,3,0,100,0,1
72500,-95.2380952380952,4,3,0,100,0,0
73770,-100,4,3,0,100,0,0

[HitObjects]
64,192,5219,5,0,0:0:0:0:
192,192,5378,1,0,0:0:0:0:
320,192,5536,1,0,0:0:0:0:
448,192,5695,1,0,0:0:0:0:
64,192,6013,1,0,0:0:0:0:
192,192,6330,1,0,0:0:0:0:
320,192,6489,1,0,0:0:0:0:
448,192,6647,1,0,0:0:0:0:
64,192,6965,1,0,0:0:0:0:
320,192,7124,128,0,7441:0:0:0:0:
448,192,7441,128,0,7759:0:0:0:0:
64,192,7759,1,0,0:0:0:0:
192,192,7917,1,0,0:0:0:0:
320,192,8076,1,0,0:0:0:0:
448,192,8235,1,0,0:0:0:0:
64,192,8552,1,0,0:0:0:0:
192,192,8870,1,0,0:0:0:0:
64,192,9028,1,0,0:0:0:0:
192,192,9187,1,0,0:0:0:0:
320,192,9505,1,0,0:0:0:0:
64,192,9663,1,0,0:0:0:0:
448,192,9822,1,0,0:0:0:0:
64,192,10298,1,0,0:0:0:0:
448,192,10457,1,0,0:0:0:0:
320,192,10616,1,0,0:0:0:0:
64,192,10774,1,0,0:0:0:0:
192,192,11092,1,0,0:0:0:0:
320,192,11409,1,0,0:0:0:0:
448,192,11568,1,0,0:0:0:0:
64,192,11727,1,0,0:0:0:0:
448,192,12044,1,0,0:0:0:0:
64,192,12203,1,0,0:0:0:0:
448,192,12362,128,0,12520:0:0:0:0:
320,192,12520,1,0,0:0:0:0:
64,192,12838,128,0,14108:0:0:0:0:
192,192,14108,128,0,15378:0:0:0:0:
320,192,15695,1,0,0:0:0:0:
192,192,15854,1,0,0:0:0:0:
320,192,16013,1,0,0:0:0:0:
448,192,16489,1,0,0:0:0:0:
192,192,16647,1,0,0:0:0:0:
320,192,16806,1,0,0:0:0:0:
64,192,16965,1,0,0:0:0:0:
192,192,17124,1,0,0:0:0:0:
320,192,17282,1,0,0:0:0:0:
64,192,17600,1,0,0:0:0:0:
192,192,17917,1,0,0:0:0:0:
320,192,18076,1,0,0:0:0:0:
448,192,18235,1,0,0:0:0:0:
320,192,18393,1,0,0:0:0:0:
448,192,18552,1,0,0:0:0:0:
192,192,18870,1,0,0:0:0:0:
320,192,19187,128,0,19505:0:0:0:0:
192,192,19187,128,0,19505:0:0:0:0:
320,192,19822,1,0,0:0:0:0:
448,192,19981,1,0,0:0:0:0:
64,192,20139,1,0,0:0:0:0:
192,192,20298,1,0,0:0:0:0:
320,192,20774,1,0,0:0:0:0:
192,192,20933,1,0,0:0:0:0:
448,192,21092,1,0,0:0:0:0:
192,192,21251,1,0,0:0:0:0:
192,192,21568,1,0,0:0:0:0:
64,192,21727,1,0,0:0:0:0:
320,192,21886,1,0,0:0:0:0:
192,192,22044,1,0,0:0:0:0:
64,192,22203,128,0,22679:0:0:0:0:
192,192,22679,1,0,0:0:0:0:
320,192,22679,1,0,0:0:0:0:
448,192,22997,128,0,23473:0:0:0:0:
64,192,23473,128,0,23632:0:0:0:0:
192,192,23632,128,0,24266:0:0:0:0:
320,192,24266,1,0,0:0:0:0:
64,192,24425,1,0,0:0:0:0:
192,192,24584,1,0,0:0:0:0:
448,192,24743,128,0,25536:0:0:0:0:
64,192,25854,128,0,26171:0:0:0:0:
320,192,26171,1,0,0:0:0:0:
192,192,26647,1,0,0:0:0:0:
320,192,26806,1,0,0:0:0:0:
192,192,26965,1,0,0:0:0:0:
448,192,27124,1,0,0:0:0:0:
64,192,27282,1,0,0:0:0:0:
192,192,27441,128,0,27759:0:0:0:0:
320,192,27759,1,0,0:0:0:0:
64,192,28076,1,0,0:0:0:0:
320,192,28235,1,0,0:0:0:0:
192,192,28393,1,0,0:0:0:0:
64,192,28552,1,0,0:0:0:0:
448,192,28711,1,0,0:0:0:0:
64,192,29028,1,0,0:0:0:0:
192,192,29346,128,0,29663:0:0:0:0:
320,192,29981,1,0,0:0:0:0:
192,192,30139,1,0,0:0:0:0:
320,192,30298,1,0,0:0:0:0:
448,192,30457,1,0,0:0:0:0:
192,192,30933,1,0,0:0:0:0:
64,192,31092,1,0,0:0:0:0:
320,192,31251,1,0,0:0:0:0:
192,192,31568,1,0,0:0:0:0:
320,192,31886,128,0,32362:0:0:0:0:
192,192,32362,128,0,32520:0:0:0:0:
64,192,32520,128,0,32838:0:0:0:0:
192,192,33155,1,0,0:0:0:0:
320,192,33314,1,0,0:0:0:0:
448,192,33473,1,0,0:0:0:0:
320,192,33632,1,0,0:0:0:0:
64,192,33790,1,0,0:0:0:0:
192,192,34108,1,0,0:0:0:0:
320,192,34425,128,0,35378:0:0:0:0:
64,192,36013,128,0,36330:0:0:0:0:
448,192,36013,128,0,36330:0:0:0:0:
192,192,36330,128,0,36647:0:0:0:0:
320,192,36330,128,0,36647:0:0:0:0:
448,192,36647,128,0,36965:0:0:0:0:
64,192,36965,128,0,37441:0:0:0:0:
192,192,36965,128,0,37441:0:0:0:0:
320,192,37441,1,0,0:0:0:0:
448,192,37600,1,0,0:0:0:0:
64,192,37917,1,0,0:0:0:0:
192,192,38235,1,0,0:0:0:0:
320,192,38393,1,0,0:0:0:0:
64,192,38552,1,0,0:0:0:0:
192,192,38711,1,0,0:0:0:0:
320,192,38870,1,0,0:0:0:0:
448,192,39187,1,0,0:0:0:0:
64,192,39346,1,0,0:0:0:0:
320,192,39505,128,0,39981:0:0:0:0:
192,192,39981,128,0,40139:0:0:0:0:
448,192,40139,128,0,40457:0:0:0:0:
64,192,41092,128,0,41409:0:0:0:0:
192,192,41409,128,0,41727:0:0:0:0:
320,192,41727,128,0,42044:0:0:0:0:
448,192,42044,128,0,42362:0:0:0:0:
64,192,42520,1,0,0:0:0:0:
192,192,42679,1,0,0:0:0:0:
320,192,42997,1,0,0:0:0:0:
192,192,43155,1,0,0:0:0:0:
320,192,43314,1,0,0:0:0:0:
64,192,43473,1,0,0:0:0:0:
448,192,43632,1,0,0:0:0:0:
192,192,43790,1,0,0:0:0:0:
320,192,43949,1,0,0:0:0:0:
64,192,44266,1,0,0:0:0:0:
448,192,44901,1,0,0:0:0:0:
192,192,45219,1,0,0:0:0:0:
448,192,45536,128,0,47124:0:0:0:0:
64,192,45536,128,0,47124:0:0:0:0:
192,192,45536,128,0,47124:0:0:0:0:
320,192,45536,128,0,47124:0:0:0:0:
64,192,48393,1,0,0:0:0:0:
448,192,48393,1,0,0:0:0:0:
64,192,48870,1,0,0:0:0:0:
320,192,48870,1,0,0:0:0:0:
192,192,49028,1,0,0:0:0:0:
448,192,49028,1,0,0:0:0:0:
448,192,49505,1,0,0:0:0:0:
192,192,49505,1,0,0:0:0:0:
320,192,49663,1,0,0:0:0:0:
64,192,49663,1,0,0:0:0:0:
192,192,49981,1,0,0:0:0:0:
320,192,50139,1,0,0:0:0:0:
448,192,50298,1,0,0:0:0:0:
320,192,50457,1,0,0:0:0:0:
192,192,50616,1,0,0:0:0:0:
64,192,50774,1,0,0:0:0:0:
320,192,50933,1,0,0:0:0:0:
448,192,50933,1,0,0:0:0:0:
192,192,51251,1,0,0:0:0:0:
64,192,51251,1,0,0:0:0:0:
320,192,51568,1,0,0:0:0:0:
448,192,51568,1,0,0:0:0:0:
64,192,51886,1,0,0:0:0:0:
192,192,51886,1,0,0:0:0:0:
448,192,52203,1,0,0:0:0:0:
320,192,52203,1,0,0:0:0:0:
64,192,52838,128,0,53155:0:0:0:0:
192,192,53155,128,0,53473:0:0:0:0:
448,192,53473,1,0,0:0:0:0:
320,192,53632,1,0,0:0:0:0:
192,192,53790,1,0,0:0:0:0:
64,192,53949,1,0,0:0:0:0:
448,192,54266,1,0,0:0:0:0:
320,192,54425,128,0,55060:0:0:0:0:
64,192,55378,128,0,55695:0:0:0:0:
192,192,55695,128,0,56013:0:0:0:0:
448,192,56013,1,0,0:0:0:0:
320,192,56171,1,0,0:0:0:0:
64,192,56330,1,0,0:0:0:0:
192,192,56489,1,0,0:0:0:0:
320,192,56806,1,0,0:0:0:0:
64,192,56965,1,0,0:0:0:0:
192,192,57124,128,0,57917:0:0:0:0:
64,192,58552,1,0,0:0:0:0:
192,192,58552,1,0,0:0:0:0:
320,192,59028,1,0,0:0:0:0:
64,192,59028,1,0,0:0:0:0:
192,192,59187,1,0,0:0:0:0:
448,192,59187,1,0,0:0:0:0:
192,192,59663,1,0,0:0:0:0:
320,192,59663,1,0,0:0:0:0:
448,192,59822,1,0,0:0:0:0:
64,192,59822,1,0,0:0:0:0:
320,192,60139,1,0,0:0:0:0:
64,192,60298,1,0,0:0:0:0:
320,192,60457,1,0,0:0:0:0:
192,192,60616,1,0,0:0:0:0:
448,192,60774,1,0,0:0:0:0:
192,192,60933,1,0,0:0:0:0:
64,192,61092,1,0,0:0:0:0:
448,192,61092,1,0,0:0:0:0:
192,192,61409,1,0,0:0:0:0:
320,192,61409,1,0,0:0:0:0:
64,192,61727,1,0,0:0:0:0:
192,192,61727,1,0,0:0:0:0:
320,192,62044,1,0,0:0:0:0:
448,192,62044,1,0,0:0:0:0:
192,192,62362,1,0,0:0:0:0:
320,192,62362,1,0,0:0:0:0:
64,192,62997,1,0,0:0:0:0:
192,192,62997,1,0,0:0:0:0:
64,192,63314,1,0,0:0:0:0:
320,192,63314,1,0,0:0:0:0:
192,192,63632,1,0,0:0:0:0:
320,192,63790,1,0,0:0:0:0:
192,192,63949,1,0,0:0:0:0:
64,192,64108,1,0,0:0:0:0:
192,192,64425,1,0,0:0:0:0:
320,192,64584,128,0,65219:0:0:0:0:
64,192,65536,128,0,65854:0:0:0:0:
192,192,65854,128,0,66171:0:0:0:0:
448,192,66171,1,0,0:0:0:0:
320,192,66330,1,0,0:0:0:0:
192,192,66489,1,0,0:0:0:0:
64,192,66647,1,0,0:0:0:0:
192,192,66965,1,0,0:0:0:0:
320,192,67124,128,0,68076:0:0:0:0:
64,192,68393,1,0,0:0:0:0:
192,192,68711,128,0,69346:0:0:0:0:
320,192,69346,128,0,69981:0:0:0:0:
64,192,69981,128,0,70457:0:0:0:0:
192,192,70457,128,0,70933:0:0:0:0:
320,192,70933,128,0,71886:0:0:0:0:
64,192,72362,1,0,0:0:0:0:
192,192,72520,1,0,0:0:0:0:
448,192,72838,1,0,0:0:0:0:
320,192,72997,1,0,0:0:0:0:
192,192,73155,128,0,73473:0:0:0:0:
64,192,73790,1,0,0:0:0:0:
192,192,73949,1,0,0:0:0:0:
320,192,74266,1,0,0:0:0:0:
448,192,74425,1,0,0:0:0:0:
320,192,74584,1,0,0:0:0:0:
192,192,74901,1,0,0:0:0:0:
320,192,75060,1,0,0:0:0:0:
448,192,75219,1,0,0:0:0:0:
64,192,75536,1,0,0:0:0:0:
192,192,75695,1,0,0:0:0:0:
64,192,75854,1,0,0:0:0:0:
192,192,76171,1,0,0:0:0:0:
320,192,76330,1,0,0:0:0:0:
192,192,76489,1,0,0:0:0:0:
64,192,76806,1,0,0:0:0:0:
448,192,76965,1,0,0:0:0:0:
320,192,77124,1,0,0:0:0:0:
192,192,77441,1,0,0:0:0:0:
64,192,77600,1,0,0:0:0:0:
320,192,77759,1,0,0:0:0:0:
64,192,78076,1,0,0:0:0:0:
448,192,78235,1,0,0:0:0:0:
192,192,78393,1,0,0:0:0:0:
192,192,78870,128,0,79346:0:0:0:0:
320,192,79346,1,0,0:0:0:0:
192,192,79505,128,0,79981:0:0:0:0:
320,192,79981,1,0,0:0:0:0:
192,192,80139,128,0,80457:0:0:0:0:
448,192,80457,128,0,80774:0:0:0:0:
64,192,80774,128,0,81092:0:0:0:0:
320,192,81092,128,0,83949:0:0:0:0:
192,192,81409,128,0,83949:0:0:0:0:
64,192,83949,1,0,0:0:0:0:
192,192,84108,1,0,0:0:0:0:
320,192,84266,1,0,0:0:0:0:
448,192,84425,1,0,0:0:0:0:
64,192,84743,1,0,0:0:0:0:
192,192,85060,1,0,0:0:0:0:
320,192,85219,1,0,0:0:0:0:
192,192,85378,1,0,0:0:0:0:
448,192,85695,1,0,0:0:0:0:
192,192,85854,128,0,86013:0:0:0:0:
320,192,86013,128,0,86330:0:0:0:0:
64,192,86330,128,0,86806:0:0:0:0:
448,192,86330,128,0,86806:0:0:0:0:
