osu file format v14

[General]
AudioFilename: audio.mp3
AudioLeadIn: 0
PreviewTime: -1
Countdown: 1
SampleSet: None
StackLeniency: 0.7
Mode: 3
LetterboxInBreaks: 0
SpecialStyle: 0
WidescreenStoryboard: 1

[Editor]
DistanceSpacing: 0.9
BeatDivisor: 4
GridSize: 32
TimelineZoom: 1.7

[Metadata]
Title:Datte Atashi No Hero (TV Size)
TitleUnicode:Datte Atashi No Hero (TV Size)
Artist:LiSA
ArtistUnicode:LiSA
Creator:Wixdom
Version:AP NUKE!
Source:
Tags:
BeatmapID:1737183
BeatmapSetID:829153

[Difficulty]
HPDrainRate:5
CircleSize:4
OverallDifficulty:5
ApproachRate:5
SliderMultiplier:1.4
SliderTickRate:1

[Events]
//Background and Video events
0,0,"Kacchan.png",0,0
//Break Periods
//Storyboard Layer 0 (Background)
//Storyboard Layer 1 (Fail)
//Storyboard Layer 2 (Pass)
//Storyboard Layer 3 (Foreground)
//Storyboard Sound Samples

[TimingPoints]
140,317.460317460317,4,3,0,100,1,0
140,-95.2380952380952,4,3,0,100,0,0
15526,-95.2380952380952,4,2,0,25,0,0
19971,-95.2380952380952,4,3,0,100,0,0
20129,-95.2380952380952,4,2,0,25,0,0
22987,-95.2380952380952,4,3,0,25,0,0
25209,-95.2380952380952,4,3,0,75,0,0
33145,-95.2380952380952,4,1,0,75,0,0
35199,-95.2380952380952,4,1,0,100,0,0
35437,-95.2380952380952,4,3,0,100,0,0
48373,-90.9090909090909,4,3,0,100,0,1
57262,-95.2380952380952,4,3,0,100,0,0
58056,-95.2380952380952,4,1,0,100,0,0
58294,-95.2380952380952,4,3,0,100,0,0
58532,-90.9090909090909,4,3,0,100,0,1
71231,-100,4,3,0,100,0,1
72500,-95.2380952380952,4,3,0,100,0,0
73770,-100,4,3,0,100,0,0

[HitObjects]
64,192,140,5,0,0:0:0:0:
192,192,298,1,0,0:0:0:0:
320,192,457,1,0,0:0:0:0:
64,192,616,1,0,0:0:0:0:
320,192,933,128,0,1251:0:0:0:0:
448,192,933,128,0,1251:0:0:0:0:
64,192,1251,1,0,0:0:0:0:
192,192,1409,1,0,0:0:0:0:
320,192,1409,1,0,0:0:0:0:
448,192,1568,1,0,0:0:0:0:
320,192,1568,1,0,0:0:0:0:
64,192,1886,1,0,0:0:0:0:
192,192,1886,1,0,0:0:0:0:
320,192,2044,1,0,0:0:0:0:
448,192,2044,1,0,0:0:0:0:
320,192,2203,1,0,0:0:0:0:
192,192,2282,1,0,0:0:0:0:
64,192,2362,128,0,2679:0:0:0:0:
192,192,2679,1,0,0:0:0:0:
320,192,2838,1,0,0:0:0:0:
448,192,2997,1,0,0:0:0:0:
64,192,3155,1,0,0:0:0:0:
192,192,3155,1,0,0:0:0:0:
320,192,3473,128,0,3790:0:0:0:0:
448,192,3473,1,0,0:0:0:0:
64,192,3790,1,0,0:0:0:0:
192,192,3949,1,0,0:0:0:0:
320,192,4108,1,0,0:0:0:0:
448,192,4108,1,0,0:0:0:0:
192,192,4425,1,0,0:0:0:0:
64,192,4584,1,0,0:0:0:0:
192,192,4743,1,0,0:0:0:0:
320,192,4743,1,0,0:0:0:0:
64,192,5219,1,0,0:0:0:0:
192,192,5219,1,0,0:0:0:0:
448,192,5378,1,0,0:0:0:0:
192,192,5536,1,0,0:0:0:0:
320,192,5536,1,0,0:0:0:0:
64,192,5695,1,0,0:0:0:0:
64,192,6013,1,0,0:0:0:0:
192,192,6330,1,0,0:0:0:0:
448,192,6489,1,0,0:0:0:0:
192,192,6647,1,0,0:0:0:0:
64,192,6647,1,0,0:0:0:0:
192,192,6965,1,0,0:0:0:0:
320,192,6965,1,0,0:0:0:0:
448,192,7124,1,0,0:0:0:0:
64,192,7282,1,0,0:0:0:0:
192,192,7362,1,0,0:0:0:0:
320,192,7441,128,0,7759:0:0:0:0:
64,192,7759,1,0,0:0:0:0:
448,192,7917,1,0,0:0:0:0:
192,192,8076,1,0,0:0:0:0:
320,192,8076,1,0,0:0:0:0:
64,192,8235,1,0,0:0:0:0:
192,192,8552,128,0,8870:0:0:0:0:
320,192,8870,1,0,0:0:0:0:
448,192,9028,1,0,0:0:0:0:
64,192,9028,1,0,0:0:0:0:
320,192,9187,1,0,0:0:0:0:
64,192,9505,1,0,0:0:0:0:
192,192,9663,1,0,0:0:0:0:
320,192,9663,1,0,0:0:0:0:
448,192,9822,1,0,0:0:0:0:
192,192,10298,1,0,0:0:0:0:
448,192,10298,1,0,0:0:0:0:
320,192,10457,1,0,0:0:0:0:
64,192,10616,1,0,0:0:0:0:
448,192,10616,1,0,0:0:0:0:
192,192,10774,1,0,0:0:0:0:
448,192,11092,1,0,0:0:0:0:
64,192,11409,1,0,0:0:0:0:
192,192,11568,1,0,0:0:0:0:
320,192,11568,1,0,0:0:0:0:
448,192,11727,1,0,0:0:0:0:
64,192,12044,1,0,0:0:0:0:
320,192,12203,1,0,0:0:0:0:
192,192,12203,1,0,0:0:0:0:
64,192,12362,1,0,0:0:0:0:
448,192,12441,1,0,0:0:0:0:
320,192,12520,1,0,0:0:0:0:
64,192,12838,128,0,12997:0:0:0:0:
192,192,12997,128,0,13155:0:0:0:0:
320,192,13155,128,0,13314:0:0:0:0:
448,192,13314,128,0,13473:0:0:0:0:
192,192,13473,128,0,13632:0:0:0:0:
320,192,13632,128,0,13790:0:0:0:0:
448,192,13790,128,0,13949:0:0:0:0:
64,192,13949,128,0,14108:0:0:0:0:
192,192,14108,128,0,14266:0:0:0:0:
448,192,14266,128,0,14425:0:0:0:0:
320,192,14425,128,0,14584:0:0:0:0:
192,192,14584,128,0,15378:0:0:0:0:
448,192,14743,1,0,0:0:0:0:
320,192,14901,128,0,15378:0:0:0:0:
448,192,15378,1,0,0:0:0:0:
64,192,15378,1,0,0:0:0:0:
448,192,15695,1,0,0:0:0:0:
192,192,15695,1,0,0:0:0:0:
64,192,15695,1,0,0:0:0:0:
192,192,16013,1,0,0:0:0:0:
320,192,16013,1,0,0:0:0:0:
448,192,16013,1,0,0:0:0:0:
64,192,16330,1,0,0:0:0:0:
320,192,16330,1,0,0:0:0:0:
192,192,16330,1,0,0:0:0:0:
192,192,16647,1,0,0:0:0:0:
64,192,16647,1,0,0:0:0:0:
448,192,16647,1,0,0:0:0:0:
448,192,16965,1,0,0:0:0:0:
320,192,16965,1,0,0:0:0:0:
64,192,16965,1,0,0:0:0:0:
64,192,17282,1,0,0:0:0:0:
192,192,17282,1,0,0:0:0:0:
448,192,17282,1,0,0:0:0:0:
64,192,17600,1,0,0:0:0:0:
448,192,17600,1,0,0:0:0:0:
320,192,17600,1,0,0:0:0:0:
448,192,17917,1,0,0:0:0:0:
320,192,17917,1,0,0:0:0:0:
192,192,17917,1,0,0:0:0:0:
64,192,18235,1,0,0:0:0:0:
192,192,18235,1,0,0:0:0:0:
448,192,18235,1,0,0:0:0:0:
64,192,18552,1,0,0:0:0:0:
192,192,18552,1,0,0:0:0:0:
320,192,18552,1,0,0:0:0:0:
64,192,18870,1,0,0:0:0:0:
320,192,18870,1,0,0:0:0:0:
448,192,18870,1,0,0:0:0:0:
64,192,19187,1,0,0:0:0:0:
448,192,19187,1,0,0:0:0:0:
320,192,19187,1,0,0:0:0:0:
64,192,19505,1,0,0:0:0:0:
192,192,19505,1,0,0:0:0:0:
320,192,19505,1,0,0:0:0:0:
448,192,19822,1,0,0:0:0:0:
320,192,19822,1,0,0:0:0:0:
192,192,19822,1,0,0:0:0:0:
64,192,19981,1,0,0:0:0:0:
192,192,20139,1,0,0:0:0:0:
448,192,20139,1,0,0:0:0:0:
64,192,20457,1,0,0:0:0:0:
192,192,20457,1,0,0:0:0:0:
448,192,20457,1,0,0:0:0:0:
192,192,20774,1,0,0:0:0:0:
320,192,20774,1,0,0:0:0:0:
448,192,20774,1,0,0:0:0:0:
192,192,21092,1,0,0:0:0:0:
320,192,21092,1,0,0:0:0:0:
64,192,21092,1,0,0:0:0:0:
448,192,21409,1,0,0:0:0:0:
320,192,21409,1,0,0:0:0:0:
64,192,21409,1,0,0:0:0:0:
64,192,21727,1,0,0:0:0:0:
192,192,21727,1,0,0:0:0:0:
320,192,21727,1,0,0:0:0:0:
192,192,22044,1,0,0:0:0:0:
64,192,22044,1,0,0:0:0:0:
448,192,22044,1,0,0:0:0:0:
448,192,22362,1,0,0:0:0:0:
320,192,22362,1,0,0:0:0:0:
64,192,22362,1,0,0:0:0:0:
192,192,22679,128,0,22997:0:0:0:0:
64,192,22679,1,0,0:0:0:0:
320,192,22679,1,0,0:0:0:0:
448,192,22679,1,0,0:0:0:0:
320,192,22997,128,0,23473:0:0:0:0:
448,192,22997,1,0,0:0:0:0:
64,192,22997,1,0,0:0:0:0:
448,192,23473,128,0,23632:0:0:0:0:
192,192,23473,1,0,0:0:0:0:
64,192,23473,1,0,0:0:0:0:
192,192,23632,128,0,24266:0:0:0:0:
64,192,23632,1,0,0:0:0:0:
320,192,23632,1,0,0:0:0:0:
320,192,24266,1,0,0:0:0:0:
448,192,24266,1,0,0:0:0:0:
64,192,24266,1,0,0:0:0:0:
320,192,24425,1,0,0:0:0:0:
448,192,24425,1,0,0:0:0:0:
64,192,24584,1,0,0:0:0:0:
192,192,24584,1,0,0:0:0:0:
320,192,24743,1,0,0:0:0:0:
448,192,24743,1,0,0:0:0:0:
64,192,24743,128,0,25219:0:0:0:0:
448,192,25219,1,0,0:0:0:0:
320,192,25298,1,0,0:0:0:0:
192,192,25378,1,0,0:0:0:0:
320,192,25457,1,0,0:0:0:0:
448,192,25536,1,0,0:0:0:0:
192,192,25695,1,0,0:0:0:0:
320,192,25695,1,0,0:0:0:0:
64,192,25854,1,0,0:0:0:0:
192,192,25854,1,0,0:0:0:0:
320,192,26013,1,0,0:0:0:0:
448,192,26013,1,0,0:0:0:0:
64,192,26330,1,0,0:0:0:0:
192,192,26489,1,0,0:0:0:0:
192,192,26806,1,0,0:0:0:0:
320,192,26806,1,0,0:0:0:0:
448,192,26965,1,0,0:0:0:0:
64,192,26965,1,0,0:0:0:0:
192,192,27124,1,0,0:0:0:0:
320,192,27124,1,0,0:0:0:0:
64,192,27282,1,0,0:0:0:0:
192,192,27600,1,0,0:0:0:0:
320,192,27759,1,0,0:0:0:0:
64,192,28076,1,0,0:0:0:0:
320,192,28076,1,0,0:0:0:0:
448,192,28235,1,0,0:0:0:0:
192,192,28235,1,0,0:0:0:0:
320,192,28393,1,0,0:0:0:0:
64,192,28393,1,0,0:0:0:0:
192,192,28552,1,0,0:0:0:0:
320,192,28870,1,0,0:0:0:0:
192,192,29028,1,0,0:0:0:0:
64,192,29346,1,0,0:0:0:0:
192,192,29346,1,0,0:0:0:0:
320,192,29505,1,0,0:0:0:0:
448,192,29505,1,0,0:0:0:0:
192,192,29663,1,0,0:0:0:0:
64,192,29663,1,0,0:0:0:0:
320,192,29822,1,0,0:0:0:0:
448,192,30139,1,0,0:0:0:0:
192,192,30298,1,0,0:0:0:0:
64,192,30616,1,0,0:0:0:0:
448,192,30616,1,0,0:0:0:0:
192,192,30774,1,0,0:0:0:0:
320,192,30774,1,0,0:0:0:0:
64,192,30933,1,0,0:0:0:0:
320,192,30933,1,0,0:0:0:0:
192,192,31092,1,0,0:0:0:0:
64,192,31409,1,0,0:0:0:0:
192,192,31568,1,0,0:0:0:0:
192,192,31886,1,0,0:0:0:0:
448,192,31886,1,0,0:0:0:0:
64,192,32044,1,0,0:0:0:0:
320,192,32044,1,0,0:0:0:0:
192,192,32203,1,0,0:0:0:0:
320,192,32203,1,0,0:0:0:0:
64,192,32362,1,0,0:0:0:0:
320,192,32679,1,0,0:0:0:0:
448,192,32838,1,0,0:0:0:0:
64,192,32838,1,0,0:0:0:0:
64,192,33155,1,0,0:0:0:0:
192,192,33314,1,8,0:0:0:0:
448,192,33314,1,0,0:0:0:0:
320,192,33473,1,0,0:0:0:0:
64,192,33632,1,6,0:0:0:0:
192,192,33790,1,8,0:0:0:0:
320,192,34108,128,0,34425:0:0:0:0:
192,192,34425,128,0,35378:0:0:0:0:
448,192,34425,1,0,0:0:0:0:
64,192,34584,1,0,0:0:0:0:
320,192,34743,1,0,0:0:0:0:
448,192,34901,1,0,0:0:0:0:
64,192,35060,1,0,0:0:0:0:
320,192,35219,1,0,0:0:0:0:
448,192,35378,1,0,0:0:0:0:
192,192,35695,1,0,0:0:0:0:
64,192,35695,1,0,0:0:0:0:
320,192,35695,1,0,0:0:0:0:
448,192,35695,1,0,0:0:0:0:
320,192,35854,1,0,0:0:0:0:
448,192,35854,1,0,0:0:0:0:
192,192,35854,1,0,0:0:0:0:
64,192,35854,1,0,0:0:0:0:
448,192,36013,128,0,36330:0:0:0:0:
320,192,36013,1,0,0:0:0:0:
192,192,36171,1,0,0:0:0:0:
320,192,36330,128,0,36647:0:0:0:0:
64,192,36489,1,0,0:0:0:0:
192,192,36647,128,0,36965:0:0:0:0:
448,192,36647,128,0,36965:0:0:0:0:
64,192,36965,128,0,37282:0:0:0:0:
320,192,36965,1,0,0:0:0:0:
192,192,37124,1,0,0:0:0:0:
448,192,37124,1,0,0:0:0:0:
320,192,37282,1,0,0:0:0:0:
192,192,37441,1,0,0:0:0:0:
320,192,37600,1,0,0:0:0:0:
448,192,37917,1,0,0:0:0:0:
64,192,37917,1,0,0:0:0:0:
64,192,38235,1,0,0:0:0:0:
448,192,38235,1,0,0:0:0:0:
192,192,38393,1,0,0:0:0:0:
320,192,38393,1,0,0:0:0:0:
448,192,38552,1,0,0:0:0:0:
64,192,38552,1,0,0:0:0:0:
448,192,38711,1,0,0:0:0:0:
320,192,38870,1,0,0:0:0:0:
64,192,39187,1,0,0:0:0:0:
192,192,39346,1,0,0:0:0:0:
320,192,39505,1,0,0:0:0:0:
448,192,39505,1,0,0:0:0:0:
64,192,39663,1,2,0:0:0:0:
192,192,39822,1,8,0:0:0:0:
320,192,39981,1,8,0:0:0:0:
448,192,40139,1,8,0:0:0:0:
320,192,40298,1,8,0:0:0:0:
192,192,40457,1,8,0:0:0:0:
64,192,40616,1,8,0:0:0:0:
192,192,40774,1,0,0:0:0:0:
320,192,40774,1,0,0:0:0:0:
448,192,40774,1,8,0:0:0:0:
192,192,40933,1,0,0:0:0:0:
320,192,40933,1,0,0:0:0:0:
448,192,40933,1,8,0:0:0:0:
64,192,41092,128,0,41409:0:0:0:0:
192,192,41092,1,0,0:0:0:0:
320,192,41251,1,0,0:0:0:0:
192,192,41409,128,0,41727:0:0:0:0:
448,192,41568,1,0,0:0:0:0:
320,192,41727,128,0,42044:0:0:0:0:
448,192,42044,128,0,42362:0:0:0:0:
192,192,42044,1,0,0:0:0:0:
64,192,42044,1,0,0:0:0:0:
192,192,42203,1,0,0:0:0:0:
320,192,42203,1,0,0:0:0:0:
192,192,42362,1,0,0:0:0:0:
64,192,42362,1,0,0:0:0:0:
320,192,42520,1,0,0:0:0:0:
448,192,42679,1,0,0:0:0:0:
64,192,42679,1,0,0:0:0:0:
192,192,42997,1,0,0:0:0:0:
448,192,43155,1,0,0:0:0:0:
192,192,43314,1,0,0:0:0:0:
64,192,43314,128,0,43790:0:0:0:0:
320,192,43790,1,0,0:0:0:0:
448,192,43790,128,0,44266:0:0:0:0:
320,192,44266,1,0,0:0:0:0:
64,192,44266,128,0,44584:0:0:0:0:
192,192,44584,1,0,0:0:0:0:
448,192,44584,128,0,45060:0:0:0:0:
320,192,45060,1,0,0:0:0:0:
192,192,45060,128,0,45536:0:0:0:0:
64,192,45536,1,0,0:0:0:0:
448,192,45536,128,0,45854:0:0:0:0:
192,192,45854,1,0,0:0:0:0:
320,192,45854,1,0,0:0:0:0:
320,192,46013,1,0,0:0:0:0:
192,192,46013,1,0,0:0:0:0:
192,192,46171,1,0,0:0:0:0:
320,192,46171,1,0,0:0:0:0:
448,192,46330,1,0,0:0:0:0:
320,192,46330,1,0,0:0:0:0:
64,192,46647,1,0,0:0:0:0:
192,192,46647,1,0,0:0:0:0:
448,192,46965,1,0,0:0:0:0:
192,192,46965,1,0,0:0:0:0:
320,192,47124,1,0,0:0:0:0:
64,192,47124,1,0,0:0:0:0:
192,192,47282,1,0,0:0:0:0:
448,192,47282,1,0,0:0:0:0:
320,192,47600,1,0,0:0:0:0:
192,192,47600,1,0,0:0:0:0:
64,192,47759,1,0,0:0:0:0:
192,192,47759,1,0,0:0:0:0:
448,192,47917,1,0,0:0:0:0:
320,192,47997,1,0,0:0:0:0:
192,192,48076,1,0,0:0:0:0:
192,192,48235,1,0,0:0:0:0:
320,192,48314,1,0,0:0:0:0:
448,192,48393,1,0,0:0:0:0:
64,192,48393,1,0,0:0:0:0:
64,192,48711,1,0,0:0:0:0:
192,192,48711,1,0,0:0:0:0:
320,192,48870,1,0,0:0:0:0:
192,192,49028,1,0,0:0:0:0:
448,192,49028,1,0,0:0:0:0:
320,192,49346,1,0,0:0:0:0:
192,192,49346,1,0,0:0:0:0:
64,192,49505,1,0,0:0:0:0:
192,192,49505,1,0,0:0:0:0:
320,192,49663,1,0,0:0:0:0:
448,192,49663,1,0,0:0:0:0:
64,192,49981,1,0,0:0:0:0:
320,192,49981,1,0,0:0:0:0:
192,192,50139,1,0,0:0:0:0:
320,192,50298,1,0,0:0:0:0:
448,192,50298,1,0,0:0:0:0:
64,192,50457,1,0,0:0:0:0:
192,192,50616,1,0,0:0:0:0:
320,192,50616,1,0,0:0:0:0:
448,192,50774,1,0,0:0:0:0:
64,192,50933,1,0,0:0:0:0:
192,192,50933,1,0,0:0:0:0:
448,192,51092,1,0,0:0:0:0:
192,192,51251,1,0,0:0:0:0:
320,192,51251,1,0,0:0:0:0:
64,192,51409,1,0,0:0:0:0:
192,192,51568,1,0,0:0:0:0:
448,192,51568,1,0,0:0:0:0:
320,192,51727,1,0,0:0:0:0:
64,192,51886,1,0,0:0:0:0:
192,192,51886,1,0,0:0:0:0:
448,192,52044,1,0,0:0:0:0:
192,192,52203,1,0,0:0:0:0:
64,192,52203,1,0,0:0:0:0:
320,192,52520,1,0,0:0:0:0:
448,192,52520,1,0,0:0:0:0:
192,192,52838,1,0,0:0:0:0:
448,192,52997,1,0,0:0:0:0:
320,192,53076,1,0,0:0:0:0:
192,192,53155,1,0,0:0:0:0:
192,192,53314,1,0,0:0:0:0:
64,192,53393,1,0,0:0:0:0:
320,192,53473,1,0,0:0:0:0:
448,192,53473,128,0,53632:0:0:0:0:
320,192,53632,128,0,53790:0:0:0:0:
448,192,53790,128,0,53949:0:0:0:0:
192,192,53949,1,0,0:0:0:0:
64,192,53949,1,0,0:0:0:0:
320,192,53949,128,0,54108:0:0:0:0:
448,192,54108,128,0,54266:0:0:0:0:
320,192,54266,128,0,54425:0:0:0:0:
448,192,54425,128,0,54743:0:0:0:0:
192,192,54425,1,0,0:0:0:0:
64,192,54425,1,0,0:0:0:0:
192,192,54743,128,0,54901:0:0:0:0:
320,192,54901,128,0,55060:0:0:0:0:
448,192,55060,128,0,55219:0:0:0:0:
320,192,55219,128,0,55378:0:0:0:0:
192,192,55536,128,0,56013:0:0:0:0:
64,192,56013,128,0,56171:0:0:0:0:
448,192,56013,1,0,0:0:0:0:
320,192,56013,1,0,0:0:0:0:
192,192,56171,128,0,56330:0:0:0:0:
64,192,56330,128,0,56489:0:0:0:0:
320,192,56489,1,0,0:0:0:0:
448,192,56489,1,0,0:0:0:0:
192,192,56489,128,0,56806:0:0:0:0:
64,192,56806,128,0,56965:0:0:0:0:
320,192,56965,1,0,0:0:0:0:
448,192,56965,1,0,0:0:0:0:
192,192,56965,128,0,57124:0:0:0:0:
320,192,57124,128,0,57917:0:0:0:0:
64,192,57282,1,0,0:0:0:0:
448,192,57441,128,0,57917:0:0:0:0:
192,192,57600,128,0,57917:0:0:0:0:
64,192,57759,128,0,57917:0:0:0:0:
320,192,58076,128,0,58552:0:0:0:0:
192,192,58076,128,0,58552:0:0:0:0:
448,192,58552,1,0,0:0:0:0:
64,192,58552,1,0,0:0:0:0:
192,192,58870,1,0,0:0:0:0:
320,192,58870,1,0,0:0:0:0:
448,192,59028,1,0,0:0:0:0:
320,192,59028,1,0,0:0:0:0:
192,192,59187,1,0,0:0:0:0:
64,192,59187,1,0,0:0:0:0:
320,192,59505,1,0,0:0:0:0:
448,192,59505,1,0,0:0:0:0:
192,192,59663,1,0,0:0:0:0:
64,192,59663,1,0,0:0:0:0:
320,192,59822,1,0,0:0:0:0:
448,192,59822,1,0,0:0:0:0:
192,192,60139,1,0,0:0:0:0:
448,192,60139,1,0,0:0:0:0:
64,192,60298,1,0,0:0:0:0:
192,192,60457,1,0,0:0:0:0:
320,192,60457,1,0,0:0:0:0:
320,192,60616,1,0,0:0:0:0:
448,192,60774,1,0,0:0:0:0:
64,192,60774,1,0,0:0:0:0:
320,192,60933,1,0,0:0:0:0:
192,192,61092,1,0,0:0:0:0:
320,192,61092,1,0,0:0:0:0:
448,192,61092,1,0,0:0:0:0:
64,192,61409,1,0,0:0:0:0:
320,192,61409,1,0,0:0:0:0:
448,192,61409,1,0,0:0:0:0:
192,192,61727,1,0,0:0:0:0:
320,192,61727,1,0,0:0:0:0:
448,192,61727,1,0,0:0:0:0:
64,192,62044,1,0,0:0:0:0:
192,192,62044,1,0,0:0:0:0:
320,192,62044,1,0,0:0:0:0:
192,192,62362,1,0,0:0:0:0:
64,192,62362,1,0,0:0:0:0:
448,192,62362,1,0,0:0:0:0:
320,192,62362,128,0,62679:0:0:0:0:
192,192,62520,1,0,0:0:0:0:
64,192,62679,1,0,0:0:0:0:
448,192,62838,128,0,63314:0:0:0:0:
64,192,62997,128,0,63314:0:0:0:0:
192,192,63314,128,0,63632:0:0:0:0:
320,192,63632,128,0,63790:0:0:0:0:
448,192,63790,128,0,63949:0:0:0:0:
320,192,63949,128,0,64108:0:0:0:0:
192,192,64108,128,0,64425:0:0:0:0:
320,192,64425,128,0,64584:0:0:0:0:
448,192,64584,128,0,65219:0:0:0:0:
64,192,64584,128,0,65060:0:0:0:0:
192,192,65060,128,0,65219:0:0:0:0:
320,192,65219,128,0,65378:0:0:0:0:
448,192,65378,128,0,65536:0:0:0:0:
192,192,65536,1,0,0:0:0:0:
320,192,65536,1,0,0:0:0:0:
64,192,65695,128,0,66171:0:0:0:0:
320,192,65854,1,0,0:0:0:0:
448,192,65854,1,0,0:0:0:0:
192,192,66013,1,0,0:0:0:0:
320,192,66171,1,0,0:0:0:0:
448,192,66171,1,0,0:0:0:0:
192,192,66330,1,0,0:0:0:0:
320,192,66330,1,0,0:0:0:0:
192,192,66489,1,0,0:0:0:0:
64,192,66489,1,0,0:0:0:0:
192,192,66647,1,0,0:0:0:0:
320,192,66647,1,0,0:0:0:0:
320,192,66965,1,0,0:0:0:0:
448,192,66965,1,0,0:0:0:0:
64,192,66965,1,0,0:0:0:0:
192,192,66965,128,0,67124:0:0:0:0:
448,192,67124,1,0,0:0:0:0:
64,192,67124,1,0,0:0:0:0:
320,192,67124,128,0,67600:0:0:0:0:
192,192,67600,1,0,0:0:0:0:
64,192,67600,1,0,0:0:0:0:
448,192,67600,128,0,67917:0:0:0:0:
192,192,67917,1,0,0:0:0:0:
320,192,67917,1,0,0:0:0:0:
64,192,67917,128,0,68076:0:0:0:0:
192,192,68076,1,0,0:0:0:0:
320,192,68076,1,0,0:0:0:0:
448,192,68076,1,0,0:0:0:0:
192,192,68235,1,0,0:0:0:0:
320,192,68314,1,0,0:0:0:0:
448,192,68393,1,0,0:0:0:0:
320,192,68473,1,0,0:0:0:0:
192,192,68552,1,0,0:0:0:0:
64,192,68632,1,0,0:0:0:0:
192,192,68711,1,0,0:0:0:0:
320,192,68711,1,0,0:0:0:0:
320,192,68870,1,0,0:0:0:0:
448,192,68870,1,0,0:0:0:0:
192,192,69028,1,0,0:0:0:0:
64,192,69028,1,0,0:0:0:0:
320,192,69187,1,0,0:0:0:0:
192,192,69187,1,0,0:0:0:0:
320,192,69346,1,0,0:0:0:0:
448,192,69346,1,0,0:0:0:0:
64,192,69505,1,0,0:0:0:0:
192,192,69505,1,0,0:0:0:0:
448,192,69663,1,0,0:0:0:0:
192,192,69663,1,0,0:0:0:0:
64,192,69822,1,0,0:0:0:0:
192,192,69822,1,0,0:0:0:0:
320,192,69981,1,0,0:0:0:0:
448,192,69981,1,0,0:0:0:0:
192,192,70139,1,0,0:0:0:0:
448,192,70139,1,0,0:0:0:0:
192,192,70298,1,0,0:0:0:0:
448,192,70298,1,0,0:0:0:0:
64,192,70457,1,0,0:0:0:0:
192,192,70457,1,0,0:0:0:0:
320,192,70616,1,0,0:0:0:0:
192,192,70616,1,0,0:0:0:0:
320,192,70774,1,0,0:0:0:0:
64,192,70774,1,0,0:0:0:0:
320,192,70933,1,0,0:0:0:0:
448,192,70933,1,0,0:0:0:0:
64,192,71092,1,0,0:0:0:0:
320,192,71092,1,0,0:0:0:0:
448,192,71092,1,0,0:0:0:0:
64,192,71251,1,0,0:0:0:0:
448,192,71251,1,0,0:0:0:0:
64,192,71409,1,0,0:0:0:0:
448,192,71409,1,0,0:0:0:0:
64,192,71568,1,0,0:0:0:0:
448,192,71568,1,0,0:0:0:0:
64,192,71727,1,0,0:0:0:0:
448,192,71727,1,0,0:0:0:0:
64,192,71886,1,0,0:0:0:0:
448,192,71886,1,0,0:0:0:0:
64,192,72044,1,0,0:0:0:0:
448,192,72044,1,0,0:0:0:0:
64,192,72203,1,0,0:0:0:0:
448,192,72203,1,0,0:0:0:0:
192,192,72362,1,0,0:0:0:0:
320,192,72362,1,0,0:0:0:0:
320,192,72520,1,0,0:0:0:0:
448,192,72838,1,0,0:0:0:0:
320,192,72997,1,0,0:0:0:0:
192,192,73155,1,0,0:0:0:0:
64,192,73473,1,0,0:0:0:0:
192,192,73790,1,0,0:0:0:0:
448,192,73790,1,0,0:0:0:0:
320,192,73949,1,0,0:0:0:0:
64,192,73949,1,0,0:0:0:0:
192,192,74266,1,0,0:0:0:0:
320,192,74266,1,0,0:0:0:0:
320,192,74425,1,0,0:0:0:0:
64,192,74425,1,0,0:0:0:0:
192,192,74584,1,0,0:0:0:0:
448,192,74584,1,0,0:0:0:0:
448,192,74901,1,0,0:0:0:0:
320,192,74901,1,0,0:0:0:0:
192,192,74901,1,0,0:0:0:0:
64,192,75060,1,0,0:0:0:0:
64,192,75219,1,0,0:0:0:0:
320,192,75219,1,0,0:0:0:0:
448,192,75219,1,0,0:0:0:0:
320,192,75536,1,0,0:0:0:0:
320,192,75695,1,0,0:0:0:0:
64,192,75695,1,0,0:0:0:0:
64,192,75854,1,0,0:0:0:0:
448,192,75854,1,0,0:0:0:0:
320,192,75854,1,0,0:0:0:0:
64,192,76171,1,0,0:0:0:0:
448,192,76171,1,0,0:0:0:0:
192,192,76330,1,0,0:0:0:0:
320,192,76489,1,0,0:0:0:0:
448,192,76489,1,0,0:0:0:0:
64,192,76489,1,0,0:0:0:0:
448,192,76806,1,0,0:0:0:0:
320,192,76806,1,0,0:0:0:0:
64,192,76965,1,0,0:0:0:0:
192,192,76965,1,0,0:0:0:0:
320,192,77124,1,0,0:0:0:0:
192,192,77124,1,0,0:0:0:0:
64,192,77441,1,0,0:0:0:0:
448,192,77441,1,0,0:0:0:0:
192,192,77600,1,0,0:0:0:0:
320,192,77600,1,0,0:0:0:0:
320,192,77759,1,0,0:0:0:0:
448,192,77759,1,0,0:0:0:0:
192,192,78076,1,0,0:0:0:0:
192,192,78235,1,0,0:0:0:0:
64,192,78235,1,0,0:0:0:0:
448,192,78235,1,0,0:0:0:0:
448,192,78393,1,0,0:0:0:0:
192,192,78393,1,0,0:0:0:0:
64,192,78552,1,8,0:0:0:0:
192,192,78870,1,0,0:0:0:0:
448,192,78870,1,0,0:0:0:0:
320,192,78870,128,0,79346:0:0:0:0:
64,192,79346,1,0,0:0:0:0:
192,192,79346,1,0,0:0:0:0:
320,192,79505,1,0,0:0:0:0:
448,192,79505,1,0,0:0:0:0:
192,192,79505,128,0,79981:0:0:0:0:
320,192,79981,1,0,0:0:0:0:
448,192,79981,1,0,0:0:0:0:
64,192,79981,1,0,0:0:0:0:
192,192,80139,1,0,0:0:0:0:
320,192,80139,1,0,0:0:0:0:
320,192,80457,1,0,0:0:0:0:
448,192,80457,1,0,0:0:0:0:
192,192,80774,1,0,0:0:0:0:
64,192,80774,1,0,0:0:0:0:
320,192,81092,1,0,0:0:0:0:
448,192,81092,1,0,0:0:0:0:
320,192,81409,1,0,0:0:0:0:
448,192,81409,1,0,0:0:0:0:
192,192,81409,128,0,83949:0:0:0:0:
320,192,83949,1,0,0:0:0:0:
64,192,83949,1,0,0:0:0:0:
448,192,84108,1,0,0:0:0:0:
192,192,84108,1,0,0:0:0:0:
320,192,84266,1,0,0:0:0:0:
64,192,84266,1,0,0:0:0:0:
192,192,84425,1,0,0:0:0:0:
320,192,84425,1,0,0:0:0:0:
64,192,84743,1,0,0:0:0:0:
448,192,84743,1,0,0:0:0:0:
320,192,84743,1,0,0:0:0:0:
192,192,85060,1,0,0:0:0:0:
64,192,85060,1,0,0:0:0:0:
320,192,85060,1,0,0:0:0:0:
320,192,85219,1,0,0:0:0:0:
192,192,85219,1,0,0:0:0:0:
64,192,85219,1,0,0:0:0:0:
448,192,85378,1,0,0:0:0:0:
192,192,85378,1,0,0:0:0:0:
320,192,85378,1,0,0:0:0:0:
64,192,85695,1,0,0:0:0:0:
448,192,85695,1,0,0:0:0:0:
192,192,85854,1,0,0:0:0:0:
320,192,85854,1,0,0:0:0:0:
448,192,86013,1,0,0:0:0:0:
320,192,86092,1,0,0:0:0:0:
192,192,86171,1,0,0:0:0:0:
64,192,86330,1,0,0:0:0:0:
192,192,86330,1,0,0:0:0:0:
320,192,86330,1,0,0:0:0:0:
448,192,86330,128,0,86806:0:0:0:0:
