osu file format v14

[General]
AudioFilename: audio.mp3
AudioLeadIn: 0
PreviewTime: 45832
Countdown: 0
SampleSet: Soft
StackLeniency: 0.7
Mode: 0
LetterboxInBreaks: 0
WidescreenStoryboard: 1

[Editor]
Bookmarks: 11726,17089,22452,27815,33178,42899,46586,78765,93430
DistanceSpacing: 1.6
BeatDivisor: 4
GridSize: 32
TimelineZoom: 1.6

[Metadata]
Title:crossing field (TV Size)
TitleUnicode:crossing field (TV Size)
Artist:LiSA
ArtistUnicode:LiSA
Creator:amity
Version:Normal
Source:ソードアート・オンライン
Tags:opening op kirito asuna sword art online pop japanese gillstar gills jasontime12345
BeatmapID:3374100
BeatmapSetID:1557261

[Difficulty]
HPDrainRate:3.6
CircleSize:3
OverallDifficulty:5
ApproachRate:6
SliderMultiplier:0.8
SliderTickRate:1

[Events]
//Background and Video events
0,0,"d9zolrd-eafb68eb-4c7b-498d-bc14-e45bf0652edb.jpg",0,0
//Break Periods
//Storyboard Layer 0 (Background)
//Storyboard Layer 1 (Fail)
//Storyboard Layer 2 (Pass)
//Storyboard Layer 3 (Foreground)
//Storyboard Layer 4 (Overlay)
//Storyboard Sound Samples

[TimingPoints]
-4363,335.195530726257,4,2,1,30,1,0
329,-100,4,2,2,30,0,0
5190,-100,4,2,2,40,0,0
5525,-100,4,2,2,50,0,0
6363,-76.9230769230769,4,2,1,60,0,1
8206,-76.9230769230769,4,2,1,5,0,1
8374,-76.9230769230769,4,2,1,60,0,1
9547,-76.9230769230769,4,2,1,5,0,1
9715,-76.9230769230769,4,2,1,60,0,1
11726,-90.9090909090909,4,2,1,40,0,0
14910,-90.9090909090909,4,2,1,40,0,0
16754,-90.9090909090909,4,2,1,40,0,0
17089,-66.6666666666667,4,2,1,60,0,1
20106,-66.6666666666667,4,2,1,50,0,1
20944,-66.6666666666667,4,2,1,5,0,1
21111,-66.6666666666667,4,2,1,40,0,1
22117,-100,4,2,1,50,0,1
22452,-90.9090909090909,4,2,1,50,0,0
26642,-90.9090909090909,4,2,1,5,0,0
26810,-90.9090909090909,4,2,1,50,0,0
27815,-66.6666666666667,4,2,1,60,0,1
28150,-66.6666666666667,4,2,1,60,0,1
30497,-66.6666666666667,4,2,1,60,0,1
32340,-66.6666666666667,4,2,1,5,0,1
32508,-66.6666666666667,4,2,1,60,0,1
33178,-133.333333333333,4,2,1,50,0,0
38542,-76.9230769230769,4,2,1,50,0,0
38709,-76.9230769230769,4,2,1,50,0,0
39044,-76.9230769230769,4,2,1,50,0,0
39380,-76.9230769230769,4,2,1,50,0,0
39715,-76.9230769230769,4,2,1,50,0,0
41223,-76.9230769230769,4,2,1,30,0,0
41558,-76.9230769230769,4,2,1,40,0,0
41893,-76.9230769230769,4,2,1,50,0,0
42229,-76.9230769230769,4,2,1,60,0,0
42564,-76.9230769230769,4,2,1,50,0,0
43150,-76.9230769230769,4,2,1,5,0,0
43234,-76.9230769230769,4,2,1,50,0,0
43905,-100,4,2,1,50,0,0
44743,-100,4,2,1,5,0,0
44910,-100,4,2,1,50,0,0
46251,-100,4,2,2,50,0,0
46502,-100,4,2,1,5,0,0
46586,-66.6666666666667,4,2,40,70,0,1
46838,-66.6666666666667,4,2,1,5,0,1
46921,-66.6666666666667,4,2,1,70,0,1
47592,-66.6666666666667,4,2,33,70,0,1
47927,-66.6666666666667,4,2,41,70,0,1
48095,-66.6666666666667,4,2,1,70,0,1
48597,-66.6666666666667,4,2,42,70,0,1
49100,-66.6666666666667,4,2,1,70,0,1
49268,-66.6666666666667,4,2,43,70,0,1
49603,-66.6666666666667,4,2,1,70,0,1
50273,-66.6666666666667,4,2,34,70,0,1
50441,-66.6666666666667,4,2,35,70,0,1
50609,-66.6666666666667,4,2,60,70,0,1
50776,-66.6666666666667,4,2,34,70,0,1
51111,-66.6666666666667,4,2,36,70,0,1
51279,-66.6666666666667,4,2,1,70,0,1
51447,-66.6666666666667,4,2,37,70,0,1
51782,-66.6666666666667,4,2,34,70,0,1
51949,-66.6666666666667,4,2,45,70,0,1
52452,-66.6666666666667,4,2,38,70,0,1
52620,-66.6666666666667,4,2,39,70,0,1
53123,-66.6666666666667,4,2,38,70,0,1
53290,-66.6666666666667,4,2,45,70,0,1
53793,-66.6666666666667,4,2,38,70,0,1
53961,-66.6666666666667,4,2,39,70,0,1
54463,-66.6666666666667,4,2,38,70,0,1
54631,-66.6666666666667,4,2,50,70,0,1
54966,-66.6666666666667,4,2,35,70,0,1
55134,-66.6666666666667,4,2,34,70,0,1
55469,-66.6666666666667,4,2,51,70,0,1
55804,-66.6666666666667,4,2,52,70,0,0
56139,-66.6666666666667,4,2,1,70,0,0
56307,-66.6666666666667,4,2,1,70,0,0
56642,-66.6666666666667,4,2,70,70,0,0
56810,-66.6666666666667,4,2,71,70,0,0
56977,-66.6666666666667,4,2,72,70,0,0
57312,-66.6666666666667,4,2,40,70,0,1
57647,-66.6666666666667,4,2,1,70,0,1
58318,-66.6666666666667,4,2,33,70,0,1
58653,-66.6666666666667,4,2,41,70,0,1
58821,-66.6666666666667,4,2,1,70,0,1
59324,-66.6666666666667,4,2,42,70,0,1
59659,-66.6666666666667,4,2,1,70,0,1
59826,-66.6666666666667,4,2,1,70,0,1
59994,-66.6666666666667,4,2,43,70,0,1
60329,-66.6666666666667,4,2,1,70,0,1
61000,-66.6666666666667,4,2,34,70,0,1
61168,-66.6666666666667,4,2,35,70,0,1
61336,-66.6666666666667,4,2,60,70,0,1
61503,-66.6666666666667,4,2,34,70,0,1
61838,-66.6666666666667,4,2,36,70,0,1
62173,-66.6666666666667,4,2,53,70,0,1
62508,-66.6666666666667,4,2,34,70,0,1
62676,-66.6666666666667,4,2,14,70,0,1
63178,-66.6666666666667,4,2,38,70,0,1
63346,-66.6666666666667,4,2,39,70,0,1
63849,-66.6666666666667,4,2,38,70,0,1
64016,-66.6666666666667,4,2,15,70,0,1
64519,-66.6666666666667,4,2,38,70,0,1
64687,-66.6666666666667,4,2,39,70,0,1
65190,-66.6666666666667,4,2,38,70,0,1
65357,-66.6666666666667,4,2,12,70,0,1
65692,-66.6666666666667,4,2,35,70,0,1
65860,-66.6666666666667,4,2,34,70,0,1
66195,-66.6666666666667,4,2,51,70,0,1
66530,-66.6666666666667,4,2,13,70,0,1
66866,-66.6666666666667,4,2,1,70,0,1
67033,-66.6666666666667,4,2,1,70,0,1
67201,-66.6666666666667,4,2,73,70,0,1
67704,-66.6666666666667,4,2,75,70,0,1
67871,-66.6666666666667,4,2,76,70,0,1
68038,-66.6666666666667,4,2,77,70,0,1
68374,-66.6666666666667,4,2,1,70,0,1
69044,-66.6666666666667,4,2,78,70,0,1
69380,-66.6666666666667,4,2,79,70,0,1
69715,-66.6666666666667,4,2,80,70,0,1
70050,-66.6666666666667,4,2,80,70,0,1
70218,-66.6666666666667,4,2,81,70,0,1
70553,-66.6666666666667,4,2,90,70,0,1
70888,-66.6666666666667,4,2,1,70,0,1
71223,-66.6666666666667,4,2,91,70,0,1
71558,-66.6666666666667,4,2,1,70,0,1
71893,-66.6666666666667,4,2,92,70,0,1
72229,-66.6666666666667,4,2,1,70,0,1
72564,-66.6666666666667,4,2,34,70,0,1
73402,-66.6666666666667,4,2,93,70,0,1
73737,-66.6666666666667,4,2,94,70,0,1
73905,-66.6666666666667,4,2,95,70,0,1
74240,-66.6666666666667,4,2,96,70,0,1
74743,-66.6666666666667,4,2,97,70,0,1
75078,-66.6666666666667,4,2,98,70,0,1
75245,-66.6666666666667,4,2,99,70,0,1
75581,-66.6666666666667,4,2,10,70,0,1
76083,-66.6666666666667,4,2,11,70,0,0
76251,-66.6666666666667,4,2,1,70,0,0
76586,-66.6666666666667,4,2,11,70,0,0
76754,-66.6666666666667,4,2,1,70,0,0
77089,-66.6666666666667,4,2,11,70,0,0
77257,-66.6666666666667,4,2,1,70,0,0
78765,-66.6666666666667,4,2,1,60,0,0
79100,-66.6666666666667,4,2,1,60,0,0
81782,-66.6666666666667,4,2,1,60,0,0
83961,-200,4,2,1,60,0,0
93430,-200,4,2,1,5,0,0

[Colours]
Combo1 : 187,255,255
Combo2 : 169,254,129

[HitObjects]
115,82,329,6,0,L|129:35,2,40,2|2|2,0:0|0:0|0:0,0:0:0:0:
16,103,1000,6,0,P|96:122|148:187,1,160,2|0,0:0|1:0,0:0:0:0:
233,157,2005,1,2,0:0:0:0:
298,230,2340,2,0,P|347:292|426:311,2,160,2|2|2,0:0|1:2|0:0,0:0:0:0:
322,132,4016,1,2,0:0:0:0:
408,87,4352,1,2,1:2:0:0:
501,111,4687,6,0,L|516:161,1,40,2|2,0:0|0:0,0:0:0:0:
406,184,5190,1,2,1:2:0:0:
322,132,5525,1,2,0:0:0:0:
314,35,5860,1,2,0:0:0:0:
90,292,6363,6,0,B|201:265|120:181|248:153,1,207.999990478516,6|0,3:2|3:2,0:0:0:0:
305,214,7368,1,0,3:2:0:0:
400,219,7704,2,0,L|352:371,1,155.999992858887,2|0,3:2|0:0,0:0:0:0:
334,373,8374,1,2,3:2:0:0:
184,308,9044,2,0,L|232:156,1,155.999992858887,2|0,3:2|0:0,0:0:0:0:
250,149,9715,1,2,3:3:0:0:
88,78,10218,5,10,0:2:0:0:
35,162,10553,2,0,L|53:222,1,51.999997619629,2|8,3:2|0:0,0:0:0:0:
493,145,11726,5,6,3:2:0:0:
493,145,11893,2,0,L|409:172,2,88.000002685547,2|2|2,0:0|0:0|0:0,0:0:0:0:
365,98,12899,1,2,0:0:0:0:
365,98,13067,1,0,3:0:0:0:
272,98,13402,1,0,3:0:0:0:
216,168,13737,1,10,3:1:0:0:
258,249,14072,1,2,3:2:0:0:
352,238,14407,5,2,3:2:0:0:
352,238,14575,2,0,L|325:322,2,88.000002685547,2|2|2,0:0|0:0|0:0,0:0:0:0:
394,150,15581,1,2,0:0:0:0:
394,150,15748,1,0,3:0:0:0:
484,192,16083,1,0,3:0:0:0:
502,288,16419,1,2,3:0:0:0:
431,353,16754,1,8,0:3:0:0:
315,353,17089,6,0,B|253:338|298:291|228:276,1,120.000004577637,6|8,3:2|0:0,0:0:0:0:
210,262,17592,2,0,L|27:319,1,180.000006866455,2|8,0:0|0:0,0:0:0:0:
90,186,18430,2,0,P|176:167|235:101,2,180.000006866455,2|2|10,3:2|0:2|0:2,0:0:0:0:
89,79,19771,2,0,P|110:55|140:48,1,60.0000022888184,0|0,3:2|0:0,0:0:0:0:
155,53,20106,1,8,0:0:0:0:
235,101,20441,2,0,L|292:284,1,180.000006866455,2|0,3:2|0:0,0:0:0:0:
308,286,21111,2,0,L|491:229,1,180.000006866455,2|0,3:2|3:0,0:0:0:0:
487,211,21782,1,10,0:0:0:0:
461,127,22117,1,8,0:0:0:0:
461,127,22285,1,8,0:0:0:0:
461,127,22452,6,0,L|443:72,1,44.0000013427735,6|2,3:2|0:0,0:0:0:0:
345,63,22955,2,0,L|249:94,1,88.000002685547,2|2,0:0|3:2,0:0:0:0:
222,185,23625,2,0,L|253:280,1,88.000002685547,2|2,0:2|0:0,0:0:0:0:
273,282,24128,5,8,0:0:0:0:
169,310,24463,2,0,L|85:337,1,88.000002685547,2|10,3:2|0:0,0:0:0:0:
31,244,25134,1,2,3:2:0:0:
31,244,25301,2,0,P|40:200|73:171,1,88.000002685547,2|2,0:0|0:0,0:0:0:0:
165,124,25972,1,2,3:2:0:0:
261,90,26307,2,0,P|290:121|333:129,1,88.000002685547,2|0,0:0|0:0,0:0:0:0:
352,148,26810,1,10,0:0:0:0:
421,220,27145,2,0,L|394:304,1,88.000002685547,2|8,0:3|0:3,0:0:0:0:
304,356,27815,6,0,B|242:341|287:294|217:279,1,120.000004577637,6|10,3:2|0:0,0:0:0:0:
207,261,28318,2,0,L|260:89,1,180.000006866455,2|0,0:0|0:2,0:0:0:0:
352,148,29156,2,0,P|438:129|497:63,2,180.000006866455,2|2|10,0:0|0:0|0:0,0:0:0:0:
260,88,30497,2,0,P|239:64|209:57,1,60.0000022888184,0|0,3:2|0:0,0:0:0:0:
194,62,30832,1,8,0:0:0:0:
126,128,31167,6,0,L|183:311,1,180.000006866455,2|8,3:2|0:0,0:0:0:0:
203,314,31838,2,0,L|386:257,1,180.000006866455,2|0,0:0|0:0,0:0:0:0:
397,273,32508,1,10,0:0:0:0:
483,342,32843,1,0,3:0:0:0:
483,342,33011,1,0,3:0:0:0:
483,342,33178,6,0,L|511:255,1,90.0000034332277,6|8,3:2|0:3,0:0:0:0:
251,204,34519,6,0,L|222:117,1,90.0000034332277,2|8,3:2|0:3,0:0:0:0:
476,182,35860,6,0,L|504:95,1,90.0000034332277,6|8,3:2|0:3,0:0:0:0:
309,85,37201,6,0,L|280:-1,1,90.0000034332277,2|8,3:2|0:3,0:0:0:0:
146,71,38542,5,10,0:0:0:0:
146,71,38709,2,0,P|96:82|62:120,1,103.999995239258,2|2,3:2|3:2,0:0:0:0:
67,225,39380,2,0,P|116:236|150:274,1,103.999995239258,2|2,3:2|3:2,0:0:0:0:
151,296,39882,1,8,0:0:0:0:
235,349,40218,1,8,0:0:0:0:
333,331,40553,1,10,0:0:0:0:
381,240,40888,1,10,0:0:0:0:
487,240,41223,5,10,0:0:0:0:
487,240,41391,2,0,P|437:228|403:190,1,103.999995239258,10|10,0:0|0:0,0:0:0:0:
366,108,42061,1,10,0:0:0:0:
317,27,42396,1,10,0:0:0:0:
413,0,42731,1,8,0:0:0:0:
413,0,42899,1,2,0:3:0:0:
366,108,43234,6,0,L|453:137,2,77.9999964294435,10|8|8,0:0|0:0|0:0,0:0:0:0:
355,125,43905,2,0,B|242:149|323:233|212:260,1,200,6|0,0:2|0:0,0:0:0:0:
196,253,44910,1,2,0:0:0:0:
116,143,45413,2,0,L|132:94,2,40,0|8|0,3:0|0:0|3:0,0:0:0:0:
306,195,46251,5,10,0:0:0:0:
215,259,46586,2,0,B|311:279|242:351|337:374,1,180.000006866455,6|0,3:2|1:0,0:0:0:0:
361,366,47257,2,0,P|383:346|391:318,1,60.0000022888184,0|0,3:0|1:0,0:0:0:0:
376,297,47592,1,10,0:0:0:0:
436,211,47927,2,0,L|393:86,1,120.000004577637,2|8,3:2|0:0,0:0:0:0:
296,72,48597,1,2,3:2:0:0:
143,64,49100,5,2,1:2:0:0:
143,64,49268,2,0,B|47:84|116:156|21:179,1,180.000006866455,2|0,3:2|1:0,0:0:0:0:
8,199,49938,1,0,3:0:0:0:
81,283,50273,1,10,0:0:0:0:
81,283,50441,2,0,P|89:311|110:331,1,60.0000022888184,2|2,1:2|3:2,0:0:0:0:
136,326,50776,1,2,1:2:0:0:
215,259,51111,2,0,L|258:134,1,120.000004577637,2|2,1:2|3:2,0:0:0:0:
332,73,51782,1,2,1:2:0:0:
332,73,51949,6,0,P|391:140|479:159,1,180.000006866455,6|2,3:2|1:2,0:0:0:0:
489,183,52620,2,0,P|421:242|402:330,1,180.000006866455,2|2,3:2|1:2,0:0:0:0:
371,333,53290,2,0,P|311:265|223:246,1,180.000006866455,2|2,3:2|0:0,0:0:0:0:
215,217,53961,2,0,P|281:158|302:72,1,180.000006866455,2|2,3:2|1:2,0:0:0:0:
286,49,54631,5,6,3:2:0:0:
205,113,54966,1,10,0:2:0:0:
205,113,55134,2,0,L|162:-12,2,120.000004577637,6|2|6,1:2|3:2|3:2,0:0:0:0:
132,177,56139,1,0,3:0:0:0:
132,177,56307,1,8,0:0:0:0:
78,100,56642,2,0,P|50:92|30:71,1,60.0000022888184,2|2,3:2|3:2,0:0:0:0:
35,45,56977,1,10,0:0:0:0:
157,69,57312,6,0,B|134:164|62:95|42:191,1,180.000006866455,6|0,3:2|1:0,0:0:0:0:
51,211,57983,2,0,P|79:219|99:240,1,60.0000022888184,0|0,3:0|1:0,0:0:0:0:
95,266,58318,1,10,0:0:0:0:
158,353,58653,2,0,L|201:228,1,120.000004577637,2|8,3:2|0:0,0:0:0:0:
229,146,59324,1,2,3:2:0:0:
330,220,59826,5,2,1:2:0:0:
330,220,59994,2,0,B|353:315|425:246|445:342,1,180.000006866455,2|0,3:2|1:0,0:0:0:0:
467,351,60664,1,0,3:0:0:0:
512,250,61000,1,10,0:0:0:0:
512,250,61167,2,0,P|504:222|483:202,1,60.0000022888184,2|2,1:2|3:2,0:0:0:0:
457,207,61502,1,2,1:2:0:0:
376,143,61838,2,0,L|333:18,1,120.000004577637,2|2,1:2|3:2,0:0:0:0:
224,47,62508,1,2,1:2:0:0:
224,47,62676,6,0,P|165:114|77:133,1,180.000006866455,6|2,3:2|1:2,0:0:0:0:
67,157,63346,2,0,P|135:216|154:304,1,180.000006866455,2|2,3:2|1:2,0:0:0:0:
185,307,64016,2,0,P|245:239|333:220,1,180.000006866455,2|2,3:2|1:2,0:0:0:0:
341,191,64687,2,0,P|275:132|254:46,1,180.000006866455,2|2,3:2|1:2,0:0:0:0:
270,23,65357,5,6,3:2:0:0:
364,85,65692,1,10,0:0:0:0:
364,85,65860,2,0,L|489:42,2,120.000004577637,6|2|6,0:0|3:2|3:2,0:0:0:0:
341,191,66866,1,0,3:0:0:0:
341,191,67033,2,0,L|216:148,1,120.000004577637,8|10,0:0|0:0,0:0:0:0:
100,154,67704,5,10,0:0:0:0:
100,154,67871,1,10,0:0:0:0:
100,154,68039,2,0,B|163:138|117:90|182:76,1,120.000004577637,6|8,3:2|0:0,0:0:0:0:
160,60,68542,1,2,1:2:0:0:
301,77,69044,2,0,L|341:191,2,120.000004577637,10|2|10,0:0|3:2|0:0,0:0:0:0:
377,9,70050,1,2,3:2:0:0:
377,9,70218,1,2,3:2:0:0:
412,106,70553,6,0,L|353:276,1,180.000006866455,6|8,3:2|0:0,0:0:0:0:
362,297,71223,2,0,L|191:238,1,180.000006866455,6|8,3:2|0:0,0:0:0:0:
174,251,71893,2,0,L|232:80,1,180.000006866455,6|8,3:2|0:0,0:0:0:0:
226,63,72564,2,0,L|282:82,1,60.0000022888184,6|2,3:2|0:2,0:0:0:0:
338,162,73067,1,10,0:2:0:0:
304,258,73402,6,0,B|367:271|321:319|384:335,1,120.000004577637,6|10,3:2|0:0,0:0:0:0:
403,346,73905,1,2,1:2:0:0:
472,277,74240,1,2,1:2:0:0:
493,125,74743,6,0,B|429:138|475:186|412:202,1,120.000004577637,2|10,3:2|0:0,0:0:0:0:
394,213,75245,1,2,1:2:0:0:
325,144,75581,1,2,3:2:0:0:
294,273,76083,5,14,0:2:0:0:
294,273,76251,1,8,0:2:0:0:
194,313,76586,1,14,0:2:0:0:
194,313,76754,1,8,0:2:0:0:
97,354,77089,1,14,0:0:0:0:
97,354,77257,1,8,0:0:0:0:
24,41,78765,6,0,L|138:77,1,120.000004577637,6|10,3:2|0:0,0:0:0:0:
221,153,79435,1,2,3:2:0:0:
221,153,79603,2,0,P|243:133|251:105,1,60.0000022888184,2|8,0:0|0:0,0:0:0:0:
276,94,79938,1,2,0:0:0:0:
373,77,80273,1,2,0:0:0:0:
452,137,80609,1,2,0:0:0:0:
448,232,80944,1,2,0:0:0:0:
353,219,81279,2,0,P|331:199|323:171,1,60.0000022888184,2|0,0:0|3:0,0:0:0:0:
405,312,81782,6,0,L|290:348,1,120.000004577637,10|2,0:0|3:2,0:0:0:0:
271,338,82285,1,2,0:0:0:0:
194,281,82620,1,10,0:0:0:0:
103,297,82955,1,2,3:2:0:0:
103,297,83123,1,8,0:0:0:0:
103,297,83290,1,2,3:2:0:0:
19,360,83625,2,0,L|0:302,1,60.0000022888184,10|8,0:0|0:0,0:0:0:0:
7,277,83961,6,0,B|49:250|49:250|72:249|81:238|81:238|105:221|92:173|92:173|110:226|110:226|147:219|147:219|186:181|186:181|450:115|450:115|202:231|202:231|150:225|150:225|130:245|130:245|144:293|144:293|125:256|94:258|94:258|75:256|57:269|57:269|9:285,1,1130,6|0,3:2|0:0,0:0:0:0:
