osu file format v14

[General]
AudioFilename: audio.mp3
AudioLeadIn: 0
PreviewTime: 45832
Countdown: 0
SampleSet: Soft
StackLeniency: 0.4
Mode: 0
LetterboxInBreaks: 0
WidescreenStoryboard: 1

[Editor]
Bookmarks: 11726,17089,22452,27815,33178,42899,46586,78765
DistanceSpacing: 1.6
BeatDivisor: 4
GridSize: 32
TimelineZoom: 1

[Metadata]
Title:crossing field (TV Size)
TitleUnicode:crossing field (TV Size)
Artist:LiSA
ArtistUnicode:LiSA
Creator:amity
Version:Aincrad
Source:ソードアート・オンライン
Tags:opening op kirito asuna sword art online pop japanese gillstar gills jasontime12345
BeatmapID:3181253
BeatmapSetID:1557261

[Difficulty]
HPDrainRate:5
CircleSize:4.3
OverallDifficulty:8
ApproachRate:9
SliderMultiplier:1
SliderTickRate:1

[Events]
//Background and Video events
0,0,"d9zolrd-eafb68eb-4c7b-498d-bc14-e45bf0652edb.jpg",0,0
//Break Periods
//Storyboard Layer 0 (Background)
//Storyboard Layer 1 (Fail)
//Storyboard Layer 2 (Pass)
//Storyboard Layer 3 (Foreground)
//Storyboard Layer 4 (Overlay)
//Storyboard Sound Samples

[TimingPoints]
-4363,335.195530726257,4,2,1,30,1,0
329,-100,4,2,2,30,0,0
5190,-66.6666666666667,4,2,2,40,0,0
5525,-66.6666666666667,4,2,2,50,0,0
6363,-66.6666666666667,4,2,1,60,0,1
6614,-50,4,2,1,5,0,1
6698,-66.6666666666667,4,2,1,60,0,1
6949,-50,4,2,1,5,0,1
7033,-66.6666666666667,4,2,1,60,0,1
7201,-50,4,2,1,5,0,1
7368,-66.6666666666667,4,2,1,60,0,1
7536,-50,4,2,1,5,0,1
7704,-66.6666666666667,4,2,1,60,0,1
7955,-50,4,2,1,5,0,1
8039,-66.6666666666667,4,2,1,60,0,1
8206,-50,4,2,1,5,0,1
8374,-66.6666666666667,4,2,1,60,0,1
8542,-50,4,2,1,5,0,1
8709,-66.6666666666667,4,2,1,60,0,1
8961,-50,4,2,1,5,0,1
9044,-66.6666666666667,4,2,1,60,0,1
9212,-50,4,2,1,5,0,1
9380,-66.6666666666667,4,2,1,60,0,1
9547,-50,4,2,1,5,0,1
9715,-66.6666666666667,4,2,1,60,0,1
10218,-100,4,2,1,60,0,1
10469,-50,4,2,1,5,0,1
10553,-100,4,2,1,60,0,1
10720,-100,4,2,1,70,0,0
11726,-100,4,2,1,40,0,0
16419,-66.6666666666667,4,2,1,40,0,0
16670,-50,4,2,1,5,0,0
16754,-200,4,2,1,40,0,0
17005,-50,4,2,1,5,0,0
17089,-66.6666666666667,4,2,1,60,0,1
17340,-50,4,2,1,5,0,1
17424,-66.6666666666667,4,2,1,60,0,1
20022,-50,4,2,1,5,0,1
20106,-66.6666666666667,4,2,1,50,0,1
22452,-66.6666666666667,4,2,1,50,0,0
22620,-83.3333333333333,4,2,1,50,0,0
26726,-50,4,2,1,5,0,0
26810,-83.3333333333333,4,2,1,50,0,0
27480,-200,4,2,1,50,0,0
27731,-50,4,2,1,5,0,0
27815,-66.6666666666667,4,2,1,60,0,1
28067,-50,4,2,1,5,0,1
28150,-66.6666666666667,4,2,1,60,0,1
30413,-50,4,2,1,5,0,1
30497,-66.6666666666667,4,2,1,60,0,1
33178,-66.6666666666667,4,2,1,50,0,0
33681,-100,4,2,1,50,0,0
33933,-50,4,2,1,5,0,0
34016,-100,4,2,1,50,0,0
35273,-50,4,2,1,5,0,0
35357,-100,4,2,1,50,0,0
36614,-50,4,2,1,5,0,0
36698,-100,4,2,1,50,0,0
37452,-50,4,2,1,5,0,0
37536,-100,4,2,1,50,0,0
38206,-200,4,2,1,50,0,0
38458,-50,4,2,1,5,0,0
38542,-66.6666666666667,4,2,1,50,0,0
38625,-50,4,2,1,5,0,0
38709,-66.6666666666667,4,2,1,50,0,0
38961,-50,4,2,1,5,0,0
39044,-66.6666666666667,4,2,1,50,0,0
39296,-50,4,2,1,5,0,0
39380,-66.6666666666667,4,2,1,50,0,0
39631,-50,4,2,1,5,0,0
39715,-66.6666666666667,4,2,1,50,0,0
41223,-200,4,2,1,30,0,0
41558,-200,4,2,1,40,0,0
41893,-200,4,2,1,50,0,0
42229,-200,4,2,1,60,0,0
42564,-200,4,2,1,50,0,0
42899,-200,4,2,1,50,0,0
43150,-50,4,2,1,5,0,0
43234,-200,4,2,1,50,0,0
43905,-100,4,2,1,50,0,0
45162,-50,4,2,1,5,0,0
45245,-100,4,2,1,50,0,0
45916,-66.6666666666667,4,2,1,50,0,0
46000,-50,4,2,1,5,0,0
46083,-50,4,2,1,50,0,0
46167,-50,4,2,1,5,0,0
46251,-83.3333333333333,4,2,2,50,0,0
46502,-50,4,2,1,5,0,0
46586,-50,4,2,40,70,0,1
46838,-50,4,2,1,5,0,1
46921,-66.6666666666667,4,2,1,70,0,1
47592,-66.6666666666667,4,2,33,70,0,1
47759,-66.6666666666667,4,2,1,70,0,1
47927,-66.6666666666667,4,2,41,70,0,1
48095,-66.6666666666667,4,2,1,70,0,1
48430,-100,4,2,1,70,0,1
48597,-100,4,2,42,70,0,1
48849,-50,4,2,1,5,0,1
48933,-100,4,2,1,70,0,1
49016,-50,4,2,1,5,0,1
49100,-100,4,2,1,70,0,1
49268,-50,4,2,43,70,0,1
49519,-50,4,2,1,5,0,1
49603,-66.6666666666667,4,2,1,70,0,1
50273,-66.6666666666667,4,2,34,70,0,1
50441,-66.6666666666667,4,2,35,70,0,1
50609,-66.6666666666667,4,2,60,70,0,1
50776,-66.6666666666667,4,2,34,70,0,1
50944,-66.6666666666667,4,2,1,70,0,1
51111,-66.6666666666667,4,2,36,70,0,1
51279,-66.6666666666667,4,2,1,70,0,1
51447,-66.6666666666667,4,2,37,70,0,1
51614,-66.6666666666667,4,2,1,70,0,1
51782,-66.6666666666667,4,2,34,70,0,1
51949,-66.6666666666667,4,2,45,70,0,1
52201,-50,4,2,1,5,0,1
52285,-66.6666666666667,4,2,1,70,0,1
52452,-66.6666666666667,4,2,38,70,0,1
52620,-66.6666666666667,4,2,39,70,0,1
52787,-66.6666666666667,4,2,1,70,0,1
53123,-66.6666666666667,4,2,38,70,0,1
53290,-66.6666666666667,4,2,45,70,0,1
53542,-50,4,2,1,5,0,1
53625,-66.6666666666667,4,2,1,70,0,1
53793,-66.6666666666667,4,2,38,70,0,1
53961,-66.6666666666667,4,2,39,70,0,1
54128,-66.6666666666667,4,2,1,70,0,1
54463,-66.6666666666667,4,2,38,70,0,1
54631,-66.6666666666667,4,2,50,70,0,1
54799,-66.6666666666667,4,2,1,70,0,1
54966,-66.6666666666667,4,2,35,70,0,1
55134,-66.6666666666667,4,2,34,70,0,1
55301,-66.6666666666667,4,2,1,70,0,1
55469,-66.6666666666667,4,2,51,70,0,1
55553,-50,4,2,1,5,0,1
55637,-66.6666666666667,4,2,1,70,0,1
55804,-100,4,2,52,70,0,0
56055,-50,4,2,1,5,0,0
56139,-100,4,2,1,70,0,0
56223,-50,4,2,1,5,0,0
56307,-66.6666666666667,4,2,1,70,0,0
56642,-66.6666666666667,4,2,70,70,0,0
56810,-66.6666666666667,4,2,71,70,0,0
56977,-66.6666666666667,4,2,72,70,0,0
57312,-50,4,2,40,70,0,1
57564,-50,4,2,1,5,0,1
57647,-66.6666666666667,4,2,1,70,0,1
58318,-66.6666666666667,4,2,33,70,0,1
58486,-66.6666666666667,4,2,1,70,0,1
58653,-66.6666666666667,4,2,41,70,0,1
58821,-66.6666666666667,4,2,1,70,0,1
59156,-100,4,2,1,70,0,1
59324,-100,4,2,42,70,0,1
59575,-50,4,2,1,5,0,1
59659,-100,4,2,1,70,0,1
59742,-50,4,2,1,5,0,1
59826,-100,4,2,1,70,0,1
59994,-50,4,2,43,70,0,1
60245,-50,4,2,1,5,0,1
60329,-66.6666666666667,4,2,1,70,0,1
61000,-66.6666666666667,4,2,34,70,0,1
61168,-66.6666666666667,4,2,35,70,0,1
61336,-66.6666666666667,4,2,60,70,0,1
61503,-66.6666666666667,4,2,34,70,0,1
61671,-66.6666666666667,4,2,1,70,0,1
61838,-66.6666666666667,4,2,36,70,0,1
62005,-66.6666666666667,4,2,1,70,0,1
62173,-66.6666666666667,4,2,53,70,0,1
62340,-66.6666666666667,4,2,1,70,0,1
62508,-66.6666666666667,4,2,34,70,0,1
62676,-66.6666666666667,4,2,14,70,0,1
62927,-50,4,2,1,5,0,1
63011,-66.6666666666667,4,2,1,70,0,1
63178,-66.6666666666667,4,2,38,70,0,1
63346,-66.6666666666667,4,2,39,70,0,1
63513,-66.6666666666667,4,2,1,70,0,1
63849,-66.6666666666667,4,2,38,70,0,1
64016,-66.6666666666667,4,2,15,70,0,1
64268,-50,4,2,1,5,0,1
64351,-66.6666666666667,4,2,1,70,0,1
64519,-66.6666666666667,4,2,38,70,0,1
64687,-66.6666666666667,4,2,39,70,0,1
64854,-66.6666666666667,4,2,1,70,0,1
65190,-66.6666666666667,4,2,38,70,0,1
65357,-66.6666666666667,4,2,12,70,0,1
65525,-66.6666666666667,4,2,1,70,0,1
65692,-66.6666666666667,4,2,35,70,0,1
65860,-66.6666666666667,4,2,34,70,0,1
66028,-66.6666666666667,4,2,1,70,0,1
66195,-66.6666666666667,4,2,51,70,0,1
66279,-50,4,2,1,5,0,1
66363,-66.6666666666667,4,2,1,70,0,1
66530,-100,4,2,13,70,0,1
66782,-50,4,2,1,5,0,1
66866,-100,4,2,1,70,0,1
66949,-50,4,2,1,5,0,1
67033,-66.6666666666667,4,2,1,70,0,1
67201,-66.6666666666667,4,2,73,70,0,1
67536,-66.6666666666667,4,2,74,70,0,1
67620,-66.6666666666667,4,2,1,70,0,1
67704,-66.6666666666667,4,2,75,70,0,1
67787,-66.6666666666667,4,2,1,70,0,1
67871,-66.6666666666667,4,2,76,70,0,1
67955,-66.6666666666667,4,2,1,70,0,1
68038,-50,4,2,77,70,0,1
68290,-50,4,2,1,5,0,1
68374,-50,4,2,1,70,0,1
68542,-66.6666666666667,4,2,1,70,0,1
69044,-66.6666666666667,4,2,78,70,0,1
69212,-66.6666666666667,4,2,1,70,0,1
69380,-66.6666666666667,4,2,79,70,0,1
69547,-66.6666666666667,4,2,1,70,0,1
69715,-66.6666666666667,4,2,80,70,0,1
69966,-50,4,2,1,5,0,1
70050,-66.6666666666667,4,2,80,70,0,1
70218,-66.6666666666667,4,2,81,70,0,1
70385,-66.6666666666667,4,2,1,70,0,1
70553,-100,4,2,90,70,0,1
70804,-50,4,2,1,5,0,1
70888,-100,4,2,1,70,0,1
71223,-66.6666666666667,4,2,91,70,0,1
71474,-50,4,2,1,5,0,1
71558,-66.6666666666667,4,2,1,70,0,1
71893,-50,4,2,92,70,0,1
72145,-50,4,2,1,5,0,1
72229,-50,4,2,1,70,0,1
72564,-50,4,2,34,70,0,1
73234,-50,4,2,1,70,0,1
73402,-50,4,2,93,70,0,1
73653,-50,4,2,1,5,0,1
73737,-50,4,2,94,70,0,1
73905,-66.6666666666667,4,2,95,70,0,1
74072,-66.6666666666667,4,2,1,70,0,1
74240,-66.6666666666667,4,2,96,70,0,1
74407,-66.6666666666667,4,2,1,70,0,1
74743,-66.6666666666667,4,2,97,70,0,1
74910,-66.6666666666667,4,2,1,70,0,1
75078,-66.6666666666667,4,2,98,70,0,1
75245,-66.6666666666667,4,2,99,70,0,1
75581,-66.6666666666667,4,2,10,70,0,1
76083,-50,4,2,11,70,0,0
76167,-50,4,2,1,5,0,0
76251,-200,4,2,1,70,0,0
76502,-50,4,2,1,5,0,0
76586,-50,4,2,11,70,0,0
76670,-50,4,2,1,5,0,0
76754,-200,4,2,1,70,0,0
77005,-50,4,2,1,5,0,0
77089,-50,4,2,11,70,0,0
77173,-50,4,2,1,5,0,0
77257,-200,4,2,1,70,0,0
77508,-50,4,2,1,5,0,0
77592,-200,4,2,1,70,0,0
78765,-50,4,2,1,60,0,0
79016,-50,4,2,1,5,0,0
79100,-66.6666666666667,4,2,1,60,0,0
81698,-50,4,2,1,5,0,0
81782,-66.6666666666667,4,2,1,60,0,0
83961,-238.095238095238,4,2,1,60,0,0
93430,-50,4,2,1,5,0,0

[Colours]
Combo1 : 187,255,255
Combo2 : 169,254,129

[HitObjects]
398,273,329,6,0,L|412:212,2,50,2|2|2,0:0|0:0|0:0,0:0:0:0:
441,349,1000,6,0,P|387:299|314:298,1,150,2|0,0:0|0:0,0:0:0:0:
205,213,1670,1,0,1:0:0:0:
205,213,2005,6,0,L|266:199,1,50,2|0,0:0|0:0,0:0:0:0:
416,167,2340,1,2,0:0:0:0:
342,103,2508,2,0,L|356:42,1,50,0|0,1:0|0:0,0:0:0:0:
205,213,3011,6,0,L|179:102,1,100,2|0,1:2|0:0,0:0:0:0:
313,298,3514,1,2,0:0:0:0:
313,298,3597,1,2,0:0:0:0:
313,298,3681,2,0,L|327:235,1,50,2|2,0:0|0:0,0:0:0:0:
228,352,4016,1,2,0:0:0:0:
228,352,4184,1,2,0:0:0:0:
162,306,4352,2,0,P|111:306|74:341,1,100,2|2,1:2|0:0,0:0:0:0:
103,106,4854,6,0,L|113:154,1,50,2|2,0:0|0:0,0:0:0:0:
0,281,5190,2,0,L|16:206,1,75.0000028610231,2|2,1:2|0:0,0:0:0:0:
288,181,5525,5,2,0:0:0:0:
205,213,5692,1,0,1:0:0:0:
397,286,5860,6,0,L|433:295,5,37.5000014305115,2|0|2|2|2|2,0:0|0:0|0:0|0:0|0:0|0:0,0:0:0:0:
395,281,6363,6,0,L|369:171,1,112.500004291535,6|0,3:2|0:0,0:0:0:0:
434,95,6698,2,0,L|324:70,1,112.500004291535,0|0,3:2|0:0,0:0:0:0:
185,129,7033,2,0,P|221:131|253:112,1,75.0000028610231,0|0,3:2|0:0,0:0:0:0:
119,32,7368,2,0,L|102:105,1,75.0000028610231,0|0,3:2|0:0,0:0:0:0:
165,302,7704,6,0,P|123:263|67:262,1,112.500004291535,2|0,3:2|0:0,0:0:0:0:
17,203,8039,2,0,L|0:129,1,75.0000028610231,0|0,3:2|0:0,0:0:0:0:
288,181,8374,2,0,L|271:254,1,75.0000028610231,2|0,3:2|0:0,0:0:0:0:
143,372,8709,2,0,P|183:334|238:331,1,112.500004291535,0|0,3:2|0:0,0:0:0:0:
307,363,9044,6,0,L|380:346,1,75.0000028610231,2|0,3:2|0:0,0:0:0:0:
437,194,9380,2,0,L|364:211,1,75.0000028610231,0|0,3:2|0:0,0:0:0:0:
448,81,9715,1,2,3:3:0:0:
288,181,9882,1,0,0:0:0:0:
474,275,10050,1,0,3:2:0:0:
261,108,10218,6,0,L|244:35,1,75,10|0,0:2|0:0,0:0:0:0:
244,27,10553,2,0,L|254:-16,1,25,2|0,3:2|3:0,0:0:0:0:
306,261,10720,1,8,0:0:0:0:
137,221,10888,5,2,0:0:0:0:
88,283,11055,1,2,0:0:0:0:
39,345,11223,1,2,0:0:0:0:
113,356,11391,1,2,0:0:0:0:
54,213,11558,1,2,0:0:0:0:
38,78,11726,6,0,L|24:17,1,50,6|2,3:2|0:0,0:0:0:0:
161,108,12061,2,0,L|100:122,1,50,0|2,3:0|0:0,0:0:0:0:
230,66,12396,2,0,L|244:127,1,50,8|2,3:1|0:0,0:0:0:0:
107,36,12731,2,0,L|168:22,1,50,0|2,3:0|0:0,0:0:0:0:
311,153,13067,2,0,P|262:154|226:188,1,100,0|0,3:0|3:0,0:0:0:0:
301,309,13569,1,0,0:0:0:0:
161,223,13737,2,0,P|209:224|245:258,1,100,10|2,3:1|3:2,0:0:0:0:
301,309,14240,1,0,0:0:0:0:
493,321,14407,6,0,L|507:260,1,50,2|2,3:2|0:0,0:0:0:0:
370,351,14742,2,0,L|431:365,1,50,0|2,3:0|0:0,0:0:0:0:
301,309,15077,2,0,L|287:370,1,50,8|2,3:1|0:0,0:0:0:0:
424,279,15413,2,0,L|363:265,1,50,0|2,3:0|0:0,0:0:0:0:
311,153,15748,2,0,P|344:117|346:68,1,100,0|0,3:0|3:0,0:0:0:0:
114,164,16251,1,0,0:0:0:0:
161,223,16419,6,0,L|51:197,1,112.500004291535,2|0,3:0|0:0,0:0:0:0:
244,203,16754,6,0,L|253:240,1,37.5,8|0,0:3|0:0,0:0:0:0:
119,364,17089,6,0,L|93:254,1,112.500004291535,6|0,3:2|0:0,0:0:0:0:
161,223,17424,1,8,0:0:0:0:
270,327,17592,1,2,0:0:0:0:
190,305,17759,1,0,3:0:0:0:
190,305,17927,1,0,3:0:0:0:
253,240,18095,2,0,L|325:222,1,75.0000028610231,8|0,0:0|0:0,0:0:0:0:
345,67,18430,6,0,P|326:99|329:136,1,75.0000028610231,2|0,3:2|0:0,0:0:0:0:
493,271,18765,1,8,0:0:0:0:
478,184,18933,2,0,L|406:166,1,75.0000028610231,2|0,0:2|3:0,0:0:0:0:
270,327,19268,1,0,3:0:0:0:
348,369,19435,2,0,P|366:336|363:299,1,75.0000028610231,10|0,0:2|0:0,0:0:0:0:
193,152,19771,6,0,L|219:42,1,112.500004291535,0|0,3:2|0:0,0:0:0:0:
288,17,20106,1,8,0:0:0:0:
131,80,20273,1,0,0:0:0:0:
160,0,20441,1,2,3:2:0:0:
160,0,20609,1,0,3:0:0:0:
73,25,20776,2,0,L|1:43,1,75.0000028610231,8|0,0:0|0:0,0:0:0:0:
124,189,21111,5,2,3:2:0:0:
124,189,21279,1,0,3:0:0:0:
72,125,21447,5,8,0:0:0:0:
166,254,21614,1,0,3:0:0:0:
54,231,21782,1,10,0:0:0:0:
193,152,21949,1,0,3:2:0:0:
193,152,22032,1,0,3:0:0:0:
193,152,22116,1,8,0:0:0:0:
197,134,22200,1,8,0:0:0:0:
201,115,22284,1,8,0:0:0:0:
206,97,22367,1,8,0:0:0:0:
210,79,22452,5,6,3:2:0:0:
328,135,22620,2,0,L|298:142,2,29.9999990844727,2|0|8,0:0|3:0|0:0,0:0:0:0:
427,97,22955,2,0,L|434:67,1,29.9999990844727,2|8,0:0|0:0,0:0:0:0:
434,67,23123,1,0,3:0:0:0:
370,9,23290,2,0,P|353:36|356:67,1,59.9999981689454,2|8,3:2|0:0,0:0:0:0:
498,147,23625,2,0,P|514:119|511:88,2,59.9999981689454,2|2|2,0:2|3:2|0:0,0:0:0:0:
309,225,24128,5,8,0:0:0:0:
355,328,24296,2,0,L|362:298,2,29.9999990844727,0|8|2,0:0|0:0|3:2,0:0:0:0:
503,304,24715,5,0,0:0:0:0:
507,311,24799,2,0,L|438:293,1,59.9999981689454,10|2,0:0|0:3,0:0:0:0:
399,186,25134,5,2,3:2:0:0:
278,361,25301,2,0,L|260:292,1,59.9999981689454,2|8,0:0|0:0,0:0:0:0:
102,345,25637,2,0,L|72:338,1,29.9999990844727,2|8,0:0|0:0,0:0:0:0:
72,338,25805,1,0,3:0:0:0:
175,166,25972,2,0,P|192:193|189:224,1,59.9999981689454,2|8,3:2|0:0,0:0:0:0:
24,278,26307,1,2,0:0:0:0:
43,52,26474,6,0,L|65:139,1,89.9999972534181,0|0,3:0|0:0,0:0:0:0:
136,101,26810,1,10,0:0:0:0:
14,201,26977,1,0,0:0:0:0:
14,201,27061,1,8,0:0:0:0:
14,201,27145,1,2,0:3:0:0:
144,279,27312,1,0,0:0:0:0:
181,37,27480,6,0,L|172:0,1,37.5,8|0,0:3|0:0,0:0:0:0:
136,101,27815,6,0,L|246:127,1,112.500004291535,6|0,3:2|0:0,0:0:0:0:
309,83,28150,1,10,0:0:0:0:
354,246,28318,1,0,0:0:0:0:
268,212,28486,1,0,3:0:0:0:
268,212,28653,1,2,3:2:0:0:
400,113,28821,2,0,P|419:145|416:182,1,75.0000028610231,0|8,0:2|0:0,0:0:0:0:
382,325,29156,6,0,L|309:342,1,75.0000028610231,2|0,0:0|3:0,0:0:0:0:
435,256,29491,1,8,0:0:0:0:
268,212,29659,1,2,0:0:0:0:
231,365,29826,1,0,3:2:0:0:
231,365,29994,1,0,3:0:0:0:
110,210,30162,6,0,L|136:100,1,112.500004291535,10|0,0:0|0:0,0:0:0:0:
181,37,30497,2,0,P|213:18|250:21,1,75.0000028610231,0|0,3:2|0:0,0:0:0:0:
284,137,30832,1,8,0:0:0:0:
73,57,31000,1,0,0:0:0:0:
73,57,31083,1,8,0:0:0:0:
73,57,31167,2,0,L|0:73,2,75.0000028610231,2|0|0,3:2|3:0|0:0,0:0:0:0:
51,263,31670,5,8,0:0:0:0:
195,207,31838,2,0,L|211:280,1,75.0000028610231,2|0,0:0|3:0,0:0:0:0:
429,366,32173,2,0,P|375:316|302:315,1,150,8|10,0:0|0:0,0:0:0:0:
133,362,32592,1,0,3:0:0:0:
133,362,32676,2,0,L|141:325,1,37.5000014305115,0|0,3:0|3:0,0:0:0:0:
289,236,32843,1,0,3:0:0:0:
287,229,32926,1,0,3:0:0:0:
285,222,33010,1,0,3:0:0:0:
284,215,33094,1,0,3:0:0:0:
282,208,33178,5,6,3:2:0:0:
330,145,33346,1,0,0:0:0:0:
366,211,33514,1,0,0:0:0:0:
249,134,33681,2,0,L|233:61,1,75.0000028610231,8|0,0:3|0:0,0:0:0:0:
232,60,34016,1,2,3:2:0:0:
101,268,34184,1,10,0:0:0:0:
101,268,34519,5,2,3:2:0:0:
137,334,34687,1,0,0:0:0:0:
53,331,34855,1,0,0:0:0:0:
194,194,35022,2,0,L|178:267,1,75.0000028610231,8|0,0:3|0:0,0:0:0:0:
177,267,35357,1,0,3:0:0:0:
429,366,35525,1,10,0:0:0:0:
461,131,35776,5,0,0:0:0:0:
456,136,35860,2,0,L|403:147,2,50,6|0|0,3:2|0:0|0:0,0:0:0:0:
355,214,36363,2,0,L|282:198,1,75.0000028610231,8|0,0:3|0:0,0:0:0:0:
281,197,36698,1,0,3:0:0:0:
158,76,36866,1,8,0:0:0:0:
158,76,37201,6,0,L|231:60,1,75.0000028610231,2|0,3:2|0:0,0:0:0:0:
231,59,37536,1,0,3:0:0:0:
194,194,37704,1,8,0:3:0:0:
194,194,38039,5,0,0:0:0:0:
254,360,38206,2,0,L|262:322,1,37.5,12|0,0:0|0:0,0:0:0:0:
185,279,38542,6,0,L|147:287,1,37.5,10|0,0:0|0:0,0:0:0:0:
289,205,38709,1,2,3:2:0:0:
289,205,38793,1,0,3:0:0:0:
289,205,38877,2,0,L|326:196,1,37.5,8|0,0:0|0:0,0:0:0:0:
103,216,39044,1,2,3:2:0:0:
103,216,39128,1,0,3:0:0:0:
103,216,39212,2,0,L|112:178,1,37.5,8|0,0:0|0:0,0:0:0:0:
379,312,39380,1,2,3:2:0:0:
379,312,39464,1,0,3:0:0:0:
379,312,39548,2,0,L|370:274,1,37.5,8|0,0:0|0:0,0:0:0:0:
249,66,39715,5,2,3:2:0:0:
249,66,39799,1,0,3:0:0:0:
228,29,39882,5,8,0:0:0:0:
219,41,39966,1,0,3:0:0:0:
216,53,40050,1,0,3:0:0:0:
217,65,40134,1,0,3:0:0:0:
204,85,40218,5,8,0:0:0:0:
216,94,40302,1,0,3:0:0:0:
228,97,40386,1,0,3:0:0:0:
240,96,40470,1,0,3:0:0:0:
265,104,40553,5,10,0:0:0:0:
274,92,40637,1,0,3:0:0:0:
277,80,40721,1,0,3:0:0:0:
276,68,40805,1,0,3:0:0:0:
284,46,40888,6,0,P|266:40|247:41,3,37.5000014305115,10|0|0|0,0:0|3:0|3:0|3:0,0:0:0:0:
17,271,41223,5,10,0:0:0:0:
15,260,41307,1,8,0:0:0:0:
17,250,41391,1,10,0:0:0:0:
22,240,41474,1,8,0:0:0:0:
60,226,41558,5,8,0:0:0:0:
65,210,41642,1,8,0:0:0:0:
75,199,41726,1,10,0:0:0:0:
90,191,41809,1,8,0:0:0:0:
125,200,41893,5,8,0:0:0:0:
141,182,41977,1,8,0:0:0:0:
163,175,42061,1,10,0:0:0:0:
188,174,42144,1,8,0:0:0:0:
215,198,42229,5,8,0:0:0:0:
247,186,42313,1,8,0:0:0:0:
282,191,42397,1,10,0:0:0:0:
316,212,42480,1,8,0:0:0:0:
324,257,42564,5,10,0:0:0:0:
374,264,42648,1,8,0:0:0:0:
414,300,42732,1,8,0:0:0:0:
435,352,42815,1,8,0:0:0:0:
490,298,42899,6,0,L|499:260,1,37.5,2|0,0:3|0:0,0:0:0:0:
498,261,43234,5,10,0:0:0:0:
378,160,43486,5,8,0:0:0:0:
505,106,43737,5,8,0:0:0:0:
340,346,43905,2,0,B|259:364|283:306|187:326,1,150,6|2,0:2|0:2,0:2:0:0:
101,368,44910,2,0,L|83:295,1,75,2|0,0:0|0:0,0:0:0:0:
83,295,45245,1,0,0:0:0:0:
59,168,45413,1,0,3:0:0:0:
3,249,45581,1,8,0:0:0:0:
140,223,45748,1,0,3:0:0:0:
118,60,45916,6,0,P|105:63|119:63,1,37.5000014305115,2|0,0:0|0:0,0:0:0:0:
212,130,46083,6,0,P|201:117|210:132,1,50,2|0,0:0|0:0,0:0:0:0:
239,287,46251,6,0,P|252:260|237:286,1,89.9999972534181,10|0,0:0|0:0,0:0:0:0:
205,362,46586,6,0,P|259:312|332:311,1,150,6|0,3:2|0:0,0:0:0:0:
406,286,46921,2,0,L|389:212,1,75.0000028610231,8|0,0:0|1:0,0:0:0:0:
212,130,47257,2,0,P|193:162|196:199,1,75.0000028610231,0|0,3:0|1:0,0:0:0:0:
279,57,47592,1,10,0:0:0:0:
186,18,47759,1,0,1:0:0:0:
294,150,47927,2,0,L|367:133,1,75.0000028610231,2|0,3:2|1:0,0:0:0:0:
458,117,48262,1,8,0:0:0:0:
209,337,48430,5,0,1:0:0:0:
207,350,48514,1,0,0:0:0:0:
206,362,48597,2,0,L|189:288,1,75.0000028610231,2|0,3:2|0:0,0:0:0:0:
136,238,48933,2,0,L|111:244,1,25,8|0,0:0|0:0,0:0:0:0:
219,93,49100,1,2,1:2:0:0:
87,357,49268,6,0,P|37:303|36:230,1,150,2|0,3:2|0:0,0:0:0:0:
89,170,49603,2,0,L|162:153,1,75.0000028610231,8|0,0:0|1:0,0:0:0:0:
163,17,49938,2,0,L|90:0,1,75.0000028610231,0|0,3:0|1:0,0:0:0:0:
328,137,50273,5,10,0:0:0:0:
303,247,50441,2,0,L|286:320,1,75.0000028610231,2|2,1:2|3:2,0:0:0:0:
397,211,50776,2,0,P|429:192|466:195,1,75.0000028610231,2|8,1:2|0:0,0:0:0:0:
232,169,51111,2,0,P|195:171|162:153,1,75.0000028610231,2|0,1:2|3:0,0:0:0:0:
161,146,51363,1,0,3:0:0:0:
162,140,51447,1,2,3:2:0:0:
393,43,51614,2,0,L|410:116,1,75.0000028610231,8|2,0:0|1:2,0:0:0:0:
303,247,51949,6,0,L|329:134,1,112.500004291535,6|0,3:2|0:0,0:0:0:0:
286,78,52285,1,8,0:0:0:0:
397,211,52452,1,2,1:2:0:0:
285,320,52620,2,0,L|212:337,1,75.0000028610231,2|0,3:2|1:0,0:0:0:0:
364,302,52955,1,8,0:0:0:0:
193,246,53123,5,2,1:2:0:0:
232,169,53290,2,0,L|206:59,1,112.500004291535,2|0,3:2|0:0,0:0:0:0:
144,14,53625,1,8,0:0:0:0:
328,137,53793,1,2,0:0:0:0:
111,243,53961,2,0,L|38:226,1,75.0000028610231,2|0,3:2|1:0,0:0:0:0:
14,142,54296,1,8,0:0:0:0:
282,62,54463,5,2,1:2:0:0:
288,69,54547,1,0,0:0:0:0:
288,69,54631,2,0,P|306:36|303:-1,1,75.0000028610231,6|0,3:2|1:0,0:0:0:0:
232,169,54966,1,10,0:2:0:0:
397,211,55134,2,0,L|470:194,1,75.0000028610231,6|0,1:2|3:0,0:0:0:0:
131,328,55469,2,0,L|94:319,1,37.5000014305115,2|0,3:2|0:0,0:0:0:0:
24,301,55637,1,8,0:0:0:0:
248,367,55804,6,0,L|265:293,1,75.0000028610231,6|0,3:2|0:0,0:0:0:0:
350,369,56139,2,0,L|375:363,1,25,0|0,3:0|0:0,0:0:0:0:
184,260,56307,2,0,L|111:243,1,75.0000028610231,8|8,0:0|0:0,0:0:0:0:
106,238,56558,1,8,0:0:0:0:
101,231,56642,2,0,L|118:158,1,75.0000028610231,2|2,3:2|3:2,0:0:0:0:
123,154,56893,1,0,3:0:0:0:
130,150,56977,1,10,0:0:0:0:
177,147,57061,1,8,0:0:0:0:
216,124,57145,1,8,0:0:0:0:
227,77,57229,1,8,0:0:0:0:
299,82,57312,6,0,P|245:32|171:31,1,150,6|0,3:2|0:0,0:0:0:0:
110,75,57648,2,0,L|36:58,1,75.0000028610231,8|0,0:0|1:0,0:0:0:0:
184,260,57983,2,0,P|203:296|189:347,1,75.0000028610231,0|0,3:0|1:0,0:0:0:0:
26,229,58318,1,10,0:0:0:0:
177,147,58486,1,0,1:0:0:0:
282,286,58653,2,0,L|355:269,1,75.0000028610231,2|0,3:2|1:0,0:0:0:0:
446,253,58988,1,8,0:0:0:0:
279,131,59156,5,0,1:0:0:0:
281,144,59240,1,0,0:0:0:0:
282,155,59323,2,0,L|299:81,1,75.0000028610231,2|0,3:2|0:0,0:0:0:0:
352,31,59659,2,0,L|377:37,1,25,8|0,0:0|0:0,0:0:0:0:
177,147,59826,1,2,1:2:0:0:
401,150,59994,6,0,P|451:96|452:23,1,150,2|0,3:2|0:0,0:0:0:0:
376,36,60329,1,8,0:0:0:0:
496,188,60497,1,0,1:0:0:0:
349,243,60664,2,0,L|276:260,1,75.0000028610231,0|0,3:0|1:0,0:0:0:0:
446,253,61000,5,10,0:0:0:0:
218,189,61167,2,0,P|200:156|203:119,1,75.0000028610231,2|2,1:2|3:2,0:0:0:0:
205,313,61502,2,0,P|223:346|220:383,1,75.0000028610231,2|8,1:2|0:0,0:0:0:0:
66,260,61838,2,0,L|139:243,1,75.0000028610231,2|0,1:2|3:0,0:0:0:0:
147,246,62089,1,0,3:0:0:0:
155,249,62173,1,2,3:2:0:0:
285,134,62340,1,8,0:0:0:0:
114,75,62508,1,2,1:2:0:0:
199,109,62676,6,0,L|173:-4,1,112.500004291535,6|0,3:2|0:0,0:0:0:0:
257,18,63011,1,8,0:0:0:0:
64,154,63178,1,2,1:2:0:0:
218,189,63346,2,0,L|291:206,1,75.0000028610231,2|0,3:2|1:0,0:0:0:0:
141,170,63681,1,8,0:0:0:0:
336,278,63849,5,2,1:2:0:0:
291,206,64016,2,0,L|317:93,1,112.500004291535,2|0,3:2|0:0,0:0:0:0:
392,137,64352,1,8,0:0:0:0:
258,291,64519,1,2,1:2:0:0:
410,257,64687,2,0,L|483:240,1,75.0000028610231,2|0,3:2|1:0,0:0:0:0:
389,337,65022,1,8,0:0:0:0:
231,70,65190,5,2,1:2:0:0:
231,70,65274,1,0,0:0:0:0:
231,70,65357,2,0,P|213:37|216:0,1,75.0000028610231,6|0,3:2|1:0,0:0:0:0:
316,96,65693,1,10,0:0:0:0:
139,242,65860,2,0,L|66:225,1,75.0000028610231,6|0,0:0|3:0,0:0:0:0:
389,337,66196,2,0,L|426:328,1,37.5000014305115,2|0,3:2|0:0,0:0:0:0:
497,307,66364,1,8,0:0:0:0:
274,364,66530,6,0,L|257:290,1,75.0000028610231,6|0,3:2|0:0,0:0:0:0:
172,366,66866,2,0,L|147:360,1,25,0|0,3:0|0:0,0:0:0:0:
338,257,67033,2,0,L|411:240,1,75.0000028610231,8|2,0:0|3:2,0:0:0:0:
123,158,67368,1,10,0:0:0:0:
323,101,67536,5,2,3:2:0:0:
323,101,67619,1,0,3:0:0:0:
323,101,67703,1,10,0:0:0:0:
327,83,67787,1,8,0:0:0:0:
331,64,67871,1,10,0:0:0:0:
336,46,67954,1,8,0:0:0:0:
259,41,68039,6,0,L|407:6,1,150,6|0,3:2|0:0,0:0:0:0:
468,43,68374,1,8,0:0:0:0:
353,187,68542,2,0,P|335:219|337:256,1,75.0000028610231,2|0,1:2|3:0,0:0:0:0:
497,307,68877,1,0,1:0:0:0:
491,154,69044,2,0,L|418:137,1,75.0000028610231,10|0,0:0|1:2,0:0:0:0:
352,345,69380,6,0,L|425:328,1,75.0000028610231,2|0,3:2|1:2,0:0:0:0:
257,290,69715,2,0,L|231:177,1,112.500004291535,10|0,0:0|0:0,0:0:0:0:
214,104,70050,1,2,3:2:0:0:
65,224,70218,1,2,3:2:0:0:
194,350,70385,1,8,0:0:0:0:
289,129,70553,6,0,L|306:54,1,75,6|0,3:2|0:0,0:0:0:0:
377,27,70888,1,0,3:0:0:0:
94,110,71055,1,8,0:0:0:0:
174,275,71223,6,0,L|146:154,1,112.500004291535,6|0,3:2|0:0,0:0:0:0:
198,103,71558,1,0,3:0:0:0:
423,236,71726,1,8,0:0:0:0:
309,368,71893,6,0,L|346:206,1,150,6|0,3:2|0:0,0:0:0:0:
291,165,72229,1,0,3:0:0:0:
93,300,72396,1,8,0:0:0:0:
248,287,72564,1,6,3:2:0:0:
198,103,72731,2,0,L|173:0,1,100,2|0,0:2|3:0,0:0:0:0:
423,236,73067,2,0,L|447:132,1,100,10|0,0:2|0:0,0:0:0:0:
309,368,73402,6,0,P|255:318|182:317,1,150,6|0,3:2|0:0,0:0:0:0:
126,369,73737,1,10,0:0:0:0:
0,265,73905,2,0,L|16:191,1,75.0000028610231,2|0,1:2|3:0,0:0:0:0:
198,103,74240,2,0,P|216:135|214:172,1,75.0000028610231,2|8,1:2|0:0,0:0:0:0:
32,112,74575,1,0,1:0:0:0:
273,236,74743,6,0,L|346:219,1,75.0000028610231,2|0,3:2|1:0,0:0:0:0:
110,271,75078,1,10,0:0:0:0:
388,358,75245,2,0,P|406:326|404:289,1,75.0000028610231,2|0,1:2|3:0,0:0:0:0:
316,113,75581,1,2,3:2:0:0:
313,106,75664,1,0,3:0:0:0:
310,98,75748,1,8,0:0:0:0:
256,305,75916,1,0,3:0:0:0:
15,191,76083,6,0,P|2:169|1:144,1,50,14|0,0:2|0:0,0:0:0:0:
19,139,76251,6,0,P|29:121|46:110,1,37.5,8|0,0:2|0:0,0:0:0:0:
167,195,76586,6,0,P|178:172|199:159,1,50,14|0,0:2|0:0,0:0:0:0:
213,172,76754,6,0,P|232:171|250:180,1,37.5,8|0,0:2|0:0,0:0:0:0:
256,305,77089,6,0,P|281:304|303:315,1,50,14|0,0:0|0:0,0:0:0:0:
298,334,77257,6,0,P|308:351|309:371,1,37.5,8|0,0:0|0:0,0:0:0:0:
309,368,77592,5,0,3:0:0:0:
106,291,77759,1,8,0:0:0:0:
135,112,77928,1,0,3:0:0:0:
132,105,78011,1,0,3:0:0:0:
129,97,78095,1,8,0:0:0:0:
329,44,78262,1,0,3:0:0:0:
326,52,78346,1,8,0:0:0:0:
323,59,78430,1,0,3:0:0:0:
427,219,78597,1,8,0:0:0:0:
424,212,78680,1,8,0:0:0:0:
421,205,78765,6,0,L|274:170,1,150,6|0,3:2|0:0,0:0:0:0:
204,193,79100,2,0,P|185:225|188:262,1,75.0000028610231,10|0,0:0|0:0,0:0:0:0:
357,270,79435,1,2,3:2:0:0:
421,128,79603,2,0,L|404:54,1,75.0000028610231,2|8,0:0|0:0,0:0:0:0:
439,301,79938,5,2,0:0:0:0:
439,301,80022,1,0,0:0:0:0:
439,301,80106,2,0,L|513:284,1,75.0000028610231,0|2,3:0|0:0,0:0:0:0:
263,248,80441,1,8,0:0:0:0:
319,384,80609,2,0,P|321:347|302:315,1,75.0000028610231,2|0,0:0|3:0,0:0:0:0:
203,188,80944,2,0,L|129:171,1,75.0000028610231,2|8,0:0|0:0,0:0:0:0:
345,143,81279,1,2,0:0:0:0:
213,371,81447,6,0,L|184:246,1,112.500004291535,0|0,3:0|0:0,0:0:0:0:
263,248,81782,1,10,0:0:0:0:
141,96,81949,1,0,0:0:0:0:
0,203,82117,1,2,3:2:0:0:
129,171,82285,1,2,0:0:0:0:
159,22,82452,5,8,0:0:0:0:
109,246,82620,2,0,P|106:282|125:314,1,75.0000028610231,10|0,0:0|3:0,0:0:0:0:
403,281,82955,1,2,3:2:0:0:
282,364,83123,1,8,0:0:0:0:
415,149,83290,1,2,3:2:0:0:
412,142,83373,1,0,3:0:0:0:
409,134,83457,1,8,0:0:0:0:
301,227,83625,5,10,0:0:0:0:
296,245,83708,1,10,0:0:0:0:
292,264,83792,1,8,0:0:0:0:
288,282,83876,1,10,0:0:0:0:
282,364,83961,6,0,B|295:381|295:381|269:386|269:386|274:367|274:367|263:301|263:301|248:311|248:311|247:303|247:303|262:291|262:291|249:217|249:217|205:226|196:251|196:251|186:246|186:246|188:227|176:209|176:209|201:223|238:217|238:217|194:-1|194:-1|199:-15|199:-15|208:-5|208:-5|247:192|247:192|284:204|284:204|318:166|318:166|318:201|318:201|348:217|356:258|356:258|373:264|373:264|280:284,1,1186.49996379089,6|0,3:2|0:0,0:0:0:0:
