osu file format v14

[General]
AudioFilename: audio.mp3
AudioLeadIn: 0
PreviewTime: 0
Countdown: 0
SampleSet: Soft
StackLeniency: 1
Mode: 0
LetterboxInBreaks: 0
WidescreenStoryboard: 0

[Editor]
Bookmarks: 11442,21547,31652,41758,51863,56916,67021,77126,87231,97337,104916,107442
DistanceSpacing: 0.8
BeatDivisor: 8
GridSize: 8
TimelineZoom: 1.9

[Metadata]
Title:Catch the Moment -Radio Edit ver.-
TitleUnicode:Catch the Moment -Radio Edit ver.-
Artist:LiSA
ArtistUnicode:LiSA
Creator:imbor
Version:Insane
Source:劇場版 ソードアート・オンライン -オーディナル・スケール-
Tags:sao sword art online the movie ordinal scale sotarks naotoshi lilyanna realazy Dashyy- Mir nao tomori real
BeatmapID:1235792
BeatmapSetID:584079

[Difficulty]
HPDrainRate:5
CircleSize:4
OverallDifficulty:8
ApproachRate:9
SliderMultiplier:1.4
SliderTickRate:1

[Events]
//Background and Video events
0,0,"BG.jpg",0,0
//Break Periods
//Storyboard Layer 0 (Background)
//Storyboard Layer 1 (Fail)
//Storyboard Layer 2 (Pass)
//Storyboard Layer 3 (Foreground)
//Storyboard Sound Samples

[TimingPoints]
74,315.789473684211,4,2,1,75,1,0
11442,-83.3333333333333,4,2,1,75,0,0
12389,-55.5555555555556,4,2,1,75,0,0
13021,-83.3333333333333,4,2,1,75,0,0
15231,-66.6666666666667,4,2,1,75,0,0
15863,-83.3333333333333,4,2,1,75,0,0
18705,-66.6666666666667,4,2,1,75,0,0
19021,-83.3333333333333,4,2,1,75,0,0
20126,-83.3333333333333,4,2,1,50,0,0
21074,-83.3333333333333,4,2,1,5,0,0
21231,-83.3333333333333,4,2,1,70,0,0
21547,-100,4,2,1,50,0,0
29758,-83.3333333333333,4,2,1,50,0,0
30074,-133.333333333333,4,2,1,50,0,0
31337,-66.6666666666667,4,2,1,50,0,0
31416,-66.6666666666667,4,2,1,50,0,0
31652,-83.3333333333333,4,2,1,50,0,0
41284,-133.333333333333,4,2,1,50,0,0
41600,-55.5555555555556,4,2,1,50,0,0
41916,-83.3333333333333,4,2,1,50,0,0
42863,-55.5555555555556,4,2,1,50,0,0
43337,-83.3333333333333,4,2,1,50,0,0
43652,-66.6666666666667,4,2,1,50,0,0
43968,-55.5555555555556,4,2,1,50,0,0
44284,-83.3333333333333,4,2,1,50,0,0
46495,-66.6666666666667,4,2,1,50,0,0
46810,-100,4,2,1,50,0,0
50600,-83.3333333333333,4,2,1,50,0,0
51547,-66.6666666666667,4,2,1,50,0,0
51863,-66.6666666666667,4,2,1,75,0,0
56916,-66.6666666666667,4,2,1,75,0,1
67021,-66.6666666666667,4,2,1,60,0,0
75863,-66.6666666666667,4,2,1,75,0,1
76179,-66.6666666666667,4,2,1,60,0,0
77126,-66.6666666666667,4,2,1,75,0,1
87231,-83.3333333333333,4,2,1,60,0,0
97337,-83.3333333333333,4,2,1,50,0,0
102074,-66.6666666666667,4,2,1,50,0,0
103337,-200,4,2,1,50,0,0
104916,-200,4,2,1,50,0,0
107442,-66.6666666666667,4,2,1,80,0,1
115021,-83.3333333333333,4,2,1,80,0,1
115652,300,4,2,1,80,1,1
116102,315.789473684211,4,2,1,80,1,0
124944,-100,4,2,1,5,0,0

[Colours]
Combo1 : 142,233,255
Combo2 : 157,173,189
Combo3 : 223,173,149
Combo4 : 225,225,225
Combo5 : 251,139,79

[HitObjects]
122,72,10021,5,0,3:0:0:0:
122,72,10100,1,0,3:0:0:0:
122,72,10179,2,0,P|141:101|154:147,1,70,12|0,0:0|0:0,0:0:0:0:
152,134,10416,2,0,P|186:127|228:104,1,70,8|0,0:0|0:0,0:0:0:0:
217,111,10652,1,8,0:0:0:0:
319,135,10810,2,0,L|374:138,3,35,8|8|4|0,0:0|3:0|3:0|3:0,0:0:0:0:
443,67,11126,1,8,0:0:0:0:
443,67,11442,6,0,L|433:256,1,167.999994873047,6|8,0:1|0:0,0:0:0:0:
364,287,11916,1,0,0:0:0:0:
413,375,12074,2,0,P|370:369|314:369,1,83.9999974365235,0|0,3:0|3:0,0:0:0:0:
215,325,12389,2,0,P|275:291|263:220,1,125.999996154785,8|4,0:0|0:2,0:0:0:0:
276,239,12863,5,0,3:0:0:0:
202,186,13021,2,0,L|104:175,1,83.9999974365235,8|0,0:0|0:0,0:0:0:0:
36,39,13337,2,0,L|26:122,1,83.9999974365235,2|0,3:3|3:0,0:0:0:0:
55,268,13652,1,8,0:0:0:0:
55,268,13968,6,0,P|145:278|240:297,1,167.999994873047,4|0,0:0|3:0,0:0:0:0:
359,249,14442,2,0,P|317:246|263:235,1,83.9999974365235,8|2,0:0|3:0,0:0:0:0:
231,169,14758,1,4,3:0:0:0:
281,355,14916,2,0,P|322:347|364:344,1,83.9999974365235,8|2,0:0|0:0,0:0:0:0:
482,186,15231,6,0,L|475:309,1,105.000004005432,8|4,0:0|3:0,0:0:0:0:
353,144,15547,2,0,L|358:248,1,105.000004005432,8|4,0:0|3:0,0:0:0:0:
432,65,15863,1,8,0:0:0:0:
425,54,15942,1,8,3:0:0:0:
411,46,16021,2,0,P|387:36|357:30,1,41.9999987182618,4|0,3:0|3:0,0:0:0:0:
203,69,16179,2,0,P|253:73|303:88,1,83.9999974365235,8|0,0:0|0:0,0:0:0:0:
161,157,16495,6,0,P|110:98|133:2,1,167.999994873047,2|10,0:0|0:0,0:0:0:0:
203,69,16968,1,2,0:0:0:0:
257,167,17126,2,0,P|241:214|204:250,1,83.9999974365235,2|2,3:2|0:0,0:0:0:0:
118,254,17442,1,10,0:0:0:0:
46,182,17600,1,2,3:2:0:0:
4,322,17758,6,0,P|45:326|108:342,1,83.9999974365235,2|2,0:0|3:2,0:0:0:0:
301,252,18074,2,0,P|259:247|218:238,1,83.9999974365235,10|2,0:0|0:0,0:0:0:0:
325,364,18389,1,8,0:0:0:0:
325,364,18468,1,8,3:0:0:0:
325,364,18547,2,0,P|347:355|363:348,1,41.9999987182618,4|0,3:0|3:0,0:0:0:0:
476,270,18705,2,0,P|417:235|427:144,1,157.500006008148,12|0,0:0|0:0,0:0:0:0:
419,153,19021,6,0,L|314:159,1,83.9999974365235,8|0,0:0|3:0,0:0:0:0:
321,148,19258,1,8,0:0:0:0:
307,138,19337,1,8,0:0:0:0:
224,67,19495,2,0,L|232:17,2,41.9999987182618,8|8|8,0:0|0:0|0:0,0:0:0:0:
125,184,19810,2,0,P|126:140|122:89,1,83.9999974365235,8|4,0:0|3:0,0:0:0:0:
46,36,20126,5,6,0:1:0:0:
256,192,20205,12,0,21074,0:0:0:0:
92,251,21231,6,0,P|133:309|134:389,1,125.999996154785,2|2,0:3|0:3,0:0:0:0:
140,362,21547,6,0,L|147:277,1,70,0|0,3:0|0:0,0:0:0:0:
228,217,21863,1,2,3:2:0:0:
228,217,22021,1,0,0:0:0:0:
302,296,22179,2,0,L|386:303,1,70,2|0,3:2|0:0,0:0:0:0:
371,301,22495,1,0,3:0:0:0:
498,225,22652,6,0,L|428:219,1,70,2|0,0:0|3:0,0:0:0:0:
367,140,22968,1,2,0:0:0:0:
367,140,23126,2,0,L|297:134,1,70,2|2,3:2|0:0,0:0:0:0:
215,48,23442,2,0,P|210:83|208:127,1,70,2|0,3:2|0:0,0:0:0:0:
79,80,23758,2,0,P|92:112|112:151,1,70,2|0,3:2|0:0,0:0:0:0:
12,217,24074,6,0,B|53:232|53:232|157:233,1,140,2|0,3:2|3:0,0:0:0:0:
270,179,24547,2,0,L|274:260,1,70,2|0,0:0|0:0,0:0:0:0:
214,331,24863,1,0,0:0:0:0:
214,331,25021,2,0,L|308:340,1,70,2|0,3:2|0:0,0:0:0:0:
418,370,25337,6,0,P|424:303|369:233,1,140,0|0,3:0|3:0,0:0:0:0:
270,179,25810,1,0,0:0:0:0:
270,179,25968,2,0,P|312:157|357:148,1,70,2|0,3:2|0:0,0:0:0:0:
457,161,26284,2,0,P|434:119|425:74,1,70,2|0,3:2|0:0,0:0:0:0:
354,4,26600,6,0,P|324:52|222:76,1,140,2|0,3:0|3:0,0:0:0:0:
159,44,27074,1,0,0:0:0:0:
159,44,27231,2,0,P|157:91|163:117,1,70,0|0,3:0|0:0,0:0:0:0:
243,197,27547,1,0,3:0:0:0:
243,197,27705,1,0,0:0:0:0:
339,129,27863,6,0,L|419:142,1,70,2|0,3:2|0:0,0:0:0:0:
469,244,28179,2,0,L|399:255,1,70,2|0,3:2|0:0,0:0:0:0:
333,336,28495,1,2,3:2:0:0:
333,336,28652,2,0,P|264:300|199:300,1,140,2|2,0:0|0:0,0:0:0:0:
40,345,29126,6,0,B|75:349|75:349|111:333,1,70,2|2,3:2|0:0,0:0:0:0:
126,236,29442,2,0,B|91:232|91:232|55:248,1,70,2|2,3:2|0:0,0:0:0:0:
226,113,29758,6,0,L|218:227,1,83.9999974365235,8|0,0:0|0:0,0:0:0:0:
310,351,30074,6,0,B|329:317|305:263|305:263|302:227|319:178|365:168|365:168|419:192|465:154,1,315.000012016297,4|0,0:0|0:0,0:0:0:0:
460,157,31337,2,0,L|456:224,1,52.5000020027161,8|0,0:0|0:0,0:0:0:0:
376,0,31652,6,0,P|321:40|201:26,1,167.999994873047,4|10,0:0|0:0,0:0:0:0:
132,74,32126,1,0,0:0:0:0:
44,28,32284,2,0,P|30:72|37:129,1,83.9999974365235,2|0,3:2|0:0,0:0:0:0:
106,245,32600,1,8,0:0:0:0:
195,204,32758,6,0,L|286:217,1,83.9999974365235,2|0,0:0|3:0,0:0:0:0:
103,250,33074,2,0,L|19:261,1,83.9999974365235,2|8,0:0|0:0,0:0:0:0:
69,381,33389,1,2,0:0:0:0:
156,380,33547,2,0,P|194:349|217:301,1,83.9999974365235,2|2,3:2|0:0,0:0:0:0:
120,177,33863,1,10,0:0:0:0:
166,97,34021,1,2,0:0:0:0:
278,215,34179,6,0,P|357:209|462:203,1,167.999994873047,2|8,3:2|0:0,0:0:0:0:
512,298,34652,1,2,0:0:0:0:
512,298,34810,2,0,P|468:293|414:286,1,83.9999974365235,0|0,0:0|0:0,0:0:0:0:
364,345,35126,2,0,B|331:327|318:296|318:296|305:359|256:381,1,167.999994873047,10|0,0:0|3:0,0:0:0:0:
263,377,35600,5,0,0:0:0:0:
172,384,35758,2,0,P|124:352|105:323,1,83.9999974365235,8|0,0:0|0:0,0:0:0:0:
175,241,36074,2,0,L|266:228,1,83.9999974365235,2|0,3:2|0:0,0:0:0:0:
83,195,36390,2,0,L|-1:184,1,83.9999974365235,10|0,0:0|0:0,0:0:0:0:
39,28,36705,6,0,P|65:86|173:105,1,167.999994873047,2|8,3:2|0:0,0:0:0:0:
243,38,37179,1,0,0:0:0:0:
324,112,37337,2,0,P|382:128|415:128,1,83.9999974365235,0|0,3:0|0:0,0:0:0:0:
512,251,37652,2,0,P|454:235|421:235,1,83.9999974365235,8|2,0:0|0:0,0:0:0:0:
310,219,37968,6,0,P|315:306|237:344,1,167.999994873047,2|8,3:2|0:0,0:0:0:0:
132,318,38442,2,0,L|120:234,1,83.9999974365235,2|0,0:0|3:0,0:0:0:0:
163,121,38758,1,2,0:0:0:0:
73,37,38916,1,8,0:0:0:0:
1,130,39074,6,0,P|77:163|122:263,1,167.999994873047,0|0,0:0|0:0,0:0:0:0:
253,344,39547,2,0,P|246:304|238:234,1,83.9999974365235,8|0,0:0|0:0,0:0:0:0:
285,159,39863,1,0,3:0:0:0:
237,57,40021,1,8,0:0:0:0:
237,57,40179,1,2,3:2:0:0:
409,5,40337,6,0,P|384:76|381:181,1,167.999994873047,14|0,0:0|0:0,0:0:0:0:
470,280,40810,1,10,0:0:0:0:
470,280,40968,1,4,3:0:0:0:
375,358,41126,1,8,3:0:0:0:
333,360,41205,1,8,3:0:0:0:
292,348,41284,2,0,B|253:333|253:333|265:373,1,78.7500030040742,10|0,1:0|3:0,0:0:0:0:
263,368,41600,6,0,L|253:211,1,125.999996154785,14|0,0:0|3:0,0:0:0:0:
255,242,41916,1,0,0:0:0:0:
180,191,42074,2,0,L|83:201,1,83.9999974365235,2|0,3:2|0:0,0:0:0:0:
255,140,42389,2,0,L|352:150,1,83.9999974365235,2|0,3:2|0:0,0:0:0:0:
441,81,42705,1,0,3:0:0:0:
441,81,42863,6,0,L|432:206,1,125.999996154785,14|0,0:0|3:0,0:0:0:0:
431,206,43179,1,0,0:0:0:0:
501,289,43337,2,0,P|462:308|408:313,1,83.9999974365235,2|0,3:2|0:0,0:0:0:0:
301,308,43652,2,0,P|256:293|209:255,1,105.000004005432,2|0,3:2|0:0,0:0:0:0:
136,158,43968,2,0,P|124:102|136:31,1,125.999996154785,10|0,0:0|0:0,0:0:0:0:
134,34,44284,6,0,B|188:49|226:26|226:26|274:22|314:54,1,167.999994873047,6|0,0:0|3:0,0:0:0:0:
296,41,44758,1,0,0:0:0:0:
373,96,44916,2,0,P|414:105|465:102,1,83.9999974365235,6|0,0:0|0:0,0:0:0:0:
481,248,45231,2,0,P|443:228|393:218,1,83.9999974365235,2|0,0:0|0:0,0:0:0:0:
264,143,45547,6,0,P|270:235|276:322,2,167.999994873047,4|2|2,3:2|0:0|3:2,0:0:0:0:
264,143,46495,2,0,P|230:131|288:115,1,157.500006008148,8|0,0:0|0:0,0:0:0:0:
287,109,46810,6,0,B|345:68|345:68|383:139,1,140,4|2,0:0|0:3,0:0:0:0:
377,128,47284,1,0,3:0:0:0:
433,208,47442,2,0,L|520:200,2,70,8|0|2,0:0|0:0|0:3,0:0:0:0:
357,261,47916,6,0,L|287:254,1,70,0|2,3:0|0:0,0:0:0:0:
172,345,48231,1,8,0:0:0:0:
172,345,48389,2,0,P|187:295|186:257,1,70,2|0,0:0|3:0,0:0:0:0:
77,145,48705,2,0,P|62:195|63:233,1,70,10|0,0:0|0:0,0:0:0:0:
156,195,49021,2,0,P|214:193|285:177,1,105,2|0,0:0|0:0,0:0:0:0:
260,184,49337,6,0,L|246:107,1,70,4|0,0:0|3:0,0:0:0:0:
333,42,49652,2,0,L|345:110,1,70,0|0,0:0|3:0,0:0:0:0:
452,149,49968,2,0,L|440:81,1,70,0|0,3:0|3:0,0:0:0:0:
399,237,50284,1,10,0:0:0:0:
399,237,50442,1,0,0:0:0:0:
399,237,50600,6,0,P|355:240|307:246,1,83.9999974365235,0|0,3:0|3:0,0:0:0:0:
185,360,50916,2,0,P|229:357|277:351,1,83.9999974365235,2|0,3:2|3:0,0:0:0:0:
315,244,51231,1,2,3:2:0:0:
256,150,51389,1,0,3:0:0:0:
236,187,51468,1,4,3:0:0:0:
197,202,51547,6,0,P|116:164|123:103,1,157.500006008148,8|0,0:0|0:0,0:0:0:0:
120,107,51863,6,0,L|1:118,1,105.000004005432,8|0,0:0|3:0,0:0:0:0:
184,18,52179,2,0,L|303:28,1,105.000004005432,10|0,0:0|3:0,0:0:0:0:
401,105,52495,1,10,0:0:0:0:
482,81,52652,1,0,3:0:0:0:
456,203,52810,2,0,P|403:206|336:213,1,105.000004005432,8|0,0:0|3:0,0:0:0:0:
214,306,53126,5,10,0:0:0:0:
214,306,53284,1,0,3:0:0:0:
124,194,53442,5,8,0:0:0:0:
173,118,53600,1,0,3:0:0:0:
290,103,53758,5,10,0:0:0:0:
241,179,53916,1,0,3:0:0:0:
48,164,54074,5,10,0:0:0:0:
115,60,54232,1,0,3:0:0:0:
124,194,54389,5,2,1:0:0:0:
124,194,54705,2,0,P|86:242|30:248,1,105.000004005432,0|0,3:0|3:0,0:0:0:0:
72,340,55021,1,8,0:0:0:0:
174,307,55179,1,8,0:0:0:0:
276,274,55337,1,8,0:0:0:0:
383,136,55495,6,0,L|377:252,1,105.000004005432,4|8,3:0|0:0,0:0:0:0:
377,240,56284,6,0,L|441:231,1,52.5000020027161,8|8,0:0|3:0,0:0:0:0:
276,274,56442,2,0,L|224:266,1,52.5000020027161,4|0,3:0|3:0,0:0:0:0:
305,360,56600,2,0,L|308:202,1,157.500006008148,8|0,0:0|0:0,0:0:0:0:
308,202,56916,6,0,P|241:182|210:139,1,105.000004005432,6|0,3:1|0:0,0:0:0:0:
55,178,57231,2,0,P|122:198|153:241,1,105.000004005432,10|0,0:0|0:0,0:0:0:0:
219,346,57547,1,0,3:0:0:0:
305,360,57705,1,0,3:0:0:0:
381,255,57863,2,0,P|390:315|422:360,1,105.000004005432,10|4,0:0|3:0,0:0:0:0:
512,166,58179,6,0,P|457:170|391:180,1,105.000004005432,2|0,3:1|0:0,0:0:0:0:
265,246,58495,2,0,P|275:194|288:143,1,105.000004005432,10|0,0:0|0:0,0:0:0:0:
261,25,58810,1,0,3:0:0:0:
344,3,58968,1,0,3:0:0:0:
442,84,59126,2,0,P|409:125|409:183,1,105.000004005432,10|0,0:0|3:0,0:0:0:0:
452,293,59442,6,0,P|396:286|329:281,1,105.000004005432,2|0,3:1|0:0,0:0:0:0:
135,324,59758,2,0,P|187:319|239:313,1,105.000004005432,8|0,0:0|0:0,0:0:0:0:
299,195,60074,1,0,3:0:0:0:
299,195,60231,1,0,3:0:0:0:
212,66,60389,2,0,P|219:120|121:162,1,157.500006008148,10|0,0:0|0:0,0:0:0:0:
140,168,60705,6,0,P|71:169|34:202,1,105.000004005432,0|0,0:0|0:0,0:0:0:0:
75,341,61021,2,0,L|112:220,1,105.000004005432,10|0,0:0|0:0,0:0:0:0:
71,87,61337,1,2,3:2:0:0:
131,17,61495,1,0,3:0:0:0:
207,103,61652,2,0,P|261:106|318:115,1,105.000004005432,10|0,0:0|0:0,0:0:0:0:
474,43,61968,6,0,P|432:100|361:85,1,105.000004005432,2|0,3:1|0:0,0:0:0:0:
326,264,62284,2,0,P|368:207|439:222,1,105.000004005432,10|0,0:0|0:0,0:0:0:0:
498,319,62600,1,0,3:0:0:0:
440,384,62758,1,0,3:0:0:0:
320,331,62916,2,0,P|266:332|206:339,1,105.000004005432,10|0,0:0|3:0,0:0:0:0:
135,262,63231,6,0,P|187:235|212:183,1,105.000004005432,2|0,3:1|0:0,0:0:0:0:
59,106,63547,2,0,P|86:158|138:183,1,105.000004005432,10|0,0:0|0:0,0:0:0:0:
280,206,63863,1,0,3:0:0:0:
357,242,64021,1,0,3:0:0:0:
447,334,64179,2,0,P|490:290|474:240,1,105.000004005432,10|0,0:0|3:0,0:0:0:0:
512,130,64495,6,0,P|465:146|381:163,1,105.000004005432,2|0,3:1|0:0,0:0:0:0:
277,0,64810,2,0,P|304:41|342:117,1,105.000004005432,10|0,0:0|0:0,0:0:0:0:
280,206,65126,1,0,3:0:0:0:
189,199,65284,1,4,3:0:0:0:
100,271,65442,2,0,P|151:282|219:365,1,157.500006008148,8|0,0:0|0:0,0:0:0:0:
217,358,65758,6,0,P|266:373|332:349,1,105.000004005432,4|0,0:0|3:0,0:0:0:0:
394,245,66074,1,2,0:0:0:0:
394,245,66231,2,0,L|401:349,1,105.000004005432,8|2,0:0|0:0,0:0:0:0:
505,290,66547,1,0,0:0:0:0:
500,149,66705,2,0,B|457:137|424:155|419:158|414:160|375:175|322:155,1,157.500006008148,10|0,0:0|0:0,0:0:0:0:
345,161,67021,6,0,P|291:133|375:77,1,210.000008010865,2|10,3:2|0:0,0:0:0:0:
317,253,67495,1,0,3:0:0:0:
317,253,67652,2,0,P|262:259|211:268,1,105.000004005432,2|0,3:2|0:0,0:0:0:0:
84,340,67968,1,10,0:0:0:0:
17,266,68126,1,0,0:0:0:0:
17,266,68205,1,0,0:0:0:0:
17,266,68284,6,0,P|48:222|105:188,1,105.000004005432,0|0,3:0|3:0,0:0:0:0:
226,185,68600,2,0,P|177:165|140:105,1,105.000004005432,10|0,0:0|0:0,0:0:0:0:
168,0,68916,1,0,3:0:0:0:
242,38,69074,1,0,3:0:0:0:
361,0,69231,2,0,P|353:54|378:111,1,105.000004005432,8|0,0:0|0:0,0:0:0:0:
464,138,69547,6,0,P|380:137|393:256,1,210.000008010865,0|10,3:0|0:0,0:0:0:0:
372,242,70021,1,0,0:0:0:0:
453,314,70179,2,0,P|404:321|326:335,1,105.000004005432,2|0,3:2|0:0,0:0:0:0:
152,289,70495,2,0,P|201:282|279:268,1,105.000004005432,10|0,0:0|0:0,0:0:0:0:
286,185,70810,5,0,3:0:0:0:
199,151,70968,1,0,3:0:0:0:
108,175,71126,2,0,P|68:133|124:52,1,157.500006008148,10|0,0:0|0:0,0:0:0:0:
108,55,71442,2,0,P|166:51|199:12,1,105.000004005432,4|4,3:0|3:0,0:0:0:0:
325,6,71758,2,0,P|287:49|291:100,1,105.000004005432,8|2,0:0|0:3,0:0:0:0:
289,94,71995,1,2,0:3:0:0:
289,94,72074,6,0,P|311:153|286:215,1,105.000004005432,4|0,0:0|0:0,0:0:0:0:
167,253,72389,1,10,0:0:0:0:
91,202,72547,1,0,0:0:0:0:
0,270,72705,2,0,P|61:312|94:363,1,105.000004005432,2|0,0:0|3:0,0:0:0:0:
213,384,73021,2,0,P|285:347|317:299,1,105.000004005432,10|0,0:0|0:0,0:0:0:0:
372,168,73337,6,0,P|375:253|381:335,1,157.500006008148,2|0,3:2|0:0,0:0:0:0:
380,325,73652,2,0,P|425:302|479:339,1,105.000004005432,8|2,0:0|0:3,0:0:0:0:
286,247,73968,2,0,P|241:223|187:260,1,105.000004005432,0|0,3:0|3:0,0:0:0:0:
377,171,74284,2,0,P|445:137|423:50,1,157.500006008148,8|0,0:0|0:0,0:0:0:0:
438,64,74600,6,0,L|298:77,1,105.000004005432,2|2,3:2|0:0,0:0:0:0:
168,12,74916,1,2,3:2:0:0:
91,108,75074,2,0,L|230:121,1,105.000004005432,10|2,0:0|0:0,0:0:0:0:
320,222,75389,1,2,3:2:0:0:
273,318,75547,2,0,L|133:331,1,105.000004005432,10|2,0:0|0:0,0:0:0:0:
19,177,75863,6,0,P|20:244|108:255,1,157.500006008148,10|0,0:0|0:0,0:0:0:0:
96,262,76179,2,0,B|142:239|142:239|208:258,1,105.000004005432,10|0,0:0|3:0,0:0:0:0:
326,384,76495,1,8,0:0:0:0:
326,384,76652,1,4,3:0:0:0:
403,312,76810,2,0,L|516:326,1,105.000004005432,8|0,0:0|0:0,0:0:0:0:
358,217,77126,6,0,P|300:193|357:104,1,157.500006008148,6|0,3:1|0:0,0:0:0:0:
315,112,77442,2,0,P|341:58|314:20,1,105.000004005432,10|0,0:0|0:0,0:0:0:0:
168,76,77758,1,0,3:0:0:0:
96,30,77916,1,0,3:0:0:0:
2,98,78074,2,0,P|41:135|63:188,1,105.000004005432,10|0,0:0|3:0,0:0:0:0:
109,330,78389,6,0,P|118:275|140:219,1,105.000004005432,2|0,3:1|0:0,0:0:0:0:
305,237,78705,2,0,P|261:266|214:288,1,105.000004005432,10|0,0:0|0:0,0:0:0:0:
32,254,79021,1,0,3:0:0:0:
61,181,79179,1,0,3:0:0:0:
134,137,79337,2,0,P|153:79|75:50,1,157.500006008148,8|0,0:0|0:0,0:0:0:0:
78,48,79652,6,0,B|129:30|129:30|194:46,1,105.000004005432,2|0,3:1|0:0,0:0:0:0:
325,160,79968,2,0,B|274:178|274:178|209:162,1,105.000004005432,10|0,0:0|0:0,0:0:0:0:
134,137,80284,1,0,3:0:0:0:
134,137,80442,1,0,3:0:0:0:
10,212,80600,2,0,P|84:223|142:290,1,157.500006008148,8|0,0:0|0:0,0:0:0:0:
138,281,80916,6,0,P|189:269|236:304,1,105.000004005432,0|0,0:0|0:0,0:0:0:0:
418,174,81231,2,0,P|367:186|319:150,1,105.000004005432,10|0,0:0|0:0,0:0:0:0:
274,17,81547,1,2,3:2:0:0:
189,46,81705,1,0,3:0:0:0:
61,2,81863,2,0,P|44:50|91:95,1,105.000004005432,10|0,0:0|0:0,0:0:0:0:
220,151,82179,6,0,P|279:155|348:161,1,105.000004005432,2|0,3:1|0:0,0:0:0:0:
445,282,82495,2,0,P|392:278|340:274,1,105.000004005432,10|0,0:0|0:0,0:0:0:0:
212,344,82810,1,0,3:0:0:0:
132,310,82968,1,0,3:0:0:0:
28,350,83126,2,0,P|11:302|58:257,1,105.000004005432,8|0,0:0|3:0,0:0:0:0:
207,251,83442,6,0,P|203:192|197:123,1,105.000004005432,2|0,3:1|0:0,0:0:0:0:
46,53,83758,2,0,P|50:112|56:181,1,105.000004005432,10|0,0:0|0:0,0:0:0:0:
132,310,84074,1,0,3:0:0:0:
212,344,84232,1,0,3:0:0:0:
304,285,84389,2,0,P|356:292|394:341,1,105.000004005432,8|0,0:0|3:0,0:0:0:0:
480,381,84705,6,0,L|460:273,1,105.000004005432,2|0,3:1|0:0,0:0:0:0:
493,63,85021,2,0,L|513:171,1,105.000004005432,10|0,0:0|0:0,0:0:0:0:
378,255,85337,1,0,3:0:0:0:
378,255,85495,1,0,3:0:0:0:
306,187,85652,2,0,P|242:190|201:160,1,105.000004005432,10|0,0:0|3:0,0:0:0:0:
277,4,85968,6,0,L|268:108,1,105.000004005432,12|0,0:0|0:0,0:0:0:0:
160,240,86284,1,2,3:2:0:0:
85,183,86442,2,0,L|94:79,2,105.000004005432,8|2|0,0:0|0:0|3:0,0:0:0:0:
9,266,86916,2,0,P|85:303|108:356,1,105.000004005432,10|0,0:0|0:0,0:0:0:0:
184,384,87231,6,0,P|235:374|277:340,1,83.9999974365235,4|0,0:0|0:0,0:0:0:0:
284,272,87547,1,0,3:0:0:0:
284,272,87705,2,0,L|385:289,1,83.9999974365235,8|4,3:0|3:0,0:0:0:0:
451,235,88021,1,4,3:0:0:0:
440,135,88179,2,0,P|372:127|309:152,1,125.999996154785,6|0,0:0|0:0,0:0:0:0:
318,145,88495,6,0,B|303:106|303:106|319:62,1,83.9999974365235,0|0,0:0|3:0,0:0:0:0:
403,32,88810,1,8,0:0:0:0:
221,0,89126,2,0,L|129:13,1,83.9999974365235,0|0,3:0|3:0,0:0:0:0:
78,85,89442,1,10,0:0:0:0:
78,85,89758,6,0,L|84:206,1,83.9999974365235,8|0,0:0|3:0,0:0:0:0:
224,133,90074,2,0,L|218:254,1,83.9999974365235,2|0,3:2|3:0,0:0:0:0:
136,289,90389,1,10,0:0:0:0:
136,289,90547,1,0,0:0:0:0:
198,383,90705,2,0,B|278:356|278:356|366:388,1,167.999994873047,6|0,0:0|0:0,0:0:0:0:
356,384,91179,5,0,3:0:0:0:
432,358,91337,2,0,P|448:321|427:264,1,83.9999974365235,8|0,0:0|0:0,0:0:0:0:
388,220,91652,2,0,P|372:183|393:126,1,83.9999974365235,0|0,3:0|3:0,0:0:0:0:
427,78,91968,1,8,0:0:0:0:
222,0,92284,6,0,P|260:76|234:165,1,167.999994873047,4|8,3:2|0:0,0:0:0:0:
154,213,92758,1,0,0:0:0:0:
154,213,92916,2,0,P|105:212|45:177,1,83.9999974365235,0|0,0:0|3:0,0:0:0:0:
34,101,93231,1,8,0:0:0:0:
0,316,93547,6,0,P|52:309|120:302,1,83.9999974365235,0|0,3:0|3:0,0:0:0:0:
291,361,93863,2,0,P|239:368|171:375,1,83.9999974365235,10|0,0:0|0:0,0:0:0:0:
83,305,94179,1,2,3:2:0:0:
137,242,94337,1,0,0:0:0:0:
106,165,94495,2,0,P|110:123|156:100,1,83.9999974365235,10|0,0:0|0:0,0:0:0:0:
213,170,94810,6,0,P|297:155|380:142,1,167.999994873047,2|0,3:2|3:0,0:0:0:0:
490,224,95284,2,0,P|446:231|401:239,1,83.9999974365235,8|2,0:0|0:3,0:0:0:0:
349,317,95600,1,0,3:0:0:0:
349,317,95758,2,0,P|287:326|220:266,1,125.999996154785,8|0,0:0|0:0,0:0:0:0:
235,294,96074,6,0,B|194:280|194:280|157:297,1,83.9999974365235,8|0,0:0|3:0,0:0:0:0:
33,203,96389,2,0,B|73:218|73:218|110:200,1,83.9999974365235,2|8,3:2|0:0,0:0:0:0:
195,108,96705,1,2,0:0:0:0:
195,108,96863,1,2,0:0:0:0:
56,45,97021,2,0,L|69:145,1,83.9999974365235,10|0,0:0|0:0,0:0:0:0:
187,221,97337,6,0,P|132:216|102:190,2,83.9999974365235,0|0|0,3:0|0:0|3:0,0:0:0:0:
283,158,97810,1,8,0:0:0:0:
349,256,97968,2,0,P|404:261|434:287,2,83.9999974365235,0|2|8,3:0|0:3|0:0,0:0:0:0:
349,256,98442,1,2,0:3:0:0:
303,336,98600,6,0,L|185:349,1,83.9999974365235,4|2,0:0|0:3,0:0:0:0:
105,275,98916,2,0,L|188:265,1,83.9999974365235,2|8,3:2|0:0,0:0:0:0:
229,185,99231,1,2,3:2:0:0:
229,185,99389,1,0,0:0:0:0:
197,94,99547,2,0,P|164:57|87:84,1,125.999996154785,10|0,0:0|0:0,0:0:0:0:
95,71,99863,6,0,P|53:93|9:78,1,83.9999974365235,6|0,3:2|0:0,0:0:0:0:
0,185,100179,1,2,3:2:0:0:
0,185,100337,2,0,L|95:195,1,83.9999974365235,10|0,0:0|0:0,0:0:0:0:
179,285,100652,1,2,0:0:0:0:
179,285,100810,2,0,L|84:295,1,83.9999974365235,10|0,0:0|0:0,0:0:0:0:
25,365,101126,5,4,3:2:0:0:
190,208,101442,2,0,P|228:222|253:257,1,83.9999974365235,2|8,0:0|0:0,0:0:0:0:
224,362,101758,2,0,L|316:369,1,83.9999974365235,2|0,0:0|3:0,0:0:0:0:
307,368,101995,1,0,3:0:0:0:
307,368,102074,2,0,P|373:327|354:260,1,157.500006008148,8|0,0:0|0:0,0:0:0:0:
353,259,102389,6,0,P|341:208|386:175,1,105.000004005432,2|2,0:0|3:0,0:0:0:0:
482,141,102705,1,10,0:0:0:0:
482,141,102863,1,2,3:2:0:0:
411,64,103021,2,0,P|371:85|301:86,1,105.000004005432,4|2,3:0|0:0,0:0:0:0:
226,30,103337,5,8,0:0:0:0:
256,192,103416,12,0,104916,0:0:0:0:
453,105,107442,6,0,P|401:111|320:124,1,105.000004005432,4|0,1:0|3:0,0:0:0:0:
212,207,107758,2,0,P|264:213|345:226,1,105.000004005432,2|8,3:2|0:0,0:0:0:0:
438,304,108074,1,2,3:2:0:0:
357,326,108231,1,0,3:0:0:0:
276,349,108389,1,8,0:0:0:0:
169,277,108547,6,0,P|103:262|22:234,1,105.000004005432,2|0,3:2|3:0,0:0:0:0:
9,82,108863,1,8,0:0:0:0:
89,98,109021,2,0,P|142:91|128:22,1,105.000004005432,2|0,3:2|3:0,0:0:0:0:
244,0,109337,1,10,0:0:0:0:
244,0,109495,1,0,0:0:0:0:
307,85,109652,2,0,P|360:79|430:65,1,105.000004005432,8|0,0:0|0:0,0:0:0:0:
498,2,109968,6,0,L|480:142,1,105.000004005432,8|0,0:0|3:0,0:0:0:0:
397,238,110284,1,0,3:0:0:0:
324,191,110442,2,0,P|271:196|191:207,2,105.000004005432,12|0|0,0:0|3:0|3:0,0:0:0:0:
352,318,110916,1,10,0:0:0:0:
352,318,111074,6,0,P|281:358|185:314,1,157.500006008148,2|0,0:0|0:0,0:0:0:0:
211,341,111389,2,0,P|159:328|130:377,1,105.000004005432,10|0,0:0|3:0,0:0:0:0:
131,365,111705,1,0,3:0:0:0:
47,322,111863,2,0,L|35:208,1,105.000004005432,8|0,0:0|3:0,0:0:0:0:
137,121,112179,2,0,L|147:225,1,105.000004005432,8|0,0:0|3:0,0:0:0:0:
211,341,112495,5,2,3:2:0:0:
296,329,112652,1,2,3:2:0:0:
347,258,112810,2,0,P|396:263|412:310,1,105.000004005432,2|10,3:2|0:0,0:0:0:0:
296,329,113126,1,2,3:2:0:0:
241,250,113284,1,2,3:2:0:0:
295,162,113442,2,0,P|354:165|400:138,1,105.000004005432,2|2,0:0|3:2,0:0:0:0:
465,18,113758,6,0,L|485:160,1,105.000004005432,2|10,3:2|0:0,0:0:0:0:
393,144,114074,1,2,3:2:0:0:
300,55,114231,2,0,L|160:69,1,105.000004005432,2|8,3:2|0:0,0:0:0:0:
195,65,114547,1,0,3:0:0:0:
78,9,114705,2,0,L|95:144,1,105.000004005432,2|2,0:3|0:3,0:0:0:0:
10,202,115021,5,10,0:0:0:0:
74,277,115179,2,0,L|65:329,2,41.9999987182618,0|8|8,3:0|0:0|0:0,0:0:0:0:
170,239,115495,1,8,0:0:0:0:
170,239,115574,1,8,0:0:0:0:
170,239,115652,1,8,0:0:0:0:
244,293,115802,2,0,L|318:281,1,70,2|4,3:2|3:0,0:0:0:0:
411,315,116102,6,0,B|392:267|423:222|423:222|483:194|464:113|464:113|410:148|372:121|372:121|349:156,1,350,6|8,1:0|0:0,0:0:0:0:
295,211,117049,1,8,0:0:0:0:
295,211,117207,1,4,3:0:0:0:
165,122,117365,5,4,0:0:0:0:
256,192,117444,12,2,120088,0:0:0:0:
256,192,120128,12,0,124944,0:0:0:0:
