osu file format v14

[General]
AudioFilename: audio.mp3
AudioLeadIn: 0
PreviewTime: 56266
Countdown: 0
SampleSet: Soft
StackLeniency: 0.4
Mode: 0
LetterboxInBreaks: 0
WidescreenStoryboard: 1

[Editor]
Bookmarks: 77518
DistanceSpacing: 0.9
BeatDivisor: 4
GridSize: 32
TimelineZoom: 1.7

[Metadata]
Title:Catch the Moment -Radio Edit ver.-
TitleUnicode:Catch the Moment -Radio Edit ver.-
Artist:LiSA
ArtistUnicode:LiSA
Creator:StarrStyx
Version:Easy
Source:劇場版 ソードアート・オンライン -オーディナル・スケール-
Tags:sword art online the movie ordinal scale sao gidz gee logic agent kisses haruto haruto_aizawa sahuang my angel azusa little cloudsplash16 -_g_i_d_z_-
BeatmapID:1211183
BeatmapSetID:571125

[Difficulty]
HPDrainRate:2
CircleSize:3
OverallDifficulty:2
ApproachRate:3
SliderMultiplier:0.9
SliderTickRate:1

[Events]
//Background and Video events
0,0,"sao.jpg",0,0
//Break Periods
2,22124,29011
//Storyboard Layer 0 (Background)
//Storyboard Layer 1 (Fail)
//Storyboard Layer 2 (Pass)
//Storyboard Layer 3 (Foreground)
//Storyboard Sound Samples

[TimingPoints]
451,315.789473684211,4,2,1,50,1,0
4161,-100,4,2,1,5,0,0
4240,-100,4,2,1,50,0,0
10556,-100,4,2,1,80,0,0
11819,-100,4,2,1,75,0,0
21924,-100,4,2,1,60,0,0
30135,-100,4,2,1,80,0,0
30372,-100,4,2,1,5,0,0
30451,-100,4,2,1,80,0,0
32029,-100,4,2,1,70,0,0
39845,-100,4,2,1,5,0,0
39924,-100,4,2,1,70,0,0
41977,-100,4,2,1,65,0,0
47187,-100,4,2,1,65,0,0
51293,-100,4,2,1,70,0,0
51608,-100,4,2,1,78,0,0
51924,-100,4,2,1,86,0,0
52240,-100,4,2,1,90,0,0
57293,-100,4,2,1,80,0,1
74977,-100,4,2,1,85,0,1
76872,-100,4,2,1,90,0,0
77503,-100,4,2,1,80,0,1
87529,-100,4,2,1,5,0,1
87608,-100,4,2,1,80,0,1
97635,-100,4,2,1,5,0,1
97714,-100,4,2,1,75,0,0
106556,-100,4,2,1,50,0,0
107819,-100,4,2,1,80,0,0
120451,-100,4,2,0,10,0,0

[Colours]
Combo1 : 163,163,163
Combo2 : 111,150,255
Combo3 : 249,154,68
Combo4 : 255,89,89

[HitObjects]
44,124,451,6,0,P|121:161|222:134,1,180,2|2,0:0|0:0,0:0:0:0:
287,94,1398,1,2,0:0:0:0:
367,53,1714,2,0,P|413:42|470:57,2,90,2|2|2,0:0|0:0|0:0,0:0:0:0:
461,206,2977,6,0,B|338:187|338:187|282:213,1,180,2|2,0:0|0:0,0:0:0:0:
207,168,3924,1,2,0:0:0:0:
125,206,4240,2,0,P|117:162|135:112,2,90,2|2|2,0:0|0:0|0:0,0:0:0:0:
19,352,5503,6,0,P|98:313|194:341,1,180,2|2,0:0|0:0,0:0:0:0:
251,273,6451,1,2,0:0:0:0:
316,334,6766,2,0,L|416:343,2,90,2|2|2,0:0|0:0|0:0,0:0:0:0:
424,190,8029,6,0,B|364:182|364:182|325:160|325:160|234:148,1,180,2|2,0:0|0:0,0:0:0:0:
178,96,8977,2,0,L|88:108,1,90,2|6,0:0|0:0,0:0:0:0:
38,309,10556,6,0,P|119:257|214:285,1,180,8|8,0:0|3:0,0:0:0:0:
266,329,11503,1,8,0:0:0:0:
356,317,11819,6,0,P|377:278|378:233,1,90,6|8,0:0|0:0,0:0:0:0:
307,177,12451,2,0,P|362:146|444:166,2,135,2|8|8,0:0|0:0|0:0,0:0:0:0:
242,113,13714,2,0,L|139:106,1,90,2|8,0:0|0:0,0:0:0:0:
81,163,14345,2,0,P|63:108|95:37,2,135,8|8|8,0:0|0:0|0:0,0:0:0:0:
146,225,15608,2,0,L|131:318,1,90,8|8,0:0|0:0,0:0:0:0:
216,345,16240,2,0,L|230:256,1,90,2|8,3:2|3:1,0:0:0:0:
301,200,16872,6,0,P|388:207|449:137,1,180,6|2,0:0|0:0,0:0:0:0:
406,64,17819,1,8,0:0:0:0:
326,106,18135,2,0,L|136:91,1,180,2|2,0:0|3:2,0:0:0:0:
56,85,19082,1,8,3:2:0:0:
256,192,19398,12,8,21924,0:0:0:0:
267,143,30451,6,0,P|391:73|356:211,1,360,4|8,0:0|0:0,0:0:0:0:
271,237,32029,6,0,L|75:225,1,180,6|2,0:0|0:0,0:0:0:0:
35,155,32977,1,8,0:0:0:0:
89,83,33293,2,0,P|163:34|254:50,1,180,2|2,0:0|0:0,0:0:0:0:
331,83,34240,1,8,0:0:0:0:
400,140,34556,2,0,P|420:72|387:12,2,135,2|0|8,0:0|0:0|0:0,0:0:0:0:
457,209,35819,2,0,P|373:247|281:212,1,180,2|2,0:0|0:0,0:0:0:0:
221,166,36766,1,8,0:0:0:0:
302,127,37082,6,0,P|231:79|148:114,1,180,6|2,0:0|0:0,0:0:0:0:
81,169,38029,1,8,0:0:0:0:
62,257,38345,2,0,B|126:251|126:251|162:271|162:271|249:263,1,180,2|2,0:0|0:0,0:0:0:0:
306,207,39293,1,8,0:0:0:0:
387,244,39608,2,0,P|434:170|408:79,1,180,2|2,0:0|0:0,0:0:0:0:
336,37,40556,1,8,0:0:0:0:
261,87,40872,2,0,L|164:80,1,90,0|8,0:0|0:0,0:0:0:0:
84,56,41503,2,0,P|66:97|75:154,1,90,8|2,0:0|0:0,0:0:0:0:
97,176,41977,6,0,P|61:281|139:355,1,225,4|2,0:0|0:0,0:0:0:0:
254,294,43240,2,0,B|388:248|336:368|480:315,1,225,6|2,0:0|0:0,0:0:0:0:
422,240,44345,2,0,L|436:143,1,90,0|4,0:0|0:0,0:0:0:0:
312,18,45293,1,4,0:0:0:0:
191,151,45924,1,4,0:0:0:0:
39,52,46556,2,0,L|144:45,2,90,0|2|4,0:0|0:0|0:0,0:0:0:0:
17,230,47819,6,0,P|104:213|191:260,1,180,8|8,0:0|0:0,0:0:0:0:
257,302,48766,1,0,0:0:0:0:
336,344,49082,2,0,P|383:360|440:342,1,90,8|2,0:0|0:0,0:0:0:0:
388,268,49714,2,0,L|409:83,1,180,8|0,0:0|0:0,0:0:0:0:
333,38,50661,2,0,P|254:80|153:50,1,180,8|2,0:0|0:0,0:0:0:0:
82,36,51608,2,0,L|70:137,1,90,2|2,0:0|0:0,0:0:0:0:
103,209,52240,6,0,P|59:216|18:198,2,90,12|8|8,0:0|0:0|0:0,0:0:0:0:
182,166,53187,1,8,0:0:0:0:
241,233,53503,2,0,L|232:330,2,90,8|8|8,0:0|0:0|0:0,0:0:0:0:
309,174,54451,1,8,0:0:0:0:
380,228,54766,2,0,P|460:231|384:138,1,270,6|8,0:0|0:0,0:0:0:0:
309,174,56029,1,12,0:0:0:0:
40,168,57293,6,0,L|219:157,1,180,6|2,0:0|0:0,0:0:0:0:
287,98,58240,1,8,0:0:0:0:
375,111,58556,2,0,P|453:150|458:245,1,180,2|2,0:0|0:0,0:0:0:0:
438,321,59503,1,8,0:0:0:0:
349,302,59819,6,0,B|247:278|247:278|161:305,1,180,2|2,0:0|0:0,0:0:0:0:
96,255,60766,1,8,0:0:0:0:
21,205,61082,2,0,P|6:244|18:302,2,90,2|8|2,0:0|0:0|0:0,0:0:0:0:
65,126,62029,1,8,0:0:0:0:
145,85,62345,6,0,B|213:78|213:78|248:98|248:98|320:91,1,180,6|2,0:0|0:0,0:0:0:0:
390,36,63293,1,8,0:0:0:0:
449,102,63608,2,0,P|481:185|452:278,1,180,2|2,0:0|0:0,0:0:0:0:
404,342,64556,1,8,0:0:0:0:
320,308,64872,6,0,P|237:289|151:331,1,180,2|2,0:0|0:0,0:0:0:0:
77,279,65819,1,8,0:0:0:0:
147,223,66135,2,0,L|160:83,2,135,8|8|8,0:0|0:0|0:0,0:0:0:0:
201,294,67398,6,0,B|306:263|274:359|414:309,1,180,6|2,0:0|0:0,0:0:0:0:
450,275,68345,1,8,0:0:0:0:
480,190,68661,2,0,P|458:120|347:118,1,180,2|2,0:0|0:0,0:0:0:0:
295,46,69608,1,8,0:0:0:0:
231,109,69924,6,0,B|119:89|119:89|55:118,1,180,2|2,0:0|0:0,0:0:0:0:
113,188,70872,1,8,0:0:0:0:
38,238,71187,2,0,P|97:277|192:233,1,180,2|2,0:0|0:0,0:0:0:0:
266,283,72135,1,8,0:0:0:0:
347,321,72451,6,0,P|433:327|474:239,1,180,6|2,0:0|0:0,0:0:0:0:
418,183,73398,1,8,0:0:0:0:
503,156,73714,2,0,P|441:95|349:126,1,180,2|2,0:0|0:0,0:0:0:0:
287,171,74661,1,8,0:0:0:0:
210,122,74977,6,0,L|37:103,2,135,8|8|8,0:0|0:0|0:0,0:0:0:0:
203,211,76240,1,8,0:0:0:0:
347,103,76872,1,2,3:2:0:0:
475,228,77503,6,0,P|417:293|324:280,1,180,6|2,0:0|0:0,0:0:0:0:
256,336,78451,1,8,0:0:0:0:
195,269,78766,2,0,B|76:283|76:283|9:257,1,180,2|2,0:0|0:0,0:0:0:0:
72,187,79714,1,8,0:0:0:0:
8,122,80029,6,0,P|90:98|156:154,1,180,2|2,0:0|0:0,0:0:0:0:
230,101,80977,1,8,0:0:0:0:
307,53,81293,2,0,P|347:34|391:36,2,90,2|8|2,0:0|0:0|0:0,0:0:0:0:
365,122,82240,1,8,0:0:0:0:
415,196,82556,6,0,B|455:277|455:277|404:383,1,180,2|2,0:0|0:0,0:0:0:0:
348,298,83503,1,8,0:0:0:0:
271,345,83819,2,0,P|187:376|99:345,1,180,2|2,0:0|0:0,0:0:0:0:
39,285,84766,1,8,0:0:0:0:
106,225,85082,6,0,P|190:194|278:225,1,180,2|2,0:0|0:0,0:0:0:0:
351,177,86029,1,8,0:0:0:0:
426,226,86345,2,0,L|410:379,2,135,8|8|8,0:0|0:0|0:0,0:0:0:0:
472,148,87608,6,0,P|486:104|469:48,1,90,4|2,0:0|0:0,0:0:0:0:
395,100,88240,1,2,0:0:0:0:
330,36,88556,2,0,L|145:22,1,180,4|8,0:0|0:0,0:0:0:0:
65,53,89503,2,0,P|46:96|56:146,1,90,2|8,0:0|0:0,0:0:0:0:
122,193,90135,6,0,L|301:179,1,180,2|2,0:0|0:0,0:0:0:0:
360,111,91082,2,0,P|385:144|386:214,1,90,6|2,0:0|0:0,0:0:0:0:
448,261,91714,1,8,0:0:0:0:
388,328,92029,2,0,L|286:321,1,90,2|8,0:0|0:0,0:0:0:0:
220,275,92661,6,0,P|132:261|54:311,1,180,6|2,0:0|0:0,0:0:0:0:
5,232,93608,1,8,0:0:0:0:
58,159,93924,2,0,P|127:107|224:121,1,180,2|2,0:0|0:0,0:0:0:0:
300,150,94872,1,8,0:0:0:0:
383,183,95187,6,0,P|384:116|338:68,2,135,8|8|8,0:0|0:0|0:0,0:0:0:0:
459,230,96451,2,0,P|426:260|383:271,1,90,2|8,0:0|0:0,0:0:0:0:
379,361,97082,2,0,P|336:348|305:316,1,90,2|8,0:0|0:0,0:0:0:0:
310,226,97714,6,0,L|328:43,1,180,4|2,0:0|0:0,0:0:0:0:
239,67,98661,1,8,0:0:0:0:
151,44,98977,2,0,P|64:26|2:88,1,180,2|2,0:0|0:0,0:0:0:0:
89,110,99924,1,8,0:0:0:0:
33,180,100240,6,0,L|17:322,2,135,8|8|8,0:0|0:0|0:0,0:0:0:0:
120,202,101503,2,0,P|164:220|229:210,1,90,8|2,0:0|0:0,0:0:0:0:
272,157,102135,2,0,P|316:139|381:149,1,90,2|8,0:0|0:0,0:0:0:0:
430,193,102766,6,0,L|435:351,2,135,8|8|12,0:0|0:0|0:0,0:0:0:0:
256,192,103872,12,0,106556,0:0:0:0:
403,100,107819,6,0,L|307:90,1,90,6|8,0:0|0:0,0:0:0:0:
239,142,108451,2,0,P|223:78|260:19,2,135,2|8|8,0:0|0:0|0:0,0:0:0:0:
149,154,109714,2,0,P|103:151|57:173,1,90,2|8,0:0|0:0,0:0:0:0:
118,239,110345,2,0,L|105:378,2,135,8|8|8,0:0|0:0|0:0,0:0:0:0:
203,266,111608,2,0,P|245:285|293:283,1,90,8|8,0:0|0:0,0:0:0:0:
375,261,112240,2,0,P|412:234|434:191,1,90,2|8,0:0|3:2,0:0:0:0:
453,108,112872,6,0,L|264:89,1,180,8|2,0:0|0:0,0:0:0:0:
203,34,113819,1,8,0:0:0:0:
122,74,114135,2,0,P|71:146|96:242,1,180,2|8,0:0|3:2,0:0:0:0:
134,308,115082,1,2,3:2:0:0:
214,266,115398,6,0,L|209:170,2,90,8|8|8,0:0|3:2|3:2,0:0:0:0:
323,344,116503,2,0,P|415:261|317:249,1,270,4|2,0:0|0:0,0:0:0:0:
254,285,117766,5,4,0:2:0:0:
256,192,117845,12,4,120451,0:0:0:0:
