osu file format v14

[General]
AudioFilename: audio.mp3
AudioLeadIn: 0
PreviewTime: 56266
Countdown: 0
SampleSet: Soft
StackLeniency: 0.5
Mode: 0
LetterboxInBreaks: 0
WidescreenStoryboard: 0

[Editor]
Bookmarks: 77518
DistanceSpacing: 1
BeatDivisor: 4
GridSize: 32
TimelineZoom: 3.7

[Metadata]
Title:Catch the Moment -Radio Edit ver.-
TitleUnicode:Catch the Moment -Radio Edit ver.-
Artist:LiSA
ArtistUnicode:LiSA
Creator:StarrStyx
Version:Augma
Source:劇場版 ソードアート・オンライン -オーディナル・スケール-
Tags:sword art online the movie ordinal scale sao gidz gee logic agent kisses haruto haruto_aizawa sahuang my angel azusa little cloudsplash16 -_g_i_d_z_-
BeatmapID:1210405
BeatmapSetID:571125

[Difficulty]
HPDrainRate:6
CircleSize:4
OverallDifficulty:9
ApproachRate:9.5
SliderMultiplier:1.76
SliderTickRate:1

[Events]
//Background and Video events
0,0,"sao.jpg",0,0
//Break Periods
2,105493,106347
//Storyboard Layer 0 (Background)
//Storyboard Layer 1 (Fail)
//Storyboard Layer 2 (Pass)
//Storyboard Layer 3 (Foreground)
//Storyboard Sound Samples

[TimingPoints]
451,315.789473684211,4,2,1,50,1,0
451,-133.333333333333,4,2,1,50,0,0
4161,-133.333333333333,4,2,1,5,0,0
4240,-133.333333333333,4,2,1,50,0,0
10398,-133.333333333333,4,2,1,80,0,0
11819,-100,4,2,1,75,0,0
21608,-83.3333333333333,4,2,1,80,0,0
21845,-83.3333333333333,4,2,1,5,0,0
21924,-133.333333333333,4,2,1,60,0,0
30135,-100,4,2,1,80,0,0
30372,-100,4,2,1,5,0,0
30451,-100,4,2,1,80,0,0
32029,-100,4,2,1,70,0,0
39845,-100,4,2,1,5,0,0
39924,-100,4,2,1,70,0,0
41977,-133.333333333333,4,2,1,65,0,0
47108,-133.333333333333,4,2,1,5,0,0
47187,-133.333333333333,4,2,1,65,0,0
51293,-100,4,2,1,70,0,0
51608,-83.3333333333333,4,2,1,78,0,0
51924,-71.4285714285714,4,2,1,86,0,0
52240,-71.4285714285714,4,2,1,90,0,0
54766,-100,4,2,1,90,0,0
56661,-100,4,2,1,75,0,0
56977,-117.647058823529,4,2,1,90,0,0
57214,-117.647058823529,4,2,1,5,0,0
57293,-100,4,2,1,80,0,1
61003,-100,4,2,1,5,0,1
61082,-100,4,2,1,80,0,1
74977,-100,4,2,1,85,0,1
76872,-100,4,2,1,90,0,0
77187,-117.647058823529,4,2,1,90,0,0
77503,-100,4,2,1,80,0,1
87529,-100,4,2,1,5,0,1
87608,-100,4,2,1,80,0,1
97635,-100,4,2,1,5,0,1
97714,-100,4,2,1,75,0,0
106872,-100,4,2,1,35,0,0
107819,-100,4,2,1,80,0,0
116503,-133.333333333333,4,2,1,80,0,0
120451,-133.333333333333,4,2,0,10,0,0

[Colours]
Combo1 : 163,163,163
Combo2 : 111,150,255
Combo3 : 249,154,68
Combo4 : 255,89,89

[HitObjects]
210,61,451,6,0,P|255:101|244:169,1,132.000005035401,2|0,0:0|0:0,0:0:0:0:
171,237,924,1,0,0:0:0:0:
171,237,1082,2,0,L|94:232,1,66.0000025177003,2|0,0:0|0:0,0:0:0:0:
256,352,1398,2,0,L|179:357,1,66.0000025177003
392,260,1714,6,0,P|413:287|414:327,1,66.0000025177003,2|0,0:0|0:0,0:0:0:0:
371,181,2029,2,0,P|404:176|440:195,1,66.0000025177003,2|0,0:0|0:0,0:0:0:0:
296,63,2345,2,0,L|288:200,1,132.000005035401,2|0,0:0|0:0,0:0:0:0:
209,230,2819,1,0,0:0:0:0:
209,230,2898,1,0,0:0:0:0:
209,230,2977,6,0,B|271:224|271:224|293:234|293:234|346:230,1,132.000005035401,2|0,0:0|0:0,0:0:0:0:
429,139,3451,1,0,0:0:0:0:
498,289,3608,2,0,L|508:213,1,66.0000025177003,2|0,0:0|0:0,0:0:0:0:
460,64,3924,2,0,P|409:60|368:87,1,99.0000037765504
356,103,4240,6,0,L|346:27,1,66.0000025177003,2|0,0:0|0:0,0:0:0:0:
223,236,4556,2,0,L|233:160,1,66.0000025177003,2|0,0:0|0:0,0:0:0:0:
368,224,4872,2,0,L|386:354,1,132.000005035401,2|0,0:0|0:0,0:0:0:0:
196,243,5345,1,0,0:0:0:0:
196,243,5424,1,0,0:0:0:0:
196,243,5503,6,0,P|132:232|79:268,1,132.000005035401,2|0,0:0|0:0,0:0:0:0:
144,376,5977,1,0,0:0:0:0:
144,376,6135,2,0,L|149:311,1,66.0000025177003,2|0,0:0|0:0,0:0:0:0:
278,201,6451,2,0,L|282:266,1,66.0000025177003
450,246,6766,6,0,P|421:232|382:232,1,66.0000025177003,2|0,0:0|0:0,0:0:0:0:
230,136,7082,2,0,P|259:122|298:122,1,66.0000025177003,2|0,0:0|0:0,0:0:0:0:
162,42,7398,2,0,P|105:73|35:58,1,132.000005035401,2|0,0:0|0:0,0:0:0:0:
112,198,7872,1,0,0:0:0:0:
112,198,7951,1,0,0:0:0:0:
112,198,8029,6,0,L|99:334,1,132.000005035401,2|0,0:0|0:0,0:0:0:0:
220,118,8503,1,0,0:0:0:0:
300,223,8661,2,0,L|371:232,1,66.0000025177003,2|0,0:0|0:0,0:0:0:0:
374,117,8977,2,0,L|439:108,1,66.0000025177003
466,106,9214,1,0,0:0:0:0:
465,105,9293,1,6,0:0:0:0:
256,192,9372,12,0,10239,0:0:0:0:
179,261,10398,5,0,3:0:0:0:
179,261,10477,1,0,3:0:0:0:
179,261,10556,1,8,0:0:0:0:
320,82,10793,5,8,0:0:0:0:
399,294,11029,5,8,0:0:0:0:
102,201,11187,5,8,3:0:0:0:
127,180,11266,1,0,3:0:0:0:
157,167,11345,1,0,3:0:0:0:
190,165,11424,1,0,3:0:0:0:
222,173,11503,1,8,3:2:0:0:
441,41,11819,6,4,B|447:142,1,88,6|0,0:0|0:0,0:0:0:0:
253,212,12135,2,0,B|259:111,1,88,8|0,0:0|0:0,0:0:0:0:
440,342,12451,2,0,B|351:316|371:388|265:368,1,176,2|8,0:0|0:0,0:0:0:0:
109,274,12924,2,0,B|136:238|136:238|117:375,1,176,8|0,0:0|0:0,0:0:0:0:
21,233,13398,2,0,B|7:194|7:194|26:146,1,88,8|0,0:0|0:0,0:0:0:0:
191,29,13714,1,2,0:0:0:0:
111,194,13872,1,2,0:0:0:0:
291,175,14029,2,0,B|308:132|308:132|295:93,1,88,8|0,0:0|0:0,0:0:0:0:
235,307,14345,6,0,L|424:320,1,176,8|2,0:0|0:0,0:0:0:0:
291,175,14819,1,8,0:0:0:0:
434,97,14977,2,0,L|419:185,2,88,8|0|8,0:0|0:0|0:0,0:0:0:0:
222,153,15451,1,2,0:0:0:0:
222,153,15608,2,0,L|315:148,1,88,8|0,0:0|0:0,0:0:0:0:
204,64,15924,2,0,B|156:61|156:61|119:87,1,88,8|0,0:0|0:0,0:0:0:0:
19,215,16240,1,2,3:2:0:0:
59,199,16318,1,0,3:0:0:0:
103,199,16397,1,0,3:0:0:0:
144,215,16476,1,0,3:0:0:0:
176,246,16556,2,0,L|166:342,1,88,8|0,3:1|0:0,0:0:0:0:
147,107,16872,5,6,0:0:0:0:
315,250,17029,1,0,0:0:0:0:
83,298,17187,1,8,0:0:0:0:
253,105,17345,1,0,0:0:0:0:
308,349,17503,5,2,0:0:0:0:
123,213,17661,1,0,0:0:0:0:
390,117,17819,1,8,0:0:0:0:
201,356,17977,1,0,0:0:0:0:
294,75,18135,5,2,0:0:0:0:
420,333,18293,1,0,0:0:0:0:
162,283,18451,1,8,0:0:0:0:
408,144,18608,1,0,0:0:0:0:
207,6,18766,5,2,3:2:0:0:
188,35,18845,1,0,3:0:0:0:
182,69,18924,1,0,3:0:0:0:
186,104,19003,1,0,3:0:0:0:
201,135,19082,1,8,3:2:0:0:
201,135,19398,5,8,0:0:0:0:
381,82,19556,1,0,3:0:0:0:
381,82,19635,1,0,3:0:0:0:
381,82,19714,1,8,3:2:0:0:
123,262,19872,1,0,3:0:0:0:
123,262,19951,1,0,3:0:0:0:
123,262,20029,1,8,3:2:0:0:
415,331,20187,5,8,0:0:0:0:
256,103,20345,1,2,0:0:0:0:
131,360,20503,1,12,0:0:0:0:
256,192,20582,12,0,21450,0:0:0:0:
335,221,21608,6,0,B|256:196|256:265|174:240,1,158.399995166016,4|0,0:0|0:0,0:0:0:0:
148,201,21924,6,0,L|154:281,1,66.0000025177003,6|0,0:0|0:0,0:0:0:0:
46,133,22240,2,0,L|40:213,1,66.0000025177003
152,67,22556,2,0,P|217:54|272:88,1,132.000005035401,2|0,0:0|0:0,0:0:0:0:
355,177,23029,1,0,0:0:0:0:
462,74,23187,2,0,L|470:150,1,66.0000025177003,2|0,0:0|0:0,0:0:0:0:
353,193,23503,2,0,L|345:269,1,66.0000025177003
439,362,23819,1,2,0:0:0:0:
345,274,23977,1,0,0:0:0:0:
231,343,24135,2,0,P|202:356|161:349,1,66.0000025177003,2|0,0:0|0:0,0:0:0:0:
36,245,24451,6,0,P|105:248|159:210,1,132.000005035401,2|0,0:0|0:0,0:0:0:0:
71,93,24924,1,0,0:0:0:0:
71,93,25082,2,0,P|66:125|77:157,1,66.0000025177003,2|0,0:0|0:0,0:0:0:0:
177,299,25398,2,0,P|207:286|229:262,1,66.0000025177003
335,157,25714,2,0,L|479:167,1,132.000005035401,2|0,0:0|0:0,0:0:0:0:
359,68,26187,1,0,0:0:0:0:
386,251,26345,2,0,L|402:173,1,66.0000025177003,2|0,0:0|0:0,0:0:0:0:
265,195,26661,2,0,L|239:119,1,66.0000025177003,2|0,0:0|0:0,0:0:0:0:
44,145,26977,6,0,P|115:136|170:175,1,132.000005035401,2|0,0:0|0:0,0:0:0:0:
249,275,27451,1,0,0:0:0:0:
91,228,27608,1,2,0:0:0:0:
91,228,27766,1,0,0:0:0:0:
244,132,27924,1,0,0:0:0:0:
244,132,28082,1,0,0:0:0:0:
330,277,28240,6,0,P|401:286|456:247,1,132.000005035401,2|0,0:0|0:0,0:0:0:0:
368,127,28714,1,0,0:0:0:0:
368,127,28872,2,0,L|377:193,1,66.0000025177003,2|0,0:0|0:0,0:0:0:0:
269,71,29187,2,0,L|243:131,1,66.0000025177003,2|0,0:0|0:0,0:0:0:0:
137,224,29503,6,0,L|-7:210,1,132.000005035401,2|0,0:0|0:0,0:0:0:0:
139,116,29977,1,0,0:0:0:0:
285,308,30135,6,0,P|346:281|413:300,1,132,8|0,0:0|0:0,0:0:0:0:
438,312,30451,1,4,0:0:0:0:
256,192,30529,12,8,31714,0:0:0:0:
337,256,32029,6,0,L|427:247,1,88,6|0,0:0|0:0,0:0:0:0:
167,360,32345,2,0,B|155:316|155:316|168:264,1,88,8|0,0:0|0:0,0:0:0:0:
270,82,32661,1,2,0:0:0:0:
307,259,32819,1,2,0:0:0:0:
148,199,32977,2,0,B|112:194|112:194|53:211,1,88,8|0,0:0|0:0,0:0:0:0:
331,328,33293,5,2,0:0:0:0:
148,199,33451,1,0,0:0:0:0:
378,123,33608,1,8,0:0:0:0:
221,285,33766,1,0,0:0:0:0:
412,382,33924,2,0,P|426:343|415:282,1,88,2|2,0:0|0:0,0:0:0:0:
289,90,34240,2,0,P|284:133|298:174,1,88,8|0,0:0|0:0,0:0:0:0:
480,64,34556,6,0,P|417:11|324:24,1,176,2|8,0:0|0:0,0:0:0:0:
207,129,35029,2,0,L|115:120,1,88,0|2,0:0|0:0,0:0:0:0:
267,304,35345,1,2,0:0:0:0:
41,282,35503,2,0,L|128:273,1,88,8|0,0:0|0:0,0:0:0:0:
343,362,35819,6,0,P|361:324|354:264,1,88,2|0,0:0|0:0,0:0:0:0:
359,111,36135,2,0,P|382:145|438:169,1,88,8|0,0:0|0:0,0:0:0:0:
447,74,36451,1,2,0:0:0:0:
274,197,36608,1,2,0:0:0:0:
274,197,36766,2,0,P|232:193|183:157,1,88,8|0,0:0|0:0,0:0:0:0:
86,43,37082,6,0,L|77:141,1,88,6|0,0:0|0:0,0:0:0:0:
158,298,37398,1,8,0:0:0:0:
0,253,37556,1,0,0:0:0:0:
226,343,37714,2,0,B|240:299|240:299|226:243,1,88,2|2,0:0|0:0,0:0:0:0:
77,130,38029,2,0,B|62:173|62:173|77:230,1,88,8|0,0:0|0:0,0:0:0:0:
302,172,38345,6,0,L|212:162,1,88,2|0,0:0|0:0,0:0:0:0:
409,69,38661,1,8,0:0:0:0:
464,289,38819,1,0,0:0:0:0:
259,287,38977,2,0,L|349:277,2,88,2|2|8,0:0|0:0|0:0,0:0:0:0:
395,163,39451,1,0,0:0:0:0:
206,75,39608,6,0,P|144:105|128:169,1,132,2|0,0:0|0:0,0:0:0:0:
132,190,39924,2,0,L|32:180,1,88,8|0,0:0|0:0,0:0:0:0:
205,344,40240,1,2,0:0:0:0:
262,142,40398,1,2,0:0:0:0:
126,275,40556,1,8,0:0:0:0:
337,259,40714,1,4,0:0:0:0:
360,256,41029,5,2,0:0:0:0:
118,369,41187,1,8,0:0:0:0:
232,110,41345,1,0,0:0:0:0:
415,316,41503,2,0,P|354:337|297:308,1,132,8|0,0:0|0:0,0:0:0:0:
277,283,41819,1,2,0:0:0:0:
466,92,41977,6,0,L|335:78,1,132.000005035401,4|0,0:0|0:0,0:0:0:0:
384,239,42451,2,0,L|367:164,1,66.0000025177003,2|0,0:0|0:0,0:0:0:0:
249,82,42766,2,0,L|238:158,1,66.0000025177003,2|0,0:0|0:0,0:0:0:0:
163,283,43082,1,0,0:0:0:0:
31,296,43240,6,0,L|183:280,1,132.000005035401,6|0,0:0|0:0,0:0:0:0:
109,188,43714,2,0,P|89:216|85:257,1,66.0000025177003,2|0,0:0|0:0,0:0:0:0:
151,380,44029,2,0,P|184:380|221:360,1,66.0000025177003,2|0,0:0|0:0,0:0:0:0:
311,300,44345,2,0,P|344:293|384:306,1,66.0000025177003
481,359,44661,5,4,0:0:0:0:
325,210,44977,1,0,0:0:0:0:
459,117,45293,5,4,0:0:0:0:
230,271,45608,2,0,L|227:204,1,66.0000025177003
316,90,45924,6,0,B|345:135|345:135|322:224,1,132.000005035401,4|0,0:0|0:0,0:0:0:0:
423,308,46556,1,0,0:0:0:0:
247,99,46872,2,0,L|252:211,1,99.0000037765504,2|0,0:0|0:0,0:0:0:0:
318,237,47187,6,0,B|276:231|276:231|246:244|246:244|185:236,1,132.000005035401,4|0,0:0|0:0,0:0:0:0:
110,166,47661,1,0,0:0:0:0:
30,301,47819,2,0,P|25:268|31:236,1,66.0000025177003,8|2,0:0|0:0,0:0:0:0:
189,237,48135,1,0,0:0:0:0:
110,166,48293,1,0,0:0:0:0:
200,110,48451,5,8,0:0:0:0:
200,110,48608,2,0,L|265:118,1,66.0000025177003,8|0,0:0|0:0,0:0:0:0:
276,257,48924,1,0,0:0:0:0:
276,257,49082,2,0,P|264:226|268:191,1,66.0000025177003,8|0,0:0|0:0,0:0:0:0:
373,128,49398,2,0,P|366:160|349:187,1,66.0000025177003,2|0,0:0|0:0,0:0:0:0:
189,237,49714,5,8,0:0:0:0:
189,237,49872,2,0,L|193:368,1,132.000005035401,8|0,0:0|0:0,0:0:0:0:
98,291,50345,1,0,0:0:0:0:
98,291,50503,1,0,0:0:0:0:
285,190,50661,1,8,0:0:0:0:
103,109,50819,2,0,B|156:104|156:104|181:118|181:118|230:113,1,132.000005035401,8|0,0:0|0:0,0:0:0:0:
366,241,51293,6,0,P|322:280|235:272,1,132,2|0,0:0|0:0,0:0:0:0:
157,339,51608,6,0,P|205:277|194:203,1,158.399995166016,2|0,0:0|0:0,0:0:0:0:
217,116,51924,6,0,P|160:179|67:175,1,184.799994360352,2|0,0:0|0:0,0:0:0:0:
73,76,52240,5,12,0:0:0:0:
37,264,52398,1,0,0:0:0:0:
198,26,52556,5,8,0:0:0:0:
213,236,52714,1,0,0:0:0:0:
369,83,52872,5,8,0:0:0:0:
333,273,53030,1,0,0:0:0:0:
473,31,53188,5,8,0:0:0:0:
512,268,53346,1,0,0:0:0:0:
279,212,53503,5,8,0:0:0:0:
502,127,53661,1,0,0:0:0:0:
223,79,53819,5,8,0:0:0:0:
465,198,53977,1,0,0:0:0:0:
130,258,54135,5,8,0:0:0:0:
385,124,54293,1,0,0:0:0:0:
83,134,54451,5,8,0:0:0:0:
377,295,54608,1,0,0:0:0:0:
99,361,54766,6,0,B|57:370|57:370|131:258,1,176,6|8,0:0|0:0,0:0:0:0:
240,42,55240,5,0,0:0:0:0:
379,293,55398,1,2,0:0:0:0:
118,171,55556,1,0,0:0:0:0:
401,117,55714,1,8,0:0:0:0:
204,328,55872,1,0,0:0:0:0:
240,42,56029,5,12,0:0:0:0:
115,267,56661,5,2,3:2:0:0:
160,282,56739,1,2,3:2:0:0:
208,279,56819,2,0,P|232:271|254:252,1,44,2|0,3:2|3:0,0:0:0:0:
389,134,56977,2,0,L|400:263,1,112.200002140045,8|0,3:2|0:0,0:0:0:0:
362,287,57293,6,0,B|492:273|492:273|447:311,2,176,6|8|2,0:0|0:0|0:0,0:0:0:0:
243,153,58082,1,2,0:0:0:0:
89,340,58240,2,0,P|83:296|86:251,1,88,8|0,0:0|0:0,0:0:0:0:
261,44,58556,6,0,B|157:24|193:110|80:78,2,176,2|8|2,0:0|0:0|0:0,0:0:0:0:
462,139,59345,1,2,0:0:0:0:
259,286,59503,2,0,L|265:198,1,88,8|0,0:0|0:0,0:0:0:0:
462,139,59819,6,0,L|477:341,2,176,2|8|2,0:0|0:0|0:0,0:0:0:0:
351,256,60608,1,2,0:0:0:0:
192,143,60766,2,0,P|260:147|305:98,1,132,8|0,0:0|0:0,0:0:0:0:
316,78,61082,6,0,L|229:71,1,88,2|0,0:0|0:0,0:0:0:0:
371,255,61398,2,0,L|458:247,1,88,8|0,0:0|0:0,0:0:0:0:
249,349,61714,1,2,0:0:0:0:
302,104,61872,1,2,0:0:0:0:
91,199,62029,2,0,B|139:206|139:206|187:186,1,88,8|0,0:0|0:0,0:0:0:0:
351,39,62345,6,0,P|265:30|222:104,1,176,6|8,0:0|0:0,0:0:0:0:
437,167,62819,1,0,0:0:0:0:
297,328,62977,2,0,L|400:340,1,88,2|2,0:0|0:0,0:0:0:0:
189,189,63293,2,0,L|292:177,1,88,8|0,0:0|0:0,0:0:0:0:
86,374,63608,6,0,B|55:322|55:322|77:199,1,176,2|8,0:0|0:0,0:0:0:0:
212,54,64082,1,0,0:0:0:0:
353,236,64240,2,0,P|320:264|277:274,1,88,2|2,0:0|0:0,0:0:0:0:
394,102,64556,2,0,P|435:116|464:148,1,88,8|0,0:0|0:0,0:0:0:0:
263,152,64872,6,0,B|281:31|281:31|235:73,1,176,2|8,0:0|0:0,0:0:0:0:
138,199,65345,1,0,0:0:0:0:
362,313,65503,2,0,L|376:221,1,88,2|2,0:0|0:0,0:0:0:0:
162,373,65819,2,0,L|148:286,1,88,8|0,0:0|0:0,0:0:0:0:
215,56,66135,5,8,0:0:0:0:
59,224,66293,2,0,P|98:199|157:207,1,88,0|2,0:0|0:0,0:0:0:0:
375,226,66608,1,8,0:0:0:0:
248,368,66766,2,0,L|256:271,1,88,2|0,0:0|0:0,0:0:0:0:
367,47,67082,2,0,L|375:135,1,88,8|0,0:0|0:0,0:0:0:0:
474,253,67398,5,6,0:0:0:0:
303,215,67556,1,0,0:0:0:0:
133,177,67714,1,8,0:0:0:0:
133,177,67872,1,0,0:0:0:0:
288,97,68029,5,2,0:0:0:0:
173,329,68187,1,2,0:0:0:0:
45,181,68345,2,0,L|146:176,1,88,8|0,0:0|0:0,0:0:0:0:
326,16,68661,5,2,0:0:0:0:
359,174,68819,1,0,0:0:0:0:
395,331,68977,1,8,0:2:0:0:
395,331,69135,1,0,0:0:0:0:
237,114,69293,5,2,0:0:0:0:
446,222,69451,1,2,0:0:0:0:
276,376,69608,2,0,L|285:287,1,88,8|0,0:0|0:0,0:0:0:0:
71,138,69924,5,2,0:0:0:0:
237,114,70082,1,0,0:0:0:0:
406,92,70240,1,8,0:0:0:0:
406,92,70398,1,0,0:0:0:0:
207,299,70556,6,0,B|195:255|195:255|208:214,1,88,2|2,0:0|0:0,0:0:0:0:
265,18,70872,1,8,0:0:0:0:
373,193,71029,1,0,0:0:0:0:
125,45,71187,5,2,0:0:0:0:
94,189,71345,1,0,0:0:0:0:
61,332,71503,1,8,0:0:0:0:
61,332,71661,1,0,0:0:0:0:
207,214,71819,5,2,0:0:0:0:
30,104,71977,1,2,0:0:0:0:
234,0,72135,2,0,L|239:92,1,88,8|0,0:0|0:0,0:0:0:0:
275,285,72451,6,0,P|209:233|126:252,1,176,6|8,0:0|0:0,0:0:0:0:
365,143,72924,1,0,0:0:0:0:
188,327,73082,1,2,0:0:0:0:
424,351,73240,1,0,0:0:0:0:
271,152,73398,2,0,L|275:256,1,88,8|0,0:0|0:0,0:0:0:0:
378,49,73714,5,2,0:0:0:0:
161,224,73872,1,0,0:0:0:0:
373,282,74029,2,0,P|384:236|371:192,1,88,8|0,0:0|0:0,0:0:0:0:
265,51,74345,1,2,0:0:0:0:
170,312,74503,1,0,0:0:0:0:
374,198,74661,2,0,L|493:206,1,88,8|0,0:0|0:0,0:0:0:0:
223,113,74977,5,8,0:0:0:0:
352,341,75135,1,0,0:0:0:0:
352,341,75293,1,2,0:0:0:0:
299,47,75451,5,8,0:0:0:0:
96,317,75608,1,0,0:0:0:0:
96,317,75766,1,2,0:0:0:0:
212,26,75924,5,8,0:0:0:0:
272,372,76082,1,0,0:0:0:0:
63,193,76240,5,8,0:0:0:0:
376,92,76398,1,0,0:0:0:0:
206,332,76556,6,0,L|118:321,1,88,8|0,0:0|0:0,0:0:0:0:
300,139,76872,1,2,3:2:0:0:
333,105,76950,1,0,3:0:0:0:
376,92,77029,1,0,3:0:0:0:
423,97,77108,1,0,3:0:0:0:
464,121,77187,2,0,P|483:155|482:195,1,74.8000014266968,8|0,3:2|0:0,0:0:0:0:
271,210,77503,6,0,B|278:138|278:138|293:115|293:115|302:36,2,176,6|8|2,0:0|0:0|0:0,0:0:0:0:
386,180,78293,1,2,0:0:0:0:
189,76,78451,2,0,L|82:83,1,88,8|0,0:0|0:0,0:0:0:0:
27,260,78766,6,0,P|94:209|176:231,1,176,2|8,0:0|0:0,0:0:0:0:
316,342,79240,1,0,0:0:0:0:
111,384,79398,2,0,B|99:342|99:342|111:300,1,88,2|2,0:0|0:0,0:0:0:0:
278,154,79714,2,0,B|247:186|247:186|205:196,1,88,8|0,0:0|0:0,0:0:0:0:
37,56,80029,6,0,L|216:44,2,176,2|8|2,0:0|0:0|0:0,0:0:0:0:
204,196,80819,1,2,0:0:0:0:
368,124,80977,2,0,L|358:211,1,88,8|0,0:0|0:0,0:0:0:0:
122,216,81293,6,0,P|160:195|204:196,1,88,2|0,0:0|0:0,0:0:0:0:
445,242,81608,2,0,P|421:278|383:299,1,88,8|0,0:0|0:0,0:0:0:0:
246,128,81924,1,2,0:0:0:0:
127,303,82082,1,2,0:0:0:0:
127,303,82240,2,0,L|225:313,1,88,8|0,0:0|0:0,0:0:0:0:
333,101,82556,6,0,P|272:43|188:57,1,176,6|8,0:0|0:0,0:0:0:0:
47,211,83029,1,0,0:0:0:0:
244,136,83187,2,0,L|144:121,1,88,2|2,0:0|0:0,0:0:0:0:
332,298,83503,2,0,L|232:313,1,88,8|0,0:0|0:0,0:0:0:0:
452,177,83819,6,0,B|398:276|474:246|431:352,2,176,2|8|2,0:0|0:0|0:0,0:0:0:0:
345,73,84608,1,2,0:0:0:0:
226,215,84766,2,0,L|128:208,1,88,8|0,0:0|0:0,0:0:0:0:
19,345,85082,6,0,P|90:299|174:318,1,176,2|8,0:0|0:0,0:0:0:0:
298,137,85556,1,0,0:0:0:0:
402,297,85714,2,0,L|503:307,1,88,2|2,0:0|0:0,0:0:0:0:
382,126,86029,2,0,P|343:121|292:140,1,88,8|0,0:0|0:0,0:0:0:0:
160,194,86345,5,8,0:0:0:0:
402,297,86503,1,0,0:0:0:0:
202,384,86661,1,2,0:0:0:0:
325,89,86819,5,8,0:0:0:0:
105,288,86977,1,0,0:0:0:0:
358,358,87135,1,2,0:0:0:0:
244,135,87293,2,0,B|220:114|220:114|231:228,1,132,8|0,0:0|0:0,0:0:0:0:
232,244,87608,1,4,0:0:0:0:
232,244,87924,5,2,0:0:0:0:
330,330,88082,1,0,0:0:0:0:
454,287,88240,1,2,0:0:0:0:
490,162,88398,1,2,0:0:0:0:
322,34,88556,6,0,L|305:211,1,176,4|2,0:0|0:0,0:0:0:0:
66,144,89029,1,0,0:0:0:0:
158,351,89187,2,0,P|130:271|165:185,1,176,8|2,0:0|0:0,0:0:0:0:
268,48,89661,1,0,0:0:0:0:
411,213,89819,2,0,L|312:206,1,88,8|0,0:0|0:0,0:0:0:0:
153,126,90135,5,6,0:0:0:0:
286,92,90293,1,0,0:0:0:0:
359,209,90451,1,8,0:0:0:0:
270,314,90608,1,0,0:0:0:0:
142,262,90766,1,2,0:0:0:0:
142,262,91082,6,0,P|232:240|304:279,1,176,6|2,0:0|0:0,0:0:0:0:
385,357,91556,1,0,0:0:0:0:
472,281,91714,2,0,P|483:238|483:185,1,88,8|0,0:0|0:0,0:0:0:0:
354,83,92029,2,0,L|459:75,1,88,2|0,0:0|0:0,0:0:0:0:
243,230,92345,2,0,L|345:252,1,88,8|0,0:0|0:0,0:0:0:0:
268,84,92661,5,6,0:0:0:0:
111,64,92819,1,0,0:0:0:0:
26,197,92977,1,8,0:0:0:0:
26,197,93135,1,0,0:0:0:0:
222,320,93293,6,0,L|214:224,1,88,2|2,0:0|0:0,0:0:0:0:
423,41,93608,1,8,0:0:0:0:
370,247,93765,1,0,0:0:0:0:
248,146,93924,5,2,0:0:0:0:
403,118,94082,1,0,0:0:0:0:
495,246,94240,1,8,0:0:0:0:
495,246,94398,1,0,0:0:0:0:
214,232,94556,6,0,L|311:223,1,88,2|2,0:0|0:0,0:0:0:0:
439,108,94872,1,8,0:0:0:0:
358,302,95029,1,0,0:0:0:0:
196,145,95187,6,0,L|6:130,1,176,8|0,0:0|0:0,0:0:0:0:
133,342,95661,2,0,B|122:302|122:302|142:248,1,88,8|0,0:0|0:0,0:0:0:0:
220,43,95977,1,2,0:0:0:0:
339,210,96135,6,0,B|420:235|422:159|514:201,1,176,8|2,0:0|0:0,0:0:0:0:
368,111,96608,1,2,0:0:0:0:
465,285,96766,2,0,P|464:328|452:379,1,88,8|0,0:0|0:0,0:0:0:0:
249,221,97082,1,2,0:0:0:0:
360,30,97240,1,2,0:0:0:0:
360,30,97319,1,2,0:0:0:0:
360,30,97398,2,0,P|422:48|448:106,1,132,8|0,0:0|0:0,0:0:0:0:
368,111,97714,6,0,B|299:102|299:102|271:114|271:114|177:102,1,176,4|8,0:0|0:0,0:0:0:0:
340,236,98187,1,0,0:0:0:0:
134,315,98345,2,0,L|141:221,2,88,2|2|8,0:0|0:0|0:0,0:0:0:0:
333,148,98819,1,2,0:0:0:0:
333,148,98898,1,2,0:0:0:0:
333,148,98977,6,0,L|340:236,2,88,2|2|8,0:0|0:0|0:0,0:0:0:0:
486,263,99451,1,2,0:0:0:0:
306,331,99608,2,0,P|351:338|400:317,1,88,2|0,0:0|0:0,0:0:0:0:
236,209,99924,2,0,P|191:202|142:223,1,88,8|0,0:0|0:0,0:0:0:0:
37,355,100240,6,0,L|48:176,1,176,8|0,0:0|0:0,0:0:0:0:
225,33,100714,2,0,L|236:212,1,176,8|0,0:0|0:0,0:0:0:0:
402,357,101187,2,0,L|414:260,1,88,8|0,0:0|0:0,0:0:0:0:
308,132,101503,6,0,P|388:145|466:84,1,176,8|0,0:0|0:0,0:0:0:0:
195,123,101977,2,0,P|142:191|154:276,1,176,8|0,0:0|0:0,0:0:0:0:
378,197,102451,2,0,P|340:226|291:225,1,88,8|0,0:0|0:0,0:0:0:0:
93,161,102766,5,8,0:0:0:0:
343,78,102924,1,0,0:0:0:0:
204,337,103082,1,2,0:0:0:0:
237,55,103240,5,8,0:0:0:0:
97,310,103398,1,0,0:0:0:0:
371,257,103556,1,2,0:0:0:0:
108,78,103714,5,12,0:0:0:0:
256,192,103793,12,0,104977,0:0:0:0:
247,301,105135,5,2,0:0:0:0:
247,301,105214,1,2,0:0:0:0:
247,301,105293,1,6,0:0:0:0:
247,301,106872,6,0,L|254:213,1,88
398,261,107187,2,0,L|390:173,2,88
228,65,107819,6,0,B|310:34|310:123|393:90,1,176,6|8,0:0|0:0,0:0:0:0:
246,229,108293,1,0,0:0:0:0:
246,229,108451,2,0,B|258:140,1,88,2|0,0:0|0:0,0:0:0:0:
111,270,108766,1,8,0:0:0:0:
268,336,108924,2,0,B|323:306|323:306|448:338,1,176,8|0,0:0|0:0,0:0:0:0:
353,184,109398,2,0,L|341:279,1,88,8|0,0:0|0:0,0:0:0:0:
269,105,109714,1,2,0:0:0:0:
449,254,109872,1,2,0:0:0:0:
234,376,110029,2,0,B|222:336|222:336|239:288,1,88,8|0,0:0|0:0,0:0:0:0:
269,105,110345,6,0,L|80:118,1,176,8|2,0:0|0:0,0:0:0:0:
295,232,110819,1,8,0:0:0:0:
114,347,110977,2,0,L|123:259,2,88,8|0|8,0:0|0:0|0:0,0:0:0:0:
203,129,111451,1,2,0:0:0:0:
351,300,111608,2,0,P|378:266|382:223,1,88,8|0,0:0|0:0,0:0:0:0:
290,123,111924,2,0,L|202:128,1,88,8|0,0:0|0:0,0:0:0:0:
351,301,112240,1,2,0:0:0:0:
114,247,112398,1,0,3:2:0:0:
114,247,112477,1,0,3:0:0:0:
114,247,112556,2,0,P|152:227|207:229,1,88,8|0,3:2|0:0,0:0:0:0:
383,315,112872,5,8,0:0:0:0:
171,304,113029,1,0,0:0:0:0:
318,115,113187,1,2,0:0:0:0:
263,372,113345,5,8,0:0:0:0:
426,211,113503,1,0,0:0:0:0:
211,115,113661,1,2,0:0:0:0:
434,317,113819,5,8,0:0:0:0:
162,347,113977,1,0,0:0:0:0:
313,72,114135,1,2,0:0:0:0:
353,369,114293,5,8,0:0:0:0:
405,97,114451,1,0,0:0:0:0:
157,253,114608,1,0,0:0:0:0:
430,196,114766,1,2,3:2:0:0:
398,181,114844,1,0,3:0:0:0:
363,180,114923,1,0,3:0:0:0:
331,194,115002,1,0,3:0:0:0:
307,219,115082,2,0,L|295:308,1,88,8|0,3:2|0:0,0:0:0:0:
247,99,115398,5,8,0:0:0:0:
430,282,115556,1,0,3:0:0:0:
430,282,115635,1,0,3:0:0:0:
430,282,115714,1,8,3:2:0:0:
160,363,115872,1,0,3:0:0:0:
160,363,115951,1,0,3:0:0:0:
160,363,116029,1,8,3:2:0:0:
343,120,116187,5,8,0:0:0:0:
241,318,116345,1,2,0:0:0:0:
90,201,116503,6,0,B|234:147|180:277|351:214,1,264.000010070801,4|0,0:0|0:0,0:0:0:0:
274,121,117293,5,2,0:0:0:0:
274,121,117451,1,2,0:0:0:0:
151,270,117608,5,8,0:0:0:0:
354,366,117766,1,4,0:0:0:0:
256,192,117845,12,4,120451,0:0:0:0:
