osu file format v14

[General]
AudioFilename: 859341.mp3
AudioLeadIn: 0
PreviewTime: 55889
Countdown: 0
SampleSet: Soft
StackLeniency: 0.9
Mode: 2
LetterboxInBreaks: 0
WidescreenStoryboard: 1

[Editor]
Bookmarks: 74,21547,31652,41758,51863,53443,56916,67021,77126,87231,97337,107442
DistanceSpacing: 1
BeatDivisor: 4
GridSize: 32
TimelineZoom: 2.200006

[Metadata]
Title:Catch the Moment -Radio Edit ver.-
TitleUnicode:Catch the Moment -Radio Edit ver.-
Artist:LiSA
ArtistUnicode:LiSA
Creator:Benita
Version:Xetopia's Rain
Source:劇場版 ソードアート・オンライン -オーディナル・スケール-
Tags:SWORD ART ONLINE The Movie - Ordinal Scale - SAO Benny- BennyBananas Nelly Xetopia
BeatmapID:1822802
BeatmapSetID:872220

[Difficulty]
HPDrainRate:6
CircleSize:4
OverallDifficulty:9
ApproachRate:9
SliderMultiplier:1.82
SliderTickRate:2

[Events]
//Background and Video events
0,0,"789591.png",0,0
//Break Periods
//Storyboard Layer 0 (Background)
//Storyboard Layer 1 (Fail)
//Storyboard Layer 2 (Pass)
//Storyboard Layer 3 (Foreground)
//Storyboard Sound Samples

[TimingPoints]
408,315.789473684211,4,2,1,60,1,0
10504,312.5,4,2,1,60,1,0
11751,315.789473684211,4,2,1,60,1,0
19330,314.13612565445,4,2,1,60,1,0
20429,319.148936170213,4,2,1,60,1,0
21865,315.789473684211,4,2,1,60,1,0
44601,322.58064516129,4,2,1,60,1,0
45891,312.5,4,2,1,60,1,0
48391,315.789473684211,4,2,1,60,1,0
57233,-100,4,2,1,60,0,1
67338,-100,4,2,1,60,0,0
77443,-100,4,2,1,60,0,1
87233,-100,4,2,1,60,0,0
96385,310.880829015544,4,2,1,60,1,0
97646,319.148936170213,4,2,1,60,1,0
98763,-99.009900990099,4,2,1,60,0,0
98922,315.789473684211,4,2,1,60,1,0
106013,312.5,4,2,1,60,1,0
107106,-100,4,2,1,40,0,0
107575,-100,4,2,1,50,0,0
112888,-100,4,2,1,55,0,0
113200,-100,4,2,1,50,0,0
113513,-100,4,2,1,45,0,0
113825,-100,4,2,1,40,0,0
114138,-100,4,2,1,35,0,0
114450,-100,4,2,1,30,0,0
114763,-100,4,2,1,25,0,0
115075,-100,4,2,1,20,0,0
115388,-100,4,2,1,15,0,0
115700,-100,4,2,1,10,0,0
116013,-100,4,2,1,5,0,0

[Colours]
Combo1 : 142,233,255
Combo2 : 157,173,189
Combo3 : 223,173,149
Combo4 : 225,225,225
Combo5 : 251,139,79

[HitObjects]
106,48,10355,6,2,L|100:98,1,45.5,0|0,0:0|0:0,0:0:0:0:
258,188,10504,2,0,P|324:211|367:285,1,151.666666666667,8|8,0:0|0:0,0:0:0:0:
204,304,10972,1,8,0:0:0:0:
327,173,11129,2,0,L|334:123,1,45.5,8|8,0:0|0:3,0:0:0:0:
157,87,11285,2,0,L|150:37,1,45.5,4|4,0:3|0:3,0:0:0:0:
389,38,11441,2,0,B|442:37|442:37|345:36,1,136.5,8|0,0:0|0:0,0:0:0:0:
103,333,11751,6,0,P|60:293|119:197,1,182,6|8,0:0|0:0,0:0:0:0:
199,187,12224,1,0,0:0:0:0:
354,60,12382,2,0,L|254:61,2,91,2|2|8,0:0|0:0|0:0,0:0:0:0:
85,110,12856,6,0,P|129:80|261:44,1,182,8|2,0:0|0:0,0:0:0:0:
401,141,13329,2,0,L|296:138,1,91,8|0,0:0|0:0,0:0:0:0:
56,296,13645,1,8,0:0:0:0:
159,295,13802,1,2,0:0:0:0:
56,296,13960,1,8,0:0:0:0:
159,295,14118,1,0,0:0:0:0:
428,42,14277,6,0,L|239:41,1,182,8|2,0:0|0:0,0:0:0:0:
467,134,14751,1,8,0:0:0:0:
350,189,14908,2,0,L|345:290,1,91,0|2,0:0|0:0,0:0:0:0:
467,134,15224,1,8,0:0:0:0:
213,325,15382,5,0,0:0:0:0:
303,324,15539,1,8,0:0:0:0:
394,323,15697,1,0,0:0:0:0:
157,61,15856,2,0,L|57:64,1,91,8|0,0:0|0:0,0:0:0:0:
321,161,16172,1,10,0:0:0:0:
363,173,16250,1,2,0:0:0:0:
381,213,16329,1,2,0:0:0:0:
361,252,16408,1,2,0:0:0:0:
319,262,16487,2,0,L|174:263,1,136.5,12|0,0:0|0:0,0:0:0:0:
460,142,16803,6,0,L|464:50,1,91,6|0,0:0|0:0,0:0:0:0:
347,103,17119,1,8,0:0:0:0:
463,51,17277,1,0,0:0:0:0:
217,29,17435,2,0,L|162:110,1,91,2|2,0:0|0:0,0:0:0:0:
425,222,17751,2,0,L|480:303,1,91,8|2,0:0|0:0,0:0:0:0:
171,320,18066,6,0,L|267:319,2,91,0|2|8,0:0|0:0|0:0,0:0:0:0:
417,180,18540,1,0,0:0:0:0:
287,133,18698,1,8,0:3:0:0:
285,87,18776,1,4,0:3:0:0:
283,42,18855,1,4,0:3:0:0:
442,199,19014,2,0,L|449:54,1,136.5,12|0,0:0|0:0,0:0:0:0:
201,305,19330,5,4,0:0:0:0:
79,274,19487,1,2,0:0:0:0:
76,228,19565,1,2,0:0:0:0:
74,183,19644,1,8,0:0:0:0:
223,117,19801,2,0,L|275:119,2,45.5,2|2|8,0:0|0:0|0:0,0:0:0:0:
350,30,20115,2,0,L|358:125,1,91,8|0,0:0|0:0,0:0:0:0:
101,328,20429,6,0,P|77:231|119:344,1,637,12|12,0:0|0:0,0:0:0:0:
310,58,21865,6,0,L|335:154,1,91,2|0,0:0|0:0,0:0:0:0:
196,182,22180,2,0,L|171:278,1,91,2|0,0:0|0:0,0:0:0:0:
342,338,22496,2,0,P|381:306|333:193,1,182,2|2,0:0|0:0,0:0:0:0:
251,172,22970,1,0,0:0:0:0:
108,82,23128,6,0,L|100:175,1,91,2|0,0:0|0:0,0:0:0:0:
218,272,23443,2,0,L|121:270,1,91,2|0,0:0|0:0,0:0:0:0:
282,363,23759,1,2,0:0:0:0:
368,337,23916,1,0,0:0:0:0:
438,280,24074,1,2,0:0:0:0:
480,200,24232,1,0,0:0:0:0:
224,46,24391,6,0,P|169:89|234:163,1,182,2|2,0:0|0:0,0:0:0:0:
315,161,24865,1,0,0:0:0:0:
160,229,25022,2,0,L|62:233,1,91,2|0,0:0|0:0,0:0:0:0:
198,320,25338,2,0,L|213:216,1,91,2|0,0:0|0:0,0:0:0:0:
54,217,25654,6,0,L|39:113,1,91,2|0,0:0|0:0,0:0:0:0:
185,124,25970,2,0,L|200:20,1,91,2|0,0:0|0:0,0:0:0:0:
353,77,26286,2,0,L|261:76,1,91,2|0,0:0|0:0,0:0:0:0:
407,146,26601,2,0,L|414:240,1,91,2|0,0:0|0:0,0:0:0:0:
130,342,26917,6,0,P|74:287|141:231,1,182,2|2,0:0|0:0,0:0:0:0:
228,226,27391,1,0,0:0:0:0:
368,275,27549,2,0,L|374:183,1,91,2|0,0:0|0:0,0:0:0:0:
234,137,27865,2,0,L|327:136,1,91,2|0,0:0|0:0,0:0:0:0:
60,165,28180,5,2,0:0:0:0:
122,98,28337,1,0,0:0:0:0:
203,57,28495,1,2,0:0:0:0:
293,46,28653,1,0,0:0:0:0:
122,192,28812,5,2,0:0:0:0:
106,294,28970,1,0,0:0:0:0:
242,192,29128,1,0,0:0:0:0:
258,294,29286,1,0,0:0:0:0:
482,164,29443,5,2,0:0:0:0:
420,97,29600,1,0,0:0:0:0:
339,56,29758,1,2,0:0:0:0:
249,45,29916,1,0,0:0:0:0:
482,164,30075,2,0,L|492:305,1,136.5,10|0,0:0|0:0,0:0:0:0:
178,337,30391,6,0,P|140:236|265:368,1,637,14|0,0:0|0:0,0:0:0:0:
115,320,31654,2,0,L|109:221,1,91,10|0,0:3|0:0,0:0:0:0:
368,47,31970,6,0,L|464:52,1,91,6|0,0:0|0:0,0:0:0:0:
291,129,32286,2,0,L|199:135,1,91,8|0,0:0|0:0,0:0:0:0:
375,199,32601,2,0,P|439:250|368:303,1,182,2|8,0:0|0:0,0:0:0:0:
146,301,33075,2,0,L|249:302,2,91,0|2|0,0:0|0:0|0:0,0:0:0:0:
307,223,33549,2,0,L|324:130,1,91,8|0,0:0|0:0,0:0:0:0:
179,161,33865,2,0,L|162:68,1,91,2|0,0:0|0:0,0:0:0:0:
320,244,34180,2,0,L|337:151,1,91,8|0,0:0|0:0,0:0:0:0:
99,52,34496,6,0,P|130:98|247:147,1,182,2|8,0:0|0:0,0:0:0:0:
400,238,34970,2,0,L|298:239,2,91,0|2|0,0:0|0:0|0:0,0:0:0:0:
253,340,35443,2,0,L|247:243,1,91,8|0,0:0|0:0,0:0:0:0:
94,229,35759,1,2,0:0:0:0:
156,163,35916,1,0,0:0:0:0:
235,118,36074,1,8,0:0:0:0:
323,98,36232,1,0,0:0:0:0:
154,33,36391,2,0,L|140:128,1,91,2|0,0:0|0:0,0:0:0:0:
410,191,36707,2,0,L|424:286,1,91,8|0,0:0|0:0,0:0:0:0:
125,335,37022,6,0,P|65:295|131:226,1,182,2|8,0:0|0:0,0:0:0:0:
272,180,37496,2,0,L|174:177,2,91,0|2|0,0:0|0:0|0:0,0:0:0:0:
120,143,37970,2,0,L|110:51,1,91,8|0,0:0|0:0,0:0:0:0:
389,38,38286,6,0,P|440:68|373:146,1,182,2|8,0:0|0:0,0:0:0:0:
251,149,38759,2,0,L|157:151,1,91,0|2,0:0|0:0,0:0:0:0:
333,281,39075,2,0,L|425:286,2,91,0|8|0,0:0|0:0|0:0,0:0:0:0:
33,346,39549,6,0,P|75:311|194:270,1,182,2|8,0:0|0:0,0:0:0:0:
325,223,40022,2,0,L|336:131,1,91,0|2,0:0|0:0,0:0:0:0:
66,140,40338,2,0,L|55:48,1,91,12|0,0:0|0:0,0:0:0:0:
358,43,40654,6,0,P|332:70|195:115,1,182,12|2,0:0|0:0,0:0:0:0:
347,180,41128,2,0,L|363:277,1,91,0|2,0:0|0:0,0:0:0:0:
129,319,41443,2,0,L|25:324,2,91,0|2|0,0:0|0:0|0:0,0:0:0:0:
411,345,41917,6,0,P|396:327|253:259,1,182,12|0,0:0|0:0,0:0:0:0:
125,200,42391,2,0,L|106:112,1,91,2|0,0:0|0:0,0:0:0:0:
264,37,42707,2,0,P|329:47|378:146,1,182,2|2,0:0|0:0,0:0:0:0:
156,328,43180,6,0,P|96:325|48:221,1,182,12|0,0:0|0:0,0:0:0:0:
196,192,43654,2,0,L|210:99,1,91,2|0,0:0|0:0,0:0:0:0:
70,294,43970,2,0,L|56:201,1,91,2|0,0:0|0:0,0:0:0:0:
198,89,44286,2,0,L|57:85,1,136.5,14|0,0:0|0:0,0:0:0:0:
289,325,44601,6,0,P|341:296|280:212,1,182,14|0,0:0|0:0,0:0:0:0:
54,177,45246,2,0,L|238:174,1,182,14|0,0:0|0:0,0:0:0:0:
458,177,45891,2,0,L|274:174,1,182,14|0,0:0|0:0,0:0:0:0:
68,39,46516,2,0,L|56:222,1,182,14|8,0:0|0:3,0:0:0:0:
438,351,47141,6,0,P|418:318|289:248,1,182,6|0,0:0|0:0,0:0:0:0:
205,242,47609,1,2,0:0:0:0:
360,170,47766,2,0,L|369:77,1,91,8|0,0:0|0:0,0:0:0:0:
267,121,48078,1,0,0:0:0:0:
368,79,48234,1,2,0:0:0:0:
215,164,48391,6,0,L|206:71,1,91,0|8,0:0|0:0,0:0:0:0:
362,37,48706,2,0,L|474:41,1,91,0|2,0:0|0:0,0:0:0:0:
229,317,49022,2,0,P|182:305|122:226,1,136.5,8|0,0:0|0:0,0:0:0:0:
235,211,49338,2,0,P|282:199|342:120,1,136.5,0|0,0:0|0:0,0:0:0:0:
123,40,49654,6,0,P|68:77|127:151,1,182,12|0,0:0|0:0,0:0:0:0:
218,154,50127,1,2,0:0:0:0:
357,231,50285,2,0,L|363:324,1,91,2|2,0:0|0:0,0:0:0:0:
134,357,50601,1,12,0:0:0:0:
205,301,50758,1,2,0:0:0:0:
288,264,50916,1,0,0:0:0:0:
377,247,51074,1,2,0:0:0:0:
222,187,51233,6,0,L|209:92,1,91,2|2,0:0|0:0,0:0:0:0:
446,178,51548,2,0,L|459:83,1,91,2|2,0:0|0:0,0:0:0:0:
181,45,51864,2,0,P|131:49|68:108,1,136.5,12|0,0:0|0:0,0:0:0:0:
321,247,52180,6,0,L|341:146,1,91,12|2,0:0|0:0,0:0:0:0:
191,247,52496,2,0,L|171:146,1,91,8|2,0:0|0:0,0:0:0:0:
397,48,52812,2,0,L|295:47,1,91,8|2,0:0|0:0,0:0:0:0:
75,132,53127,2,0,L|63:38,1,91,8|2,0:0|0:0,0:0:0:0:
354,314,53443,6,0,L|366:220,1,91,8|2,0:0|0:0,0:0:0:0:
138,44,53759,2,0,L|237:47,1,91,8|2,0:0|0:0,0:0:0:0:
458,227,54075,2,0,L|366:229,1,91,8|2,0:0|0:0,0:0:0:0:
54,227,54391,2,0,L|38:134,1,91,8|2,0:0|0:0,0:0:0:0:
384,43,54706,6,0,P|443:79|382:149,1,182,12|2,0:0|0:0,0:0:0:0:
248,160,55180,1,2,0:0:0:0:
133,160,55338,1,2,0:0:0:0:
261,176,55496,1,2,0:0:0:0:
121,175,55654,1,2,0:0:0:0:
276,196,55812,1,2,0:0:0:0:
34,346,55969,5,8,0:0:0:0:
224,352,56285,1,0,0:0:0:0:
416,288,56601,2,0,L|423:237,1,45.5,8|4,0:3|0:3,0:0:0:0:
241,94,56759,2,4,L|188:95,1,45.5,4|4,0:3|0:3,0:0:0:0:
378,37,56917,2,0,P|429:61|486:130,1,136.5,12|0,0:0|0:0,0:0:0:0:
201,328,57233,6,0,L|197:234,1,91,6|0,0:0|0:0,0:0:0:0:
347,197,57548,2,0,P|298:160|177:131,1,182,8|2,0:0|0:0,0:0:0:0:
91,132,58022,1,2,0:0:0:0:
322,37,58180,2,0,L|346:128,1,91,8|0,0:0|0:0,0:0:0:0:
80,305,58496,6,0,L|175:307,1,91,2|0,0:0|0:0,0:0:0:0:
337,317,58812,2,0,P|381:279|308:182,1,182,8|2,0:0|0:0,0:0:0:0:
242,171,59285,1,2,0:0:0:0:
466,36,59443,2,0,L|474:132,1,91,8|0,0:0|0:0,0:0:0:0:
200,268,59759,6,0,L|106:271,1,91,2|0,0:0|0:0,0:0:0:0:
281,49,60075,2,0,P|342:100|263:145,1,182,8|2,0:0|0:0,0:0:0:0:
181,133,60548,1,2,0:0:0:0:
397,288,60706,2,0,L|494:287,1,91,8|0,0:0|0:0,0:0:0:0:
217,293,61022,6,0,L|206:203,1,91,2|0,0:0|0:0,0:0:0:0:
359,180,61338,2,0,L|370:90,1,91,8|0,0:0|0:0,0:0:0:0:
265,135,61654,1,2,0:0:0:0:
371,89,61812,1,2,0:0:0:0:
153,180,61969,2,0,L|142:90,1,91,8|0,0:0|0:0,0:0:0:0:
452,132,62285,6,0,L|360:135,1,91,2|0,0:0|0:0,0:0:0:0:
197,303,62601,2,0,P|231:263|361:224,1,182,8|2,0:0|0:0,0:0:0:0:
448,229,63075,1,2,0:0:0:0:
229,95,63233,2,0,L|134:98,1,91,8|0,0:0|0:0,0:0:0:0:
372,38,63548,6,0,L|385:131,1,91,2|0,0:0|0:0,0:0:0:0:
234,183,63864,2,0,P|176:217|242:283,1,182,8|2,0:0|0:0,0:0:0:0:
138,334,64338,1,2,0:0:0:0:
354,53,64496,2,0,L|451:57,1,91,8|0,0:0|0:0,0:0:0:0:
162,336,64812,6,0,L|157:242,1,91,2|0,0:0|0:0,0:0:0:0:
308,194,65127,2,0,P|270:154|143:110,1,182,8|2,0:0|0:0,0:0:0:0:
62,107,65601,1,2,0:0:0:0:
321,38,65759,2,0,P|368:52|424:127,1,136.5,8|0,0:0|0:0,0:0:0:0:
170,302,66075,6,0,L|266:303,2,91,12|2|0,0:0|0:0|0:0,0:0:0:0:
387,199,66548,1,8,0:0:0:0:
271,178,66705,1,0,0:0:0:0:
262,75,66863,1,2,0:0:0:0:
419,32,67022,2,0,L|423:132,1,91,8|0,0:0|0:0,0:0:0:0:
130,322,67338,6,0,P|76:281|151:209,1,182,6|8,0:0|0:0,0:0:0:0:
224,199,67812,1,0,0:0:0:0:
340,162,67969,2,0,L|347:67,1,91,2|2,0:0|0:0,0:0:0:0:
173,40,68285,6,0,P|119:51|43:156,2,182,8|2|8,0:0|0:0|0:0,0:0:0:0:
277,42,69075,1,0,0:0:0:0:
417,153,69233,2,0,L|319:155,1,91,2|2,0:0|0:0,0:0:0:0:
441,204,69548,2,0,L|445:302,1,91,8|0,0:0|0:0,0:0:0:0:
229,332,69864,6,0,P|259:273|361:219,1,182,2|8,0:0|0:0,0:0:0:0:
453,207,70338,1,0,0:0:0:0:
318,196,70496,2,0,L|310:103,1,91,2|2,0:0|0:0,0:0:0:0:
137,45,70812,6,0,L|326:45,2,182,8|2|8,0:0|0:0|0:0,0:0:0:0:
40,46,71601,1,0,0:0:0:0:
192,126,71759,2,0,L|200:220,1,91,2|2,0:0|0:0,0:0:0:0:
47,254,72075,2,0,L|39:351,1,91,8|0,0:0|0:0,0:0:0:0:
360,352,72391,6,0,P|412:321|349:237,1,182,6|8,0:0|0:0,0:0:0:0:
265,232,72864,1,0,0:0:0:0:
130,146,73022,2,0,L|226:146,1,91,0|2,0:0|0:0,0:0:0:0:
84,40,73338,2,0,L|80:130,1,91,8|0,0:0|0:0,0:0:0:0:
336,343,73654,6,0,P|311:302|187:242,1,182,2|8,0:0|0:0,0:0:0:0:
104,239,74127,1,0,0:0:0:0:
338,163,74285,2,0,L|351:70,1,91,2|2,0:0|0:0,0:0:0:0:
74,359,74601,2,0,L|61:266,1,91,8|0,0:0|0:0,0:0:0:0:
303,46,74917,6,0,P|364:64|465:153,1,182,12|2,0:0|0:0,0:0:0:0:
209,46,75391,2,0,P|148:64|47:153,1,182,12|2,0:0|0:0,0:0:0:0:
303,46,75864,2,0,P|364:64|431:113,1,136.5,14|0,0:0|0:0,0:0:0:0:
193,151,76180,6,0,L|174:253,1,91,14|0,0:0|0:0,0:0:0:0:
319,151,76496,2,0,L|338:253,1,91,14|0,0:0|0:0,0:0:0:0:
71,335,76812,2,0,L|164:338,1,91,14|2,0:0|0:0,0:0:0:0:
441,335,77127,2,0,L|348:338,1,91,12|0,0:0|0:0,0:0:0:0:
50,256,77443,6,0,L|43:162,1,91,6|0,0:0|0:0,0:0:0:0:
204,56,77759,2,0,P|254:62|361:141,1,182,8|2,0:0|0:0,0:0:0:0:
260,149,78233,1,2,0:0:0:0:
103,206,78391,2,0,L|92:296,1,91,8|0,0:0|0:0,0:0:0:0:
365,333,78706,6,0,L|460:332,1,91,2|0,0:0|0:0,0:0:0:0:
297,270,79022,2,0,P|246:254|308:180,1,182,8|2,0:0|0:0,0:0:0:0:
392,174,79496,1,2,0:0:0:0:
172,69,79654,2,0,L|77:72,1,91,8|0,0:0|0:0,0:0:0:0:
376,35,79969,6,0,L|383:130,1,91,2|0,0:0|0:0,0:0:0:0:
224,230,80285,2,0,P|271:196|394:167,1,182,8|2,0:0|0:0,0:0:0:0:
484,167,80759,1,2,0:0:0:0:
241,328,80917,2,0,P|179:310|130:243,1,136.5,8|0,0:0|0:0,0:0:0:0:
341,212,81233,6,0,L|345:121,1,91,2|0,0:0|0:0,0:0:0:0:
202,63,81548,2,0,L|293:65,1,91,8|0,0:0|0:0,0:0:0:0:
449,141,81864,2,0,L|358:143,1,91,2|2,0:0|0:0,0:0:0:0:
97,228,82180,2,0,L|87:322,1,91,8|0,0:0|0:0,0:0:0:0:
396,331,82496,6,0,L|302:328,1,91,2|0,0:0|0:0,0:0:0:0:
148,294,82812,2,0,P|107:271|153:171,1,182,8|2,0:0|0:0,0:0:0:0:
243,156,83285,1,2,0:0:0:0:
465,52,83443,2,0,L|369:52,1,91,8|0,0:0|0:0,0:0:0:0:
82,38,83759,6,0,L|74:132,1,91,2|0,0:0|0:0,0:0:0:0:
233,208,84075,2,0,P|318:241|376:322,1,182,8|2,0:0|0:0,0:0:0:0:
272,314,84548,1,2,0:0:0:0:
429,213,84706,2,0,L|439:121,1,91,8|0,0:0|0:0,0:0:0:0:
139,44,85022,6,0,L|45:48,1,91,2|0,0:0|0:0,0:0:0:0:
217,117,85338,2,0,P|266:155|214:243,1,182,8|2,0:0|0:0,0:0:0:0:
122,254,85812,1,2,0:0:0:0:
355,339,85969,2,0,P|419:310|451:254,1,136.5,8|0,0:0|0:0,0:0:0:0:
207,180,86285,6,0,P|155:152|216:78,1,182,4|0,0:0|0:0,0:0:0:0:
305,76,86759,1,8,0:0:0:0:
61,80,86917,2,0,L|54:174,1,91,0|2,0:0|0:0,0:0:0:0:
315,270,87233,2,0,L|457:271,1,136.5,8|0,0:0|0:0,0:0:0:0:
198,271,87548,6,0,P|140:260|69:151,1,182,6|8,0:0|0:3,0:0:0:0:
166,160,88022,1,4,0:3:0:0:
316,62,88180,2,0,L|325:157,1,91,4|2,0:3|0:0,0:0:0:0:
67,343,88496,6,0,P|129:304|239:277,1,182,8|0,0:0|0:0,0:0:0:0:
328,273,88969,1,2,0:0:0:0:
192,270,89127,1,8,0:0:0:0:
180,163,89284,1,0,0:0:0:0:
296,159,89443,1,2,0:0:0:0:
308,52,89600,1,2,0:0:0:0:
72,46,89759,2,0,L|166:44,1,91,8|0,0:0|0:0,0:0:0:0:
440,279,90075,5,8,0:3:0:0:
374,216,90232,1,4,0:3:0:0:
295,171,90390,1,4,0:3:0:0:
208,146,90548,1,8,0:3:0:0:
358,41,90706,2,0,L|380:134,1,91,4|2,0:3|0:0,0:0:0:0:
106,335,91022,6,0,P|158:290|269:252,1,182,8|2,0:0|0:0,0:0:0:0:
356,245,91496,1,2,0:0:0:0:
219,154,91654,2,0,L|123:149,1,91,8|0,0:0|0:0,0:0:0:0:
268,58,91969,2,0,L|364:53,1,91,2|2,0:0|0:0,0:0:0:0:
134,40,92285,2,0,P|75:62|35:125,1,136.5,8|0,0:0|0:0,0:0:0:0:
316,343,92601,6,0,P|371:316|310:243,1,182,6|8,0:0|0:0,0:0:0:0:
170,157,93075,2,0,L|269:158,2,91,0|0|2,0:0|0:0|0:0,0:0:0:0:
396,37,93548,2,0,L|406:127,1,91,8|0,0:0|0:0,0:0:0:0:
141,338,93864,6,0,L|48:335,1,91,6|0,0:0|0:0,0:0:0:0:
204,248,94180,2,0,L|300:248,1,91,8|0,0:0|0:0,0:0:0:0:
138,167,94496,2,0,L|135:72,1,91,0|2,0:0|0:0,0:0:0:0:
240,121,94812,1,8,0:0:0:0:
135,76,94969,1,0,0:0:0:0:
396,33,95127,6,0,P|456:69|392:132,1,182,12|2,0:0|0:0,0:0:0:0:
122,302,95601,2,0,P|177:264|296:237,1,182,12|2,0:0|0:0,0:0:0:0:
67,218,96075,2,0,L|63:121,1,91,12|0,0:0|0:0,0:0:0:0:
299,73,96385,6,0,L|393:74,1,91,12|2,0:0|0:0,0:0:0:0:
147,70,96695,2,0,L|51:73,1,91,12|2,0:0|0:0,0:0:0:0:
425,181,97006,1,12,0:0:0:0:
426,226,97084,1,0,0:0:0:0:
428,271,97162,1,0,0:0:0:0:
143,336,97317,2,0,P|63:315|29:262,1,136.5,12|0,0:0|0:0,0:0:0:0:
354,261,97646,6,0,P|418:228|349:180,1,182,6|8,0:0|0:0,0:0:0:0:
261,181,98124,1,0,0:0:0:0:
113,82,98284,2,0,L|206:84,2,91,2|2|8,0:0|0:0|0:0,0:0:0:0:
397,215,98763,6,0,P|357:264|236:301,1,182,8|0,0:0|0:0,0:0:0:0:
109,263,99237,2,0,L|209:259,1,91,8|0,0:0|0:0,0:0:0:0:
424,30,99553,1,8,0:0:0:0:
426,75,99631,1,0,0:0:0:0:
428,120,99710,1,0,0:0:0:0:
316,160,99869,2,0,L|412:161,1,91,8|0,0:0|0:0,0:0:0:0:
160,336,100185,6,0,P|116:313|182:219,1,182,8|2,0:0|0:0,0:0:0:0:
403,46,100658,1,8,0:0:0:0:
295,108,100816,2,0,L|289:199,1,91,0|2,0:0|0:0,0:0:0:0:
403,46,101132,1,8,0:0:0:0:
181,314,101290,1,0,0:0:0:0:
292,272,101448,6,0,L|194:271,1,91,8|2,0:0|0:0,0:0:0:0:
438,236,101764,2,0,L|441:137,1,91,8|2,0:0|0:0,0:0:0:0:
204,203,102079,1,8,0:0:0:0:
160,195,102157,1,0,0:0:0:0:
140,156,102236,1,0,0:0:0:0:
158,116,102315,1,0,0:0:0:0:
201,106,102395,2,0,L|342:103,1,136.5,8|0,0:0|0:0,0:0:0:0:
100,347,102711,5,6,0:0:0:0:
202,302,102869,2,0,L|206:211,1,91,0|8,0:0|0:0,0:0:0:0:
100,347,103185,1,0,0:0:0:0:
323,41,103343,2,2,L|420:39,1,91,0|0,0:0|0:0,0:0:0:0:
194,148,103658,2,0,L|191:241,1,91,8|2,0:0|0:0,0:0:0:0:
425,330,103974,6,0,L|328:328,2,91,0|2|8,0:0|0:0|0:0,0:0:0:0:
166,342,104448,1,0,0:0:0:0:
283,291,104606,1,8,0:3:0:0:
285,245,104684,1,4,0:3:0:0:
286,200,104763,1,4,0:3:0:0:
120,166,104922,2,0,L|121:26,1,136.5,8|0,0:0|0:0,0:0:0:0:
298,31,105237,5,14,0:0:0:0:
205,95,105395,1,2,0:0:0:0:
201,140,105473,1,2,0:0:0:0:
198,185,105552,1,8,0:0:0:0:
337,280,105711,1,2,0:0:0:0:
382,281,105789,1,2,0:0:0:0:
427,283,105868,1,8,0:0:0:0:
188,277,106013,2,0,L|92:277,1,91,8|0,0:3|0:0,0:0:0:0:
366,349,106325,6,0,P|424:326|346:108,1,364,12|0,0:0|0:0,0:0:0:0:
112,47,107106,2,0,L|203:47,2,91,8|8|2,0:0|0:0|0:0,0:0:0:0:
441,44,107575,5,14,0:0:0:0:
256,192,107731,12,0,116013,0:0:0:0:
