osu file format v14

[General]
AudioFilename: 859341.mp3
AudioLeadIn: 0
PreviewTime: 55889
Countdown: 0
SampleSet: Soft
StackLeniency: 0.9
Mode: 2
LetterboxInBreaks: 0
WidescreenStoryboard: 1

[Editor]
Bookmarks: 74,11442,21547,31652,41758,51863,56916,67021,77126,87231,97337,107442
DistanceSpacing: 1
BeatDivisor: 4
GridSize: 16
TimelineZoom: 2.200006

[Metadata]
Title:Catch the Moment -Radio Edit ver.-
TitleUnicode:Catch the Moment -Radio Edit ver.-
Artist:LiSA
ArtistUnicode:LiSA
Creator:Benita
Version:Salad
Source:劇場版 ソードアート・オンライン -オーディナル・スケール-
Tags:SWORD ART ONLINE The Movie - Ordinal Scale - SAO Benny- BennyBananas Nelly Xetopia
BeatmapID:1822801
BeatmapSetID:872220

[Difficulty]
HPDrainRate:4
CircleSize:3
OverallDifficulty:7
ApproachRate:7
SliderMultiplier:1.5
SliderTickRate:1

[Events]
//Background and Video events
0,0,"789591.png",0,0
//Break Periods
//Storyboard Layer 0 (Background)
//Storyboard Layer 1 (Fail)
//Storyboard Layer 2 (Pass)
//Storyboard Layer 3 (Foreground)
//Storyboard Sound Samples

[TimingPoints]
408,315.789473684211,4,2,1,60,1,0
10504,312.5,4,2,1,60,1,0
11751,315.789473684211,4,2,1,60,1,0
19330,314.13612565445,4,2,1,60,1,0
20429,319.148936170213,4,2,1,60,1,0
21865,315.789473684211,4,2,1,60,1,0
44601,322.58064516129,4,2,1,60,1,0
45891,312.5,4,2,1,60,1,0
48391,315.789473684211,4,2,1,60,1,0
57233,-100,4,2,1,60,0,1
67338,-100,4,2,1,60,0,0
77443,-100,4,2,1,60,0,1
87233,-100,4,2,1,60,0,0
96385,310.880829015544,4,2,1,60,1,0
97646,319.148936170213,4,2,1,60,1,0
98763,-98.0392156862745,4,2,1,60,0,0
98922,315.789473684211,4,2,1,60,1,0
106013,312.5,4,2,1,60,1,0
107106,-100,4,2,1,40,0,0
107575,-100,4,2,1,50,0,0
112888,-100,4,2,1,55,0,0
113200,-100,4,2,1,50,0,0
113513,-100,4,2,1,45,0,0
113825,-100,4,2,1,40,0,0
114138,-100,4,2,1,35,0,0
114450,-100,4,2,1,30,0,0
114763,-100,4,2,1,25,0,0
115075,-100,4,2,1,20,0,0
115388,-100,4,2,1,15,0,0
115700,-100,4,2,1,10,0,0
116013,-100,4,2,1,5,0,0

[Colours]
Combo1 : 142,233,255
Combo2 : 157,173,189
Combo3 : 223,173,149
Combo4 : 225,225,225
Combo5 : 251,139,79

[HitObjects]
321,289,10504,6,0,L|458:282,1,125,8|8,0:0|0:0,0:0:0:0:
326,304,10972,1,8,0:0:0:0:
236,242,11129,2,0,L|232:166,1,75,8|4,0:0|0:3,0:0:0:0:
345,137,11441,1,8,0:0:0:0:
50,144,11751,6,0,P|25:104|93:36,1,150,6|8,0:0|0:0,0:0:0:0:
263,57,12382,2,0,L|106:55,1,150,2|8,0:0|0:0,0:0:0:0:
204,175,12856,6,0,P|248:154|183:33,1,225,8|8,0:0|0:0,0:0:0:0:
370,147,13645,2,0,P|408:175|374:263,1,150,8|8,0:0|0:0,0:0:0:0:
200,288,14277,6,0,P|171:261|247:121,1,225,8|8,0:0|0:0,0:0:0:0:
423,113,15066,2,0,L|440:193,1,75,2|8,0:0|0:0,0:0:0:0:
347,242,15382,6,0,L|109:229,1,225,0|8,0:0|0:0,0:0:0:0:
303,180,16172,2,0,L|452:164,1,150,10|4,0:0|0:0,0:0:0:0:
152,114,16803,6,0,P|112:147|158:224,1,150,6|8,0:0|0:0,0:0:0:0:
331,224,17435,2,0,P|368:190|321:104,1,150,2|8,0:0|0:0,0:0:0:0:
155,78,18066,2,0,L|143:163,1,75,0|2,0:0|0:0,0:0:0:0:
258,178,18382,1,8,0:0:0:0:
93,209,18540,2,0,P|59:181|133:52,1,225,0|12,0:0|0:0,0:0:0:0:
430,123,19330,6,0,P|465:157|425:249,1,150,4|8,0:0|0:0,0:0:0:0:
250,253,19958,2,0,L|230:171,1,75,8|8,0:0|0:0,0:0:0:0:
345,163,20272,1,0,0:0:0:0:
196,320,20429,2,0,P|101:298|227:21,1,525,12|12,0:0|0:0,0:0:0:0:
351,68,21865,5,2,0:0:0:0:
171,213,22180,2,0,L|328:217,2,150,2|2|2,0:0|0:0|0:0,0:0:0:0:
262,181,22970,6,0,P|284:160|258:56,1,150,0|0,0:0|0:0,0:0:0:0:
147,90,23443,2,0,L|139:173,1,75,2|0,0:0|0:0,0:0:0:0:
253,188,23759,2,0,L|260:267,1,75,2|0,0:0|0:0,0:0:0:0:
184,271,24075,1,2,0:0:0:0:
102,278,24233,1,0,0:0:0:0:
259,298,24391,6,0,L|492:271,2,225,2|0|2,0:0|0:0|0:0,0:0:0:0:
79,247,25654,6,0,P|51:218|107:124,1,150,2|2,0:0|0:0,0:0:0:0:
267,132,26286,1,2,0:0:0:0:
117,81,26601,1,2,0:0:0:0:
297,100,26917,6,0,P|328:126|291:213,1,150,2|2,0:0|0:0,0:0:0:0:
111,222,27549,2,0,P|63:195|46:96,1,150,2|2,0:0|0:0,0:0:0:0:
117,70,28022,1,0,0:0:0:0:
192,66,28180,6,0,L|352:83,1,150,2|2,0:0|0:0,0:0:0:0:
266,135,28654,1,0,0:0:0:0:
153,177,28812,2,0,L|140:255,1,75,2|0,0:0|0:0,0:0:0:0:
323,285,29286,1,0,0:0:0:0:
248,285,29443,6,0,L|147:173,1,150,2|2,0:0|0:0,0:0:0:0:
328,205,30075,1,10,0:0:0:0:
28,213,30391,2,0,P|21:172|422:31,1,600,14|10,0:0|0:3,0:0:0:0:
112,221,31970,6,0,P|103:185|175:93,1,150,6|8,0:0|0:0,0:0:0:0:
341,123,32601,2,0,P|336:87|240:17,1,150,2|8,0:0|0:0,0:0:0:0:
163,108,33075,6,0,L|321:115,2,150,0|0|0,0:0|0:0|0:0,0:0:0:0:
239,172,33865,1,2,0:0:0:0:
311,236,34022,1,0,0:0:0:0:
294,334,34180,1,8,0:0:0:0:
186,354,34338,1,0,0:0:0:0:
28,339,34496,6,0,L|243:246,2,225,2|0|8,0:0|0:0|0:0,0:0:0:0:
216,351,35759,2,0,L|369:347,1,150,2|8,0:0|0:0,0:0:0:0:
185,165,36391,1,2,0:0:0:0:
335,119,36707,1,8,0:0:0:0:
156,155,37022,6,0,P|134:121|190:25,1,150,2|8,0:0|0:0,0:0:0:0:
356,64,37654,2,0,P|471:98|481:133,1,150,2|8,0:0|0:0,0:0:0:0:
412,171,38128,1,0,0:0:0:0:
252,184,38286,6,0,P|241:149|324:75,1,150,2|8,0:0|0:0,0:0:0:0:
397,65,38759,2,0,L|241:58,2,150,0|0|0,0:0|0:0|0:0,0:0:0:0:
306,50,39549,2,0,L|151:39,1,150,2|8,0:0|0:0,0:0:0:0:
336,156,40180,2,0,L|354:231,1,75,2|12,0:0|0:0,0:0:0:0:
51,236,40654,6,0,L|289:234,1,225,12|0,0:0|0:0,0:0:0:0:
352,185,41286,1,2,0:0:0:0:
427,187,41443,1,0,0:0:0:0:
352,185,41601,1,2,0:0:0:0:
52,204,41917,6,0,L|289:175,1,225,12|2,0:0|0:0,0:0:0:0:
95,204,42707,2,0,P|65:187|108:90,1,150,2|2,0:0|0:0,0:0:0:0:
261,91,43180,6,0,L|479:147,1,225,12|2,0:0|0:0,0:0:0:0:
283,229,43970,1,2,0:0:0:0:
471,145,44286,1,14,0:0:0:0:
177,151,44601,6,0,P|139:188|184:270,1,150,14|0,0:0|0:0,0:0:0:0:
470,269,45246,2,0,P|492:222|455:132,1,150,14|0,0:0|0:0,0:0:0:0:
151,123,45891,6,0,P|114:118|35:27,1,150,14|0,0:0|0:0,0:0:0:0:
338,196,46516,2,0,P|373:189|397:88,1,150,14|8,0:0|0:3,0:0:0:0:
95,220,47141,6,0,P|61:192|173:11,1,300,6|8,0:0|0:0,0:0:0:0:
241,11,47922,2,0,L|397:17,1,150,0|2,0:0|0:0,0:0:0:0:
294,109,48391,6,0,L|284:190,1,75,0|8,0:0|0:0,0:0:0:0:
360,205,48706,1,0,0:0:0:0:
435,216,48864,2,0,L|466:292,1,75,2|8,0:0|0:0,0:0:0:0:
335,305,49338,1,0,0:0:0:0:
43,252,49654,6,0,L|355:223,1,300,12|0,0:0|0:0,0:0:0:0:
44,199,50601,2,0,P|31:165|200:13,1,300,12|2,0:0|0:0,0:0:0:0:
338,137,51548,1,2,0:0:0:0:
157,196,51864,1,12,0:0:0:0:
457,263,52180,5,12,0:0:0:0:
307,206,52496,2,0,L|468:200,2,150,8|8|8,0:0|0:0|0:0,0:0:0:0:
112,238,53443,6,0,L|393:77,1,300,8|8,0:0|0:0,0:0:0:0:
175,50,54391,1,8,0:0:0:0:
470,201,54706,6,0,L|256:109,2,225,12|2|2,0:0|0:0|0:0,0:0:0:0:
161,261,55969,5,8,0:0:0:0:
439,273,56601,2,0,L|452:181,1,75,8|4,0:3|0:3,0:0:0:0:
334,183,56917,1,12,0:0:0:0:
30,150,57233,6,0,L|191:93,1,150,6|8,0:0|0:0,0:0:0:0:
352,147,57865,2,0,L|437:141,2,75,2|2|8,0:0|0:0|0:0,0:0:0:0:
172,253,58496,6,0,P|141:226|176:133,1,150,2|8,0:0|0:0,0:0:0:0:
351,113,59128,1,2,0:0:0:0:
276,117,59286,1,2,0:0:0:0:
201,119,59444,1,8,0:0:0:0:
381,273,59759,6,0,L|224:234,1,150,2|8,0:0|0:0,0:0:0:0:
416,165,60391,2,0,L|389:85,1,75,2|2,0:0|0:0,0:0:0:0:
291,86,60707,1,8,0:0:0:0:
471,134,61023,2,0,P|496:174|473:276,1,150,2|8,0:0|0:0,0:0:0:0:
298,305,61654,1,2,0:0:0:0:
373,296,61812,1,2,0:0:0:0:
448,289,61970,1,8,0:0:0:0:
148,247,62286,6,0,L|313:197,1,150,2|8,0:0|0:0,0:0:0:0:
111,143,62917,1,2,0:0:0:0:
34,102,63075,1,2,0:0:0:0:
66,154,63233,1,8,0:0:0:0:
246,201,63549,6,0,L|89:173,1,150,2|8,0:0|0:0,0:0:0:0:
279,120,64181,1,2,0:0:0:0:
353,123,64338,1,2,0:0:0:0:
427,130,64496,1,8,0:0:0:0:
247,217,64812,6,0,P|219:191|247:89,1,150,2|8,0:0|0:0,0:0:0:0:
422,96,65444,2,0,L|336:57,2,75,2|2|8,0:0|0:0|0:0,0:0:0:0:
121,251,66075,6,0,P|82:201|131:124,1,150,12|0,0:0|0:0,0:0:0:0:
211,129,66549,2,0,L|371:133,1,150,8|2,0:0|0:0,0:0:0:0:
421,187,67023,1,8,0:0:0:0:
122,275,67338,5,6,0:0:0:0:
272,267,67654,2,0,P|295:245|293:130,1,150,8|2,0:0|0:0,0:0:0:0:
147,153,68285,2,0,P|116:139|156:51,1,150,8|2,0:0|0:0,0:0:0:0:
327,147,68917,1,8,0:0:0:0:
147,67,69233,2,0,P|63:103|71:147,1,150,2|8,0:0|0:0,0:0:0:0:
250,270,69864,5,2,0:0:0:0:
431,240,70180,2,0,P|453:202|411:110,1,150,8|2,0:0|0:0,0:0:0:0:
235,132,70812,2,0,L|397:87,1,150,8|2,0:0|0:0,0:0:0:0:
202,37,71443,1,8,0:0:0:0:
383,232,71759,2,0,P|416:177|361:109,1,150,2|8,0:0|0:0,0:0:0:0:
68,221,72391,5,6,0:0:0:0:
217,193,72706,2,0,L|118:81,2,150,8|0|8,0:0|0:0|0:0,0:0:0:0:
398,260,73654,2,0,P|466:216|459:134,1,150,2|8,0:0|0:0,0:0:0:0:
289,149,74285,2,0,L|436:103,1,150,2|8,0:0|0:0,0:0:0:0:
131,187,74917,6,0,L|344:85,2,225,12|12|14,0:0|0:0|0:0,0:0:0:0:
311,262,76180,1,14,0:0:0:0:
161,225,76496,2,0,L|307:183,1,150,14|14,0:0|0:0,0:0:0:0:
182,144,77127,1,12,0:0:0:0:
482,150,77443,6,0,L|321:93,1,150,6|8,0:0|0:0,0:0:0:0:
160,147,78075,2,0,L|75:141,2,75,2|2|8,0:0|0:0|0:0,0:0:0:0:
340,253,78706,6,0,P|371:226|336:133,1,150,2|8,0:0|0:0,0:0:0:0:
161,113,79338,1,2,0:0:0:0:
236,117,79496,1,2,0:0:0:0:
311,119,79654,1,8,0:0:0:0:
131,273,79969,6,0,L|288:234,1,150,2|8,0:0|0:0,0:0:0:0:
96,165,80601,2,0,L|123:85,1,75,2|2,0:0|0:0,0:0:0:0:
221,86,80917,1,8,0:0:0:0:
41,134,81233,2,0,P|16:174|39:276,1,150,2|8,0:0|0:0,0:0:0:0:
214,305,81864,1,2,0:0:0:0:
139,296,82022,1,2,0:0:0:0:
64,289,82180,1,8,0:0:0:0:
364,247,82496,6,0,L|199:197,1,150,2|8,0:0|0:0,0:0:0:0:
401,143,83127,1,2,0:0:0:0:
478,102,83285,1,2,0:0:0:0:
446,154,83443,1,8,0:0:0:0:
266,201,83759,6,0,L|423:173,1,150,2|8,0:0|0:0,0:0:0:0:
233,120,84391,1,2,0:0:0:0:
159,123,84548,1,2,0:0:0:0:
85,130,84706,1,8,0:0:0:0:
265,217,85022,6,0,P|293:191|265:89,1,150,2|8,0:0|0:0,0:0:0:0:
90,96,85654,2,0,L|176:57,2,75,2|2|8,0:0|0:0|0:0,0:0:0:0:
391,251,86285,6,0,P|430:201|381:124,1,150,12|0,0:0|0:0,0:0:0:0:
301,129,86759,2,0,L|141:133,1,150,8|2,0:0|0:0,0:0:0:0:
91,187,87233,1,8,0:0:0:0:
390,275,87548,5,6,0:0:0:0:
240,253,87864,2,0,L|360:163,1,150,8|4,0:3|0:3,0:0:0:0:
57,123,88496,6,0,L|367:57,1,300,8|8,0:0|0:0,0:0:0:0:
199,42,89443,1,2,0:0:0:0:
379,116,89759,1,8,0:0:0:0:
199,248,90075,6,0,L|365:227,2,150,8|4|4,0:3|0:3|0:3,0:0:0:0:
499,207,91022,6,0,L|200:182,1,300,8|8,0:0|0:0,0:0:0:0:
380,215,91969,2,0,P|401:175|378:63,1,150,2|8,0:0|0:0,0:0:0:0:
86,102,92601,6,0,P|61:134|107:237,1,150,6|8,0:0|0:0,0:0:0:0:
272,248,93233,2,0,P|279:205|208:130,1,150,0|8,0:0|0:0,0:0:0:0:
21,127,93864,5,6,0:0:0:0:
201,275,94180,2,0,L|58:212,2,150,8|0|8,0:0|0:0|0:0,0:0:0:0:
497,254,95127,6,0,P|487:203|396:131,1,150,12|2,0:0|0:0,0:0:0:0:
325,138,95601,2,0,P|286:122|304:22,1,150,12|2,0:0|0:0,0:0:0:0:
381,22,96075,1,12,0:0:0:0:
201,123,96385,6,0,P|184:156|203:266,1,150,12|12,0:0|0:0,0:0:0:0:
381,263,97006,2,0,L|411:192,1,75,12|2,0:0|0:0,0:0:0:0:
333,144,97317,1,12,0:0:0:0:
43,143,97646,6,0,P|19:100|86:35,1,150,6|8,0:0|0:0,0:0:0:0:
259,65,98284,2,0,L|107:63,1,150,2|8,0:0|0:0,0:0:0:0:
200,185,98763,6,0,P|243:163|179:43,1,227.249995492172,8|8,0:0|0:0,0:0:0:0:
358,127,99553,2,0,P|396:157|362:243,1,150,8|8,0:0|0:0,0:0:0:0:
186,298,100185,6,0,P|155:272|233:131,1,225,8|8,0:0|0:0,0:0:0:0:
394,144,100974,2,0,L|413:228,1,75,2|8,0:0|0:0,0:0:0:0:
296,252,101290,6,0,L|48:238,1,225,0|8,0:0|0:0,0:0:0:0:
251,177,102079,2,0,L|410:158,1,150,8|8,0:0|0:0,0:0:0:0:
99,117,102711,6,0,P|58:152|105:227,1,150,6|8,0:0|0:0,0:0:0:0:
277,222,103343,2,0,P|316:186|267:102,1,150,2|8,0:0|0:0,0:0:0:0:
103,90,103974,2,0,L|92:177,1,75,0|2,0:0|0:0,0:0:0:0:
206,192,104290,1,8,0:0:0:0:
56,222,104448,2,0,P|12:197|78:75,1,225,0|8,0:0|0:0,0:0:0:0:
373,97,105237,6,0,P|421:119|411:209,1,150,14|8,0:0|0:0,0:0:0:0:
235,263,105869,1,8,0:0:0:0:
326,206,106013,2,0,L|309:133,1,75,2|0,0:0|0:0,0:0:0:0:
159,312,106325,6,0,P|84:265|205:62,1,375,8|8,0:0|0:0,0:0:0:0:
301,113,107263,2,0,L|314:209,1,75,8|2,0:0|0:0,0:0:0:0:
146,220,107575,5,14,0:0:0:0:
256,192,107888,12,0,116013,0:0:0:0:
