osu file format v14

[General]
AudioFilename: 859341.mp3
AudioLeadIn: 0
PreviewTime: 55889
Countdown: 0
SampleSet: Soft
StackLeniency: 0.9
Mode: 2
LetterboxInBreaks: 0
WidescreenStoryboard: 1

[Editor]
Bookmarks: 74,11442,21547,31652,41758,51863,56916,67021,77126,87231,97337,107442
DistanceSpacing: 1
BeatDivisor: 12
GridSize: 16
TimelineZoom: 4.200004

[Metadata]
Title:Catch the Moment -Radio Edit ver.-
TitleUnicode:Catch the Moment -Radio Edit ver.-
Artist:LiSA
ArtistUnicode:LiSA
Creator:Benita
Version:Overdose
Source:劇場版 ソードアート・オンライン -オーディナル・スケール-
Tags:SWORD ART ONLINE The Movie - Ordinal Scale - SAO Benny- BennyBananas Nelly Xetopia
BeatmapID:1822799
BeatmapSetID:872220

[Difficulty]
HPDrainRate:7
CircleSize:4.5
OverallDifficulty:9.4
ApproachRate:9.4
SliderMultiplier:2
SliderTickRate:2

[Events]
//Background and Video events
0,0,"789591.png",0,0
//Break Periods
//Storyboard Layer 0 (Background)
//Storyboard Layer 1 (Fail)
//Storyboard Layer 2 (Pass)
//Storyboard Layer 3 (Foreground)
//Storyboard Sound Samples

[TimingPoints]
408,315.789473684211,4,2,1,60,1,0
10504,312.5,4,2,1,60,1,0
11751,315.789473684211,4,2,1,60,1,0
19330,314.13612565445,4,2,1,60,1,0
20429,319.148936170213,4,2,1,60,1,0
21865,315.789473684211,4,2,1,60,1,0
44601,322.58064516129,4,2,1,60,1,0
45891,312.5,4,2,1,60,1,0
48391,315.789473684211,4,2,1,60,1,0
57233,-100,4,2,1,60,0,1
67338,-100,4,2,1,60,0,0
77443,-100,4,2,1,60,0,1
87233,-100,4,2,1,60,0,0
96385,310.880829015544,4,2,1,60,1,0
97646,319.148936170213,4,2,1,60,1,0
98763,-99.009900990099,4,2,1,60,0,0
98922,315.789473684211,4,2,1,60,1,0
106013,312.5,4,2,1,60,1,0
107106,-100,4,2,1,40,0,0
107575,-100,4,2,1,60,0,0
112888,-100,4,2,1,55,0,0
113200,-100,4,2,1,50,0,0
113513,-100,4,2,1,45,0,0
113825,-100,4,2,1,40,0,0
114138,-100,4,2,1,35,0,0
114450,-100,4,2,1,30,0,0
114763,-100,4,2,1,25,0,0
115075,-100,4,2,1,20,0,0
115388,-100,4,2,1,15,0,0
115700,-100,4,2,1,10,0,0
116013,-100,4,2,1,5,0,0

[Colours]
Combo1 : 142,233,255
Combo2 : 157,173,189
Combo3 : 223,173,149
Combo4 : 225,225,225
Combo5 : 251,139,79

[HitObjects]
152,312,10355,6,2,L|144:263,1,50
395,252,10504,2,0,P|421:209|387:156,1,116.666666666667,8|0,0:0|0:0,0:0:0:0:
207,121,10764,2,0,L|302:118,1,83.3333333333333,8|0,0:0|0:0,0:0:0:0:
127,90,10972,2,0,L|55:90,1,50,8|0,0:0|0:0,0:0:0:0:
273,176,11129,2,0,L|295:254,1,50,8|8,0:0|0:3,0:0:0:0:
141,262,11285,2,0,L|128:343,1,50,4|4,0:3|0:3,0:3:0:0:
338,324,11441,2,0,P|404:298|416:215,1,150,8|0,0:0|0:0,0:0:0:0:
213,137,11751,6,0,L|432:154,1,200,6|8,0:0|0:0,0:0:0:0:
331,76,12225,1,0,0:0:0:0:
78,159,12383,2,0,L|201:173,2,100,2|2|8,0:0|0:0|0:0,0:0:0:0:
353,212,12856,6,0,P|419:179|362:82,1,200,8|2,0:0|0:0,0:0:0:0:
204,81,13330,2,0,L|440:63,1,200,8|8,0:0|0:0,0:0:0:0:
286,69,13804,1,2,0:0:0:0:
456,121,13961,2,0,L|461:235,1,100,8|0,0:0|0:0,0:0:0:0:
182,239,14277,6,0,L|388:229,1,200,8|2,0:0|0:0,0:0:0:0:
212,204,14751,2,0,P|182:148|283:54,1,200,8|2,0:0|0:0,0:0:0:0:
376,37,15225,1,8,0:0:0:0:
222,37,15383,1,0,0:0:0:0:
461,203,15540,6,0,L|476:311,1,100,8|0,0:0|0:0,0:0:0:0:
309,312,15856,2,0,L|418:332,1,100,8|0,0:0|0:0,0:0:0:0:
113,111,16172,1,10,0:0:0:0:
70,132,16251,1,2,0:0:0:0:
57,179,16330,1,2,0:0:0:0:
83,220,16409,1,2,0:0:0:0:
327,241,16487,2,0,P|366:208|298:113,1,150,12|0,0:0|0:0,0:0:0:0:
148,126,16804,5,6,0:0:0:0:
268,80,16961,1,0,0:0:0:0:
140,146,17119,1,8,0:0:0:0:
281,61,17277,1,0,0:0:0:0:
31,146,17435,2,0,L|41:258,1,100,2|2,0:0|0:0,0:0:0:0:
298,271,17751,2,0,L|158:261,1,100,8|2,0:0|0:0,0:0:0:0:
478,217,18067,6,0,L|379:184,2,100,0|2|8,0:0|0:0|0:0,0:0:0:0:
185,208,18540,2,0,L|76:195,1,100,0|8,0:0|0:3,0:0:0:0:
124,157,18777,1,4,0:3:0:0:
356,183,18856,2,4,L|418:178,1,50,4|4,0:3|0:3,0:3:0:0:
172,235,19014,2,0,P|118:207|176:134,1,150,12|0,0:0|0:0,0:0:0:0:
336,133,19330,6,0,L|463:120,1,100,4|2,0:0|0:0,0:0:0:0:
470,118,19565,1,2,0:0:0:0:
276,79,19644,2,0,L|252:182,1,100,8|2,0:0|0:0,0:0:0:0:
304,193,19879,1,2,0:0:0:0:
354,203,19958,1,8,0:0:0:0:
121,239,20115,2,0,L|111:120,1,100,8|0,0:0|0:0,0:0:0:0:
440,269,20429,6,0,P|462:219|169:275,1,700,12|12,0:0|0:0,0:0:0:0:
281,275,21705,1,0,0:0:0:0:
57,250,21865,6,0,L|42:148,1,100,2|0,0:0|0:0,0:0:0:0:
180,154,22180,2,0,L|196:41,1,100,2|0,0:0|0:0,0:0:0:0:
45,54,22496,2,0,L|266:42,1,200,2|2,0:0|0:0,0:0:0:0:
378,95,22970,2,0,L|392:217,1,100,0|2,0:0|0:0,0:0:0:0:
292,214,23286,1,0,0:0:0:0:
456,215,23443,2,0,L|340:240,1,100,2|0,0:0|0:0,0:0:0:0:
211,255,23759,2,0,L|346:263,1,100,2|0,0:0|0:0,0:0:0:0:
174,191,24075,1,2,0:0:0:0:
294,133,24233,1,0,0:0:0:0:
75,145,24391,6,0,P|28:105|104:26,1,200,2|2,0:0|0:0,0:0:0:0:
245,49,24865,2,0,L|358:73,2,100,0|2|0,0:0|0:0|0:0,0:0:0:0:
89,73,25338,2,0,L|61:177,1,100,2|0,0:0|0:0,0:0:0:0:
214,193,25654,2,0,L|333:210,1,100,2|0,0:0|0:0,0:0:0:0:
170,110,25970,2,0,L|62:89,1,100,2|0,0:0|0:0,0:0:0:0:
243,114,26286,2,0,L|257:218,1,100,2|0,0:0|0:0,0:0:0:0:
82,230,26601,2,0,L|64:348,1,100,2|0,0:0|0:0,0:0:0:0:
290,313,26917,6,0,L|500:295,1,200,2|2,0:0|0:0,0:0:0:0:
374,213,27391,1,0,0:0:0:0:
509,195,27549,2,0,L|496:84,1,100,2|0,0:0|0:0,0:0:0:0:
376,79,27865,1,2,0:0:0:0:
487,29,28022,1,0,0:0:0:0:
319,22,28180,2,0,L|214:32,1,100,2|0,0:0|0:0,0:0:0:0:
373,115,28496,2,0,L|395:232,1,100,2|0,0:0|0:0,0:0:0:0:
253,229,28812,1,2,0:0:0:0:
402,187,28970,2,0,L|183:176,1,200
441,160,29443,6,0,P|481:131|418:25,1,200,2|2,0:0|0:0,0:0:0:0:
327,30,29917,1,0,0:0:0:0:
58,101,30075,2,0,L|44:211,1,100,10|0,0:0|0:0,0:0:0:0:
426,262,30391,2,0,P|444:195|224:324,1,700,14|0,0:0|0:0,0:0:0:0:
374,309,31654,2,0,L|393:196,1,100,10|0,0:3|0:0,0:0:0:0:
143,202,31970,5,6,0:0:0:0:
383,174,32286,2,0,L|163:168,1,200,8|2,0:0|0:0,0:0:0:0:
297,93,32759,1,0,0:0:0:0:
167,70,32917,1,8,0:0:0:0:
436,112,33075,2,0,P|490:167|424:250,1,200
309,243,33549,1,8,0:0:0:0:
410,182,33707,1,0,0:0:0:0:
241,178,33865,2,0,L|231:71,1,100,2|0,0:0|0:0,0:0:0:0:
380,82,34180,2,0,L|396:200,1,100,8|0,0:0|0:0,0:0:0:0:
89,227,34496,6,0,L|294:211,1,200,2|8,0:0|0:0,0:0:0:0:
123,174,34970,2,0,L|-4:155,2,100,0|2|0,0:0|0:0|0:0,0:0:0:0:
296,203,35443,2,0,L|309:314,1,100,8|0,0:0|0:0,0:0:0:0:
156,308,35759,2,0,L|28:302,1,100,2|0,0:0|0:0,0:0:0:0:
219,239,36075,2,0,L|362:253,1,100,8|0,0:0|0:0,0:0:0:0:
191,181,36391,2,0,P|166:125|201:68,1,100,2|0,0:0|0:0,0:0:0:0:
327,88,36707,2,0,P|350:59|324:3,1,100,8|0,0:0|0:0,0:0:0:0:
51,152,37022,6,0,L|276:128,1,200,2|8,0:0|0:0,0:0:0:0:
162,221,37496,1,0,0:0:0:0:
322,196,37654,2,0,L|204:180,2,100,2|0|8,0:0|0:0|0:0,0:0:0:0:
420,214,38128,1,0,0:0:0:0:
46,209,38286,2,0,P|23:153|144:57,1,200,2|8,0:0|0:0,0:0:0:0:
380,81,38759,2,0,L|405:202,1,100,0|2,0:0|0:0,0:0:0:0:
154,196,39075,2,0,L|146:301,1,100,0|8,0:0|0:0,0:0:0:0:
291,305,39391,1,0,0:0:0:0:
56,292,39549,6,0,L|277:277,2,200,2|8|2,0:0|0:0|0:0,0:0:0:0:
351,296,40338,2,0,L|362:191,1,100,12|0,0:0|0:0,0:0:0:0:
120,189,40654,2,0,L|334:180,1,200,12|2,0:0|0:0,0:0:0:0:
36,152,41128,1,0,0:0:0:0:
166,127,41286,1,2,0:0:0:0:
476,152,41443,1,0,0:0:0:0:
346,125,41601,1,2,0:0:0:0:
476,152,41759,1,0,0:0:0:0:
32,109,41917,6,0,L|260:93,1,200,12|0,0:0|0:0,0:0:0:0:
80,180,42391,2,0,L|65:292,1,100,2|0,0:0|0:0,0:0:0:0:
235,294,42707,2,0,L|453:270,1,200,2|2,0:0|0:0,0:0:0:0:
140,237,43180,6,0,P|92:205|164:104,1,200,12|0,0:0|0:0,0:0:0:0:
308,126,43654,2,0,L|317:230,1,100,2|0,0:0|0:0,0:0:0:0:
45,236,43970,2,0,L|37:129,1,100,2|0,0:0|0:0,0:0:0:0:
284,132,44286,2,0,L|385:127,1,100,14|0,0:0|0:0,0:0:0:0:
87,96,44601,6,0,P|52:132|123:241,1,200,14|0,0:0|0:0,0:0:0:0:
376,190,45246,2,0,P|428:154|367:55,1,200,14|0,0:0|0:0,0:0:0:0:
109,180,45891,6,0,L|332:150,1,200,14|0,0:0|0:0,0:0:0:0:
45,115,46516,2,0,L|7:337,1,200,14|8,0:0|0:3,0:0:0:0:
472,226,47141,6,0,P|495:139|381:70,1,200,6|0,0:0|0:0,0:0:0:0:
312,65,47609,1,2,0:0:0:0:
64,122,47766,1,8,0:0:0:0:
175,164,47922,2,0,L|42:182,2,100,0|0|2,0:0|0:0|0:0,0:0:0:0:
284,145,48391,1,0,0:0:0:0:
119,207,48548,2,0,L|97:332,1,100,8|0,0:0|0:0,0:0:0:0:
216,328,48864,1,2,0:0:0:0:
450,323,49022,2,0,L|465:222,1,100,8|0,0:0|0:0,0:0:0:0:
292,220,49338,2,0,L|149:208,1,100
445,152,49654,6,0,L|462:52,1,100,12|2,0:0|0:0,0:0:0:0:
214,195,50127,1,2,0:0:0:0:
116,191,50285,1,2,0:0:0:0:
18,192,50443,1,2,0:0:0:0:
290,106,50601,6,0,L|401:118,2,100,12|2|0,0:0|0:0|0:0,0:0:0:0:
180,94,51075,1,2,0:0:0:0:
430,154,51233,2,0,L|452:268,1,100,2|2,0:0|0:0,0:0:0:0:
124,188,51548,2,0,L|105:301,1,100,2|2,0:0|0:0,0:0:0:0:
156,305,51785,1,2,0:0:0:0:
389,299,51864,2,0,L|220:273,1,150,12|0,0:0|0:0,0:0:0:0:
462,233,52180,6,0,L|486:117,1,100,12|2,0:0|0:0,0:0:0:0:
250,157,52496,2,0,L|221:40,1,100,8|2,0:0|0:0,0:0:0:0:
484,61,52812,2,0,L|381:40,1,100,8|2,0:0|0:0,0:0:0:0:
126,101,53127,2,0,L|245:132,1,100,8|2,0:0|0:0,0:0:0:0:
464,190,53443,5,8,0:0:0:0:
357,190,53601,1,2,0:0:0:0:
251,190,53759,1,8,0:0:0:0:
145,190,53917,1,2,0:0:0:0:
430,174,54075,2,0,L|441:68,1,100,8|2,0:0|0:0,0:0:0:0:
181,78,54391,2,0,L|165:184,1,100,8|2,0:0|0:0,0:0:0:0:
461,235,54706,6,0,L|251:228,1,200,12|2,0:0|0:0,0:0:0:0:
367,174,55180,1,2,0:0:0:0:
233,151,55338,1,2,0:0:0:0:
381,127,55496,1,2,0:0:0:0:
210,113,55654,1,2,0:0:0:0:
390,81,55812,1,2,0:0:0:0:
64,215,55969,5,8,0:0:0:0:
495,241,56285,1,0,0:0:0:0:
64,215,56601,2,0,L|51:140,1,50,8|4,0:3|0:3,0:0:0:0:
284,153,56759,2,4,L|355:152,1,50,4|4,0:3|0:3,0:3:0:0:
64,159,56917,2,0,P|38:115|109:51,1,150,12|0,0:0|0:0,0:0:0:0:
326,59,57233,6,0,P|337:104|318:160,1,100,6|0,0:0|0:0,0:0:0:0:
42,203,57548,2,0,L|256:216,1,200,8|2,0:0|0:0,0:0:0:0:
17,141,58022,1,2,0:0:0:0:
269,147,58180,2,0,L|388:151,1,100,8|0,0:0|0:0,0:0:0:0:
43,194,58496,6,0,P|30:260|56:298,1,100,2|0,0:0|0:0,0:0:0:0:
285,295,58812,2,0,L|88:240,1,200,8|2,0:0|0:0,0:0:0:0:
331,169,59285,1,2,0:0:0:0:
88,152,59443,2,0,L|196:136,1,100,8|0,0:0|0:0,0:0:0:0:
469,127,59759,6,0,L|366:127,1,100,2|0,0:0|0:0,0:0:0:0:
58,238,60075,2,0,P|17:195|109:99,1,200,8|2,0:0|0:0,0:0:0:0:
305,97,60548,1,2,0:0:0:0:
55,126,60706,2,0,P|33:177|111:238,1,150,8|0,0:0|0:0,0:0:0:0:
293,245,61022,6,0,L|416:246,1,100,2|0,0:0|0:0,0:0:0:0:
125,221,61338,2,0,P|107:167|127:114,1,100,8|0,0:0|0:0,0:0:0:0:
379,164,61654,1,2,0:0:0:0:
134,160,61812,1,2,0:0:0:0:
379,164,61969,2,0,P|416:118|395:71,1,100,8|0,0:0|0:0,0:0:0:0:
176,82,62285,6,0,L|62:87,1,100,2|0,0:0|0:0,0:0:0:0:
321,272,62601,2,0,P|371:239|341:113,1,200,8|2,0:0|0:0,0:0:0:0:
117,106,63075,1,2,0:0:0:0:
373,108,63233,2,0,P|378:174|339:217,1,100,8|0,0:0|0:0,0:0:0:0:
56,217,63548,6,0,L|201:206,1,100,2|0,0:0|0:0,0:0:0:0:
406,203,63864,2,0,L|202:189,1,200,8|2,0:0|0:0,0:0:0:0:
443,121,64338,1,2,0:0:0:0:
211,116,64496,2,0,L|91:113,1,100,8|0,0:0|0:0,0:0:0:0:
385,117,64812,6,0,L|427:208,1,100,2|0,0:0|0:0,0:0:0:0:
186,235,65127,2,0,L|403:185,1,200,8|2,0:0|0:0,0:0:0:0:
126,147,65601,1,2,0:0:0:0:
359,135,65759,2,0,P|418:96|414:7,1,150,8|0,0:0|0:0,0:0:0:0:
204,23,66075,6,0,L|98:64,1,100,12|2,0:0|0:0,0:0:0:0:
271,137,66391,1,0,0:0:0:0:
42,113,66548,1,8,0:0:0:0:
201,192,66706,2,0,L|88:190,1,100,0|2,0:0|0:0,0:0:0:0:
327,208,67022,2,0,L|456:204,1,100,8|0,0:0|0:0,0:0:0:0:
133,232,67338,5,6,0:0:0:0:
394,178,67654,2,0,L|183:183,1,200,8|2,0:0|0:0,0:0:0:0:
295,145,68127,1,2,0:0:0:0:
395,126,68285,1,8,0:0:0:0:
95,116,68601,1,2,0:0:0:0:
196,107,68759,1,2,0:0:0:0:
95,116,68917,1,8,0:0:0:0:
397,183,69233,1,2,0:0:0:0:
296,181,69391,1,2,0:0:0:0:
196,180,69548,1,8,0:0:0:0:
397,267,69864,5,2,0:0:0:0:
96,217,70180,2,0,L|299:220,1,200,8|2,0:0|0:0,0:0:0:0:
216,187,70654,1,2,0:0:0:0:
136,162,70812,1,8,0:0:0:0:
395,150,71127,1,2,0:0:0:0:
295,146,71285,1,2,0:0:0:0:
395,150,71443,1,8,0:0:0:0:
134,176,71759,1,2,0:0:0:0:
234,180,71917,1,2,0:0:0:0:
134,176,72075,2,0,P|80:145|92:43,1,150,8|0,0:0|0:0,0:0:0:0:
293,109,72391,5,6,0:0:0:0:
37,195,72706,2,0,L|248:184,1,200,8|0,0:0|0:0,0:0:0:0:
125,129,73180,1,2,0:0:0:0:
343,125,73338,2,0,P|380:164|362:218,1,100,8|0,0:0|0:0,0:0:0:0:
127,225,73654,2,0,L|336:177,1,200,2|8,0:0|0:0,0:0:0:0:
436,154,74127,1,0,0:0:0:0:
202,159,74285,2,0,P|163:116|198:63,1,100,2|2,0:0|0:0,0:0:0:0:
390,92,74601,2,0,P|422:46|397:-3,1,100,8|0,0:0|0:0,0:0:0:0:
101,171,74917,6,0,L|333:144,1,200,12|2,0:0|0:0,0:0:0:0:
36,118,75391,2,0,P|27:55|144:-18,1,200,12|2,0:0|0:0,0:0:0:0:
366,61,75864,2,0,L|451:146,1,100,14|0,0:0|0:0,0:0:0:0:
213,152,76180,2,0,P|188:218|192:274,1,100,14|0,0:0|0:0,0:0:0:0:
406,237,76496,2,0,L|293:213,1,100,14|0,0:0|0:0,0:0:0:0:
63,195,76812,2,0,P|34:157|47:94,1,100,14|2,0:0|0:0,0:0:0:0:
112,97,77048,1,2,0:0:0:0:
331,107,77127,2,0,L|450:133,1,100,12|0,0:0|0:0,0:0:0:0:
213,57,77443,6,0,P|202:102|221:158,1,100,6|0,0:0|0:0,0:0:0:0:
470,203,77759,2,0,L|256:216,1,200,8|2,0:0|0:0,0:0:0:0:
495,141,78233,1,2,0:0:0:0:
243,147,78391,2,0,L|124:151,1,100,8|0,0:0|0:0,0:0:0:0:
469,194,78706,6,0,P|482:260|456:298,1,100,2|0,0:0|0:0,0:0:0:0:
227,295,79022,2,0,L|424:240,1,200,8|2,0:0|0:0,0:0:0:0:
181,169,79496,1,2,0:0:0:0:
424,152,79654,2,0,L|316:136,1,100,8|0,0:0|0:0,0:0:0:0:
43,127,79969,6,0,L|146:127,1,100,2|0,0:0|0:0,0:0:0:0:
454,238,80285,2,0,P|495:195|403:99,1,200,8|2,0:0|0:0,0:0:0:0:
207,97,80759,1,2,0:0:0:0:
457,126,80917,2,0,P|479:177|401:238,1,150,8|0,0:0|0:0,0:0:0:0:
219,245,81233,6,0,L|96:246,1,100,2|0,0:0|0:0,0:0:0:0:
387,221,81548,2,0,P|405:167|385:114,1,100,8|0,0:0|0:0,0:0:0:0:
133,164,81864,1,2,0:0:0:0:
378,160,82022,1,2,0:0:0:0:
133,164,82180,2,0,P|96:118|117:71,1,100,8|0,0:0|0:0,0:0:0:0:
336,82,82496,6,0,L|450:87,1,100,2|0,0:0|0:0,0:0:0:0:
191,272,82812,2,0,P|141:239|171:113,1,200,8|2,0:0|0:0,0:0:0:0:
395,106,83285,1,2,0:0:0:0:
139,108,83443,2,0,P|134:174|173:217,1,100,8|0,0:0|0:0,0:0:0:0:
456,217,83759,6,0,L|311:206,1,100,2|0,0:0|0:0,0:0:0:0:
106,203,84075,2,0,L|310:189,1,200,8|2,0:0|0:0,0:0:0:0:
69,121,84548,1,2,0:0:0:0:
301,116,84706,2,0,L|421:113,1,100,8|0,0:0|0:0,0:0:0:0:
127,117,85022,6,0,L|85:208,1,100,2|0,0:0|0:0,0:0:0:0:
326,235,85338,2,0,L|109:185,1,200,8|2,0:0|0:0,0:0:0:0:
386,147,85812,1,2,0:0:0:0:
152,136,85969,2,0,P|90:104|126:30,1,150,8|0,0:0|0:0,0:0:0:0:
308,23,86285,6,0,L|414:64,1,100,4|2,0:0|0:0,0:0:0:0:
241,137,86601,1,0,0:0:0:0:
470,113,86759,1,8,0:0:0:0:
311,192,86917,2,0,L|424:190,1,100,0|2,0:0|0:0,0:0:0:0:
160,210,87233,2,0,L|31:206,1,100,8|0,0:0|0:0,0:0:0:0:
377,212,87548,5,6,0:0:0:0:
118,178,87864,2,0,L|11:166,2,100,8|4|4,0:3|0:3|0:3,0:3:0:0:
218,186,88338,1,2,0:0:0:0:
454,186,88496,2,0,L|255:192,1,200,8|0,0:0|0:0,0:0:0:0:
355,141,88969,1,2,0:0:0:0:
456,118,89127,1,8,0:0:0:0:
153,194,89443,1,2,0:0:0:0:
254,192,89601,1,2,0:0:0:0:
93,194,89759,2,0,P|61:147|89:100,1,100,8|0,0:0|0:0,0:0:0:0:
328,137,90075,6,0,L|441:150,2,100,8|4|4,0:3|0:3|0:3,0:3:0:0:
226,121,90548,1,8,0:3:0:0:
462,128,90706,2,0,P|492:190|466:221,1,100,4|2,0:3|0:0,0:0:0:0:
226,230,91022,2,0,L|435:192,1,200,8|2,0:0|0:0,0:0:0:0:
321,147,91496,1,2,0:0:0:0:
221,133,91654,1,8,0:0:0:0:
420,81,91969,1,2,0:0:0:0:
320,95,92127,1,2,0:0:0:0:
96,242,92285,2,0,P|61:190|99:109,1,150,8|0,0:0|0:0,0:0:0:0:
323,110,92601,6,0,L|89:100,1,200,6|8,0:0|0:0,0:0:0:0:
279,192,93075,2,0,L|407:232,2,100,0|0|2,0:0|0:0|0:0,0:0:0:0:
111,187,93548,2,0,L|85:78,1,100,8|0,0:0|0:0,0:0:0:0:
355,84,93864,1,6,0:0:0:0:
95,194,94180,2,0,L|300:95,1,200,8|0,0:0|0:0,0:0:0:0:
149,88,94654,1,2,0:0:0:0:
383,117,94812,2,0,L|262:106,1,100,8|0,0:0|0:0,0:0:0:0:
38,110,95127,6,0,L|262:115,1,200,12|2,0:0|0:0,0:0:0:0:
486,125,95601,2,0,L|267:127,1,200,12|2,0:0|0:0,0:0:0:0:
41,182,96075,2,0,L|149:180,1,100,12|0,0:0|0:0,0:0:0:0:
422,169,96385,1,12,0:0:0:0:
302,123,96540,1,2,0:0:0:0:
22,154,96695,1,12,0:0:0:0:
163,133,96851,1,2,0:0:0:0:
470,111,97006,1,12,0:0:0:0:
329,133,97162,2,2,L|314:189,1,50
474,213,97317,2,0,L|313:215,1,150,12|0,0:0|0:0,0:0:0:0:
98,207,97646,6,0,P|36:157|106:81,1,200,6|8,0:0|0:0,0:0:0:0:
399,124,98284,2,0,L|282:107,2,100,2|2|8,0:0|0:0|0:0,0:0:0:0:
129,215,98763,6,0,L|344:192,1,200,8|0,0:0|0:0,0:0:0:0:
178,163,99237,2,0,L|162:53,1,100,8|0,0:0|0:0,0:0:0:0:
320,61,99553,2,0,L|135:69,1,150,8|0,0:0|0:0,0:0:0:0:
337,156,99869,2,0,L|453:155,1,100,8|0,0:0|0:0,0:0:0:0:
159,246,100185,6,0,P|113:203|192:113,1,200,8|2,0:0|0:0,0:0:0:0:
341,111,100658,2,0,L|136:90,1,200,8|2,0:0|0:0,0:0:0:0:
287,162,101132,2,0,L|418:187,1,100,8|0,0:0|0:0,0:0:0:0:
90,169,101448,5,8,0:0:0:0:
220,124,101606,1,2,0:0:0:0:
490,154,101764,1,8,0:0:0:0:
360,130,101922,1,2,0:0:0:0:
42,111,102079,1,8,0:0:0:0:
172,107,102237,2,2,L|186:160,1,50
30,209,102395,2,0,L|185:211,1,150,8|0,0:0|0:0,0:0:0:0:
411,205,102711,6,0,L|468:109,3,100,6|0|8|0,0:0|0:0|0:0|0:0,0:0:0:0:
291,149,103343,2,2,L|202:85,1,100
352,77,103658,1,8,0:0:0:0:
207,92,103816,1,2,0:0:0:0:
397,83,103974,6,0,L|287:71,2,100,0|2|8,0:0|0:0|0:0,0:0:0:0:
146,209,104448,1,0,0:0:0:0:
278,190,104606,2,0,L|336:184,1,50,8|4,0:3|0:3,0:0:0:0:
131,139,104764,2,4,L|67:129,1,50,4|4,0:3|0:3,0:3:0:0:
287,111,104922,2,0,P|346:142|359:232,1,150,8|0,0:0|0:0,0:0:0:0:
176,133,105237,6,0,L|49:120,1,100,14|2,0:0|0:0,0:0:0:0:
42,118,105474,1,2,0:0:0:0:
235,81,105553,2,8,L|260:182,1,100,8|2,0:0|0:0,0:0:0:0:
208,193,105790,1,2,0:0:0:0:
158,203,105869,1,8,0:0:0:0:
391,239,106013,2,0,L|469:173,1,100,8|0,0:3|0:0,0:0:0:0:
217,212,106325,6,0,P|287:67|350:236,1,400,12|0,0:0|0:0,0:0:0:0:
98,199,107105,1,8,0:0:0:0:
374,208,107263,1,8,0:0:0:0:
217,212,107418,1,2,0:0:0:0:
491,197,107575,5,14,0:0:0:0:
256,192,107731,12,0,116013,0:0:0:0:
