osu file format v14

[General]
AudioFilename: 859341.mp3
AudioLeadIn: 0
PreviewTime: 55889
Countdown: 0
SampleSet: Soft
StackLeniency: 0.9
Mode: 2
LetterboxInBreaks: 0
WidescreenStoryboard: 1

[Editor]
Bookmarks: 74,11442,21547,31652,41758,51863,56916,67021,77126,87231,97337,107442
DistanceSpacing: 1.4
BeatDivisor: 4
GridSize: 16
TimelineZoom: 2.200006

[Metadata]
Title:Catch the Moment -Radio Edit ver.-
TitleUnicode:Catch the Moment -Radio Edit ver.-
Artist:LiSA
ArtistUnicode:LiSA
Creator:Benita
Version:Nelly's Rain
Source:劇場版 ソードアート・オンライン -オーディナル・スケール-
Tags:SWORD ART ONLINE The Movie - Ordinal Scale - SAO Benny- BennyBananas Nelly Xetopia
BeatmapID:1822798
BeatmapSetID:872220

[Difficulty]
HPDrainRate:6
CircleSize:4
OverallDifficulty:9
ApproachRate:9
SliderMultiplier:1.9
SliderTickRate:2

[Events]
//Background and Video events
0,0,"789591.png",0,0
//Break Periods
//Storyboard Layer 0 (Background)
//Storyboard Layer 1 (Fail)
//Storyboard Layer 2 (Pass)
//Storyboard Layer 3 (Foreground)
//Storyboard Sound Samples

[TimingPoints]
408,315.789473684211,4,2,1,60,1,0
10504,312.5,4,2,1,60,1,0
11751,315.789473684211,4,2,1,60,1,0
19330,314.13612565445,4,2,1,60,1,0
20429,319.148936170213,4,2,1,60,1,0
21865,315.789473684211,4,2,1,60,1,0
44601,322.58064516129,4,2,1,60,1,0
45891,312.5,4,2,1,60,1,0
48391,315.789473684211,4,2,1,60,1,0
57233,-100,4,2,1,60,0,1
67338,-100,4,2,1,60,0,0
77443,-100,4,2,1,60,0,1
87233,-100,4,2,1,60,0,0
96385,310.880829015544,4,2,1,60,1,0
97646,319.148936170213,4,2,1,60,1,0
98763,-99.009900990099,4,2,1,60,0,0
98922,315.789473684211,4,2,1,60,1,0
106013,312.5,4,2,1,60,1,0
107106,-100,4,2,1,40,0,0
107575,-100,4,2,1,50,0,0
112888,-100,4,2,1,55,0,0
113200,-100,4,2,1,50,0,0
113513,-100,4,2,1,45,0,0
113825,-100,4,2,1,40,0,0
114138,-100,4,2,1,35,0,0
114450,-100,4,2,1,30,0,0
114763,-100,4,2,1,25,0,0
115075,-100,4,2,1,20,0,0
115388,-100,4,2,1,15,0,0
115700,-100,4,2,1,10,0,0
116013,-100,4,2,1,5,0,0

[Colours]
Combo1 : 142,233,255
Combo2 : 157,173,189
Combo3 : 223,173,149
Combo4 : 225,225,225
Combo5 : 251,139,79

[HitObjects]
159,328,10355,6,0,L|156:279,1,47.5,2|2,0:0|0:0,0:0:0:0:
305,222,10504,2,0,L|465:230,1,158.333333333333,8|8,0:0|0:0,0:0:0:0:
305,222,10972,1,8,0:0:0:0:
154,75,11129,1,8,0:0:0:0:
201,72,11207,1,8,0:3:0:0:
248,70,11285,1,4,0:3:0:0:
399,71,11441,2,0,P|439:88|400:154,1,142.5,8|0,0:0|0:0,0:0:0:0:
188,164,11751,6,0,P|139:175|188:269,1,190,6|8,0:0|0:0,0:0:0:0:
312,267,12224,1,0,0:0:0:0:
179,270,12382,2,0,L|81:266,2,95,2|2|8,0:0|0:0|0:0,0:0:0:0:
417,189,12856,6,0,L|226:184,1,190,8|2,0:0|0:0,0:0:0:0:
360,14,13329,2,0,L|364:108,1,95,8|0,0:0|0:0,0:0:0:0:
231,115,13645,1,8,0:0:0:0:
364,108,13803,1,2,0:0:0:0:
231,115,13961,2,0,L|134:110,1,95,8|0,0:0|0:0,0:0:0:0:
387,306,14277,6,0,P|395:269|293:176,1,190,8|2,0:0|0:0,0:0:0:0:
125,306,14751,2,0,P|117:269|219:176,1,190,8|2,0:0|0:0,0:0:0:0:
348,178,15224,1,8,0:0:0:0:
215,175,15382,1,0,0:0:0:0:
460,319,15540,6,0,L|365:318,1,95,8|0,0:0|0:0,0:0:0:0:
231,314,15856,2,0,L|136:313,1,95,8|2,0:0|0:0,0:0:0:0:
282,233,16172,2,0,L|330:236,2,47.5,10|2|2,0:0|0:0|0:0,0:0:0:0:
49,221,16487,2,0,L|45:122,1,95,12|0,0:0|0:0,0:0:0:0:
341,92,16803,6,0,L|435:98,1,95,6|0,0:0|0:0,0:0:0:0:
301,184,17119,1,8,0:0:0:0:
434,184,17277,1,0,0:0:0:0:
301,184,17435,2,0,L|201:180,1,95,2|2,0:0|0:0,0:0:0:0:
341,280,17751,2,0,L|349:184,1,95,8|2,0:0|0:0,0:0:0:0:
117,290,18066,6,0,L|17:287,2,95,0|2|8,0:0|0:0|0:0,0:0:0:0:
250,290,18540,1,0,0:0:0:0:
117,290,18698,1,8,0:3:0:0:
115,243,18776,1,4,0:3:0:0:
113,196,18855,1,4,0:3:0:0:
354,137,19014,2,0,L|452:141,1,95,12|0,0:0|0:0,0:0:0:0:
190,320,19330,6,0,L|94:317,1,95,4|2,0:0|0:0,0:0:0:0:
140,280,19565,1,2,0:0:0:0:
293,274,19644,2,0,L|389:271,1,95,8|2,0:0|0:0,0:0:0:0:
343,234,19879,1,2,0:0:0:0:
131,222,19958,2,0,L|35:220,2,95,8|8|0,0:0|0:0|0:0,0:0:0:0:
359,346,20429,6,0,P|255:108|166:351,1,665,12|12,0:0|0:0,0:0:0:0:
441,347,21865,6,0,L|445:253,1,95,2|0,0:0|0:0,0:0:0:0:
311,249,22180,2,0,L|315:155,1,95,2|0,0:0|0:0,0:0:0:0:
177,276,22496,2,0,L|239:198,1,95,2|0,0:0|0:0,0:0:0:0:
388,124,22812,2,0,L|318:60,1,95,2|0,0:0|0:0,0:0:0:0:
188,37,23128,5,2,0:0:0:0:
105,72,23285,1,0,0:0:0:0:
71,155,23443,1,2,0:0:0:0:
105,237,23601,1,0,0:0:0:0:
245,324,23759,2,0,L|339:316,1,95,2|0,0:0|0:0,0:0:0:0:
201,240,24075,2,0,L|197:146,1,95,2|0,0:0|0:0,0:0:0:0:
368,90,24391,6,0,P|415:108|367:203,1,190,2|2,0:0|0:0,0:0:0:0:
233,195,24865,2,0,L|135:190,2,95,0|2|0,0:0|0:0|0:0,0:0:0:0:
365,204,25338,2,0,L|369:107,1,95,2|0,0:0|0:0,0:0:0:0:
191,196,25654,6,0,L|187:99,1,95,2|0,0:0|0:0,0:0:0:0:
326,110,25970,2,0,L|330:13,1,95,2|0,0:0|0:0,0:0:0:0:
187,290,26286,2,0,L|245:210,1,95,2|0,0:0|0:0,0:0:0:0:
394,196,26601,2,0,L|493:203,1,95,2|0,0:0|0:0,0:0:0:0:
128,347,26917,6,0,P|81:329|130:234,1,190,2|2,0:0|0:0,0:0:0:0:
262,240,27391,1,0,0:0:0:0:
395,237,27549,2,0,L|404:143,1,95,2|0,0:0|0:0,0:0:0:0:
250,145,27865,2,0,L|244:51,1,95
395,237,28180,6,0,L|299:241,1,95,2|0,0:0|0:0,0:0:0:0:
166,322,28496,2,0,L|262:326,1,95,2|0,0:0|0:0,0:0:0:0:
404,328,28812,1,2,0:0:0:0:
446,225,28970,1,0,0:0:0:0:
404,123,29128,1,0,0:0:0:0:
277,85,29286,1,0,0:0:0:0:
54,207,29443,5,0,0:0:0:0:
38,83,29601,1,0,0:0:0:0:
170,89,29759,1,0,0:0:0:0:
38,83,29917,1,0,0:0:0:0:
294,294,30075,1,10,0:0:0:0:
410,286,30233,1,0,0:0:0:0:
147,306,30391,6,0,B|98:309|62:295|47:259|58:218|71:197|95:187|117:182|141:180|141:180|358:179|358:179|391:179|421:168|442:132|445:93|430:73|401:46|375:38|312:35|257:39,1,760,14|10,0:0|0:3,0:0:0:0:
49,329,31970,6,0,L|40:229,1,95,6|0,0:0|0:0,0:0:0:0:
277,321,32286,2,0,L|374:318,1,95,8|0,0:0|0:0,0:0:0:0:
232,230,32601,2,0,L|135:227,2,95,2|0|8,0:0|0:0|0:0,0:0:0:0:
474,234,33075,6,0,P|479:203|369:117,1,190,0|0,0:0|0:0,0:0:0:0:
238,125,33549,1,8,0:0:0:0:
370,116,33707,1,0,0:0:0:0:
238,125,33865,6,0,L|227:220,1,95,2|0,0:0|0:0,0:0:0:0:
355,253,34180,2,0,L|449:252,1,95,8|0,0:0|0:0,0:0:0:0:
176,354,34496,6,0,P|128:338|176:246,1,190,2|8,0:0|0:0,0:0:0:0:
310,250,34970,2,0,L|211:246,1,95,0|2,0:0|0:0,0:0:0:0:
81,239,35286,1,0,0:0:0:0:
213,241,35443,2,0,L|218:145,1,95,8|0,0:0|0:0,0:0:0:0:
84,141,35759,5,2,0:0:0:0:
217,146,35917,2,0,L|315:148,2,95,0|8|0,0:0|0:0|0:0,0:0:0:0:
84,51,36391,2,0,L|20:127,1,95,2|0,0:0|0:0,0:0:0:0:
162,198,36707,1,8,0:0:0:0:
21,197,36865,1,0,0:0:0:0:
329,352,37022,6,0,P|367:341|327:237,1,190,2|8,0:0|0:0,0:0:0:0:
194,239,37496,1,0,0:0:0:0:
328,236,37654,2,0,L|335:134,1,95,2|0,0:0|0:0,0:0:0:0:
187,141,37970,2,0,L|181:46,1,95,8|0,0:0|0:0,0:0:0:0:
439,176,38286,5,2,0:0:0:0:
310,172,38443,1,0,0:0:0:0:
439,176,38601,1,8,0:0:0:0:
178,45,38759,2,0,L|378:44,1,190
240,232,39233,2,0,L|146:232,1,95,8|0,0:0|0:0,0:0:0:0:
402,357,39549,6,0,P|448:341|402:245,1,190,2|8,0:0|0:0,0:0:0:0:
269,250,40022,1,0,0:0:0:0:
402,245,40180,1,2,0:0:0:0:
175,238,40338,2,0,L|170:144,1,95,12|0,0:0|0:0,0:0:0:0:
396,51,40654,6,0,L|204:48,1,190,12|2,0:0|0:0,0:0:0:0:
341,242,41128,2,0,L|346:147,1,95,0|2,0:0|0:0,0:0:0:0:
95,137,41443,1,0,0:0:0:0:
227,135,41600,1,2,0:0:0:0:
95,137,41758,1,0,0:0:0:0:
358,126,41917,6,0,P|403:141|359:317,1,285,12|2,0:0|0:0,0:0:0:0:
54,303,42707,2,0,L|37:111,1,190,2|2,0:0|0:0,0:0:0:0:
262,96,43180,6,0,P|310:115|262:212,1,190,12|0,0:0|0:0,0:0:0:0:
92,177,43654,2,0,L|253:76,1,190,2|2,0:0|0:0,0:0:0:0:
32,31,44286,1,14,0:0:0:0:
431,351,44601,6,0,L|428:157,1,190,14|0,0:0|0:0,0:0:0:0:
161,192,45246,2,0,L|355:195,1,190,14|0,0:0|0:0,0:0:0:0:
79,353,45891,6,0,L|82:159,1,190,14|0,0:0|0:0,0:0:0:0:
353,79,46516,1,14,0:0:0:0:
82,71,46828,1,8,0:3:0:0:
466,66,47141,6,0,P|488:107|409:203,1,190,6|0,0:0|0:0,0:0:0:0:
295,199,47609,1,2,0:0:0:0:
181,194,47766,2,0,L|85:188,2,95,8|0|0,0:0|0:0|0:0,0:0:0:0:
330,204,48234,1,2,0:0:0:0:
204,273,48391,5,0,0:0:0:0:
337,278,48548,1,8,0:0:0:0:
204,273,48706,2,0,L|105:279,1,95,0|2,0:0|0:0,0:0:0:0:
244,88,49022,2,0,L|247:182,1,95,8|0,0:0|0:0,0:0:0:0:
103,189,49338,2,0,L|101:94,1,95,0|0,0:0|0:0,0:0:0:0:
379,351,49654,5,12,0:0:0:0:
392,251,49812,1,2,0:0:0:0:
177,197,50127,1,2,0:0:0:0:
164,97,50285,1,0,0:0:0:0:
406,85,50601,6,0,P|455:110|406:209,1,190,12|0,0:0|0:0,0:0:0:0:
259,199,51075,2,0,L|257:104,1,95,2|2,0:0|0:0,0:0:0:0:
391,99,51391,1,2,0:0:0:0:
259,199,51548,2,0,L|160:196,1,95,2|2,0:0|0:0,0:0:0:0:
209,163,51785,1,2,0:0:0:0:
405,133,51864,2,0,P|448:162|405:230,1,142.5,12|0,0:0|0:0,0:0:0:0:
205,240,52180,6,0,L|109:235,1,95,12|2,0:0|0:0,0:0:0:0:
345,347,52496,2,0,L|349:252,1,95,8|2,0:0|0:0,0:0:0:0:
125,36,52812,2,0,L|121:131,1,95,8|2,0:0|0:0,0:0:0:0:
340,142,53127,2,0,L|435:146,1,95,8|2,0:0|0:0,0:0:0:0:
205,359,53443,6,0,L|201:264,1,95,8|2,0:0|0:0,0:0:0:0:
451,51,53759,2,0,L|356:47,1,95,8|2,0:0|0:0,0:0:0:0:
97,179,54075,2,0,L|192:175,1,95,8|2,0:0|0:0,0:0:0:0:
433,200,54391,2,0,L|439:298,1,95,8|2,0:0|0:0,0:0:0:0:
151,333,54706,5,12,0:0:0:0:
368,110,55022,1,2,0:0:0:0:
235,107,55180,1,2,0:0:0:0:
368,110,55338,1,2,0:0:0:0:
235,107,55496,1,2,0:0:0:0:
488,266,55654,1,2,0:0:0:0:
355,263,55812,1,2,0:0:0:0:
96,248,55969,5,8,0:0:0:0:
355,263,56285,1,0,0:0:0:0:
96,248,56601,6,0,L|90:198,1,47.5,8|4,0:3|0:3,0:0:0:0:
249,162,56759,2,0,L|255:112,1,47.5,4|4,0:3|0:3,0:0:0:0:
76,34,56917,2,0,P|39:51|76:122,1,142.5,12|0,0:0|0:0,0:0:0:0:
304,127,57233,6,0,L|399:131,1,95,6|0,0:0|0:0,0:0:0:0:
235,241,57548,2,0,L|41:248,1,190,8|2,0:0|0:0,0:0:0:0:
179,336,58022,1,2,0:0:0:0:
41,153,58180,2,0,L|136:149,1,95,8|0,0:0|0:0,0:0:0:0:
431,139,58496,6,0,L|438:236,1,95,2|0,0:0|0:0,0:0:0:0:
272,340,58812,2,0,L|462:337,1,190,8|2,0:0|0:0,0:0:0:0:
326,246,59285,1,2,0:0:0:0:
458,237,59443,1,8,0:0:0:0:
326,246,59601,1,0,0:0:0:0:
46,255,59759,6,0,L|147:252,1,95,2|0,0:0|0:0,0:0:0:0:
308,243,60075,2,0,P|355:230|308:137,1,190,8|2,0:0|0:0,0:0:0:0:
177,142,60548,1,2,0:0:0:0:
431,30,60706,2,0,L|456:125,1,95,8|0,0:0|0:0,0:0:0:0:
217,188,61022,6,0,L|115:193,1,95,2|0,0:0|0:0,0:0:0:0:
257,371,61338,2,0,L|263:276,1,95,8|0,0:0|0:0,0:0:0:0:
130,279,61654,1,2,0:0:0:0:
263,276,61812,1,2,0:0:0:0:
17,92,61969,2,0,L|116:89,1,95,8|0,0:0|0:0,0:0:0:0:
399,253,62285,6,0,L|304:257,1,95,2|0,0:0|0:0,0:0:0:0:
145,154,62601,2,0,L|335:160,1,190,8|2,0:0|0:0,0:0:0:0:
189,47,63074,1,2,0:0:0:0:
328,48,63233,2,0,L|331:143,1,95,8|0,0:0|0:0,0:0:0:0:
81,244,63548,6,0,L|74:148,1,95,2|0,0:0|0:0,0:0:0:0:
236,90,63864,2,0,P|283:103|236:196,1,190,8|2,0:0|0:0,0:0:0:0:
114,187,64338,1,2,0:0:0:0:
238,144,64496,2,0,L|334:143,1,95,8|0,0:0|0:0,0:0:0:0:
111,304,64811,6,0,L|17:302,1,95,2|0,0:0|0:0,0:0:0:0:
167,239,65127,2,0,L|357:233,1,190,8|2,0:0|0:0,0:0:0:0:
238,144,65600,1,2,0:0:0:0:
101,79,65759,2,0,P|67:120|101:197,1,142.5,8|0,0:0|0:0,0:0:0:0:
285,172,66075,6,0,L|379:171,2,95,12|2|0,0:0|0:0|0:0,0:0:0:0:
52,313,66548,1,8,0:0:0:0:
186,311,66706,1,0,0:0:0:0:
52,313,66864,1,2,0:0:0:0:
331,265,67022,2,0,L|426:272,1,95,8|0,0:0|0:0,0:0:0:0:
162,343,67338,6,0,P|121:331|161:229,1,190,6|8,0:0|0:0,0:0:0:0:
409,235,67969,1,2,0:0:0:0:
426,112,68127,1,2,0:0:0:0:
314,92,68285,1,8,0:0:0:0:
67,91,68601,5,2,0:0:0:0:
191,86,68759,1,2,0:0:0:0:
67,91,68917,1,8,0:0:0:0:
334,226,69233,1,2,0:0:0:0:
210,221,69391,1,2,0:0:0:0:
334,226,69549,1,8,0:0:0:0:
91,338,69864,6,0,L|291:336,1,190,2|8,0:0|0:0,0:0:0:0:
30,256,70496,1,2,0:0:0:0:
24,161,70653,1,2,0:0:0:0:
138,149,70812,1,8,0:0:0:0:
403,135,71127,5,2,0:0:0:0:
409,40,71284,1,2,0:0:0:0:
295,28,71443,1,8,0:0:0:0:
54,46,71759,1,2,0:0:0:0:
178,41,71917,1,2,0:0:0:0:
54,46,72075,2,0,P|18:75|51:151,1,142.5,8|0,0:0|0:0,0:0:0:0:
209,158,72391,6,0,L|399:153,1,190,6|8,0:0|0:0,0:0:0:0:
265,254,72864,1,0,0:0:0:0:
403,349,73022,2,0,L|409:253,1,95,0|2,0:0|0:0,0:0:0:0:
280,62,73338,2,0,L|185:59,1,95,8|0,0:0|0:0,0:0:0:0:
469,200,73654,6,0,P|484:155|391:70,1,190,2|8,0:0|0:0,0:0:0:0:
260,85,74127,1,0,0:0:0:0:
393,69,74285,2,0,L|398:166,1,95,2|2,0:0|0:0,0:0:0:0:
263,239,74601,2,0,L|118:238,1,142.5,8|0,0:0|0:0,0:0:0:0:
387,215,74917,6,0,P|398:163|306:80,1,190,12|2,0:0|0:0,0:0:0:0:
35,298,75391,2,0,P|24:246|116:163,1,190,12|2,0:0|0:0,0:0:0:0:
246,162,75864,1,14,0:0:0:0:
115,163,76022,1,0,0:0:0:0:
439,336,76180,6,0,L|344:334,1,95,14|0,0:0|0:0,0:0:0:0:
127,293,76496,2,0,L|120:197,1,95,14|0,0:0|0:0,0:0:0:0:
344,176,76812,2,0,L|439:174,1,95,14|2,0:0|0:0,0:0:0:0:
206,90,77127,2,0,L|110:87,1,95,12|0,0:0|0:0,0:0:0:0:
345,156,77443,6,0,L|440:160,1,95,6|0,0:0|0:0,0:0:0:0:
310,270,77759,2,0,L|116:277,1,190,8|2,0:0|0:0,0:0:0:0:
254,365,78232,1,2,0:0:0:0:
116,182,78390,2,0,L|109:87,1,95,8|0,0:0|0:0,0:0:0:0:
431,139,78706,6,0,L|336:135,1,95,2|0,0:0|0:0,0:0:0:0:
203,233,79022,2,0,L|393:230,1,190,8|2,0:0|0:0,0:0:0:0:
256,56,79496,1,2,0:0:0:0:
391,39,79654,2,0,L|397:138,1,95,8|0,0:0|0:0,0:0:0:0:
141,252,79969,6,0,L|46:255,1,95,2|0,0:0|0:0,0:0:0:0:
182,346,80285,2,0,L|372:343,1,190,8|2,0:0|0:0,0:0:0:0:
234,251,80758,1,2,0:0:0:0:
472,148,80917,2,0,L|481:245,1,95,8|0,0:0|0:0,0:0:0:0:
211,249,81233,6,0,L|109:254,1,95,2|0,0:0|0:0,0:0:0:0:
250,164,81548,2,0,L|352:169,1,95,8|0,0:0|0:0,0:0:0:0:
212,76,81864,1,2,0:0:0:0:
345,73,82022,1,2,0:0:0:0:
80,81,82180,2,0,L|70:178,1,95,8|0,0:0|0:0,0:0:0:0:
399,253,82496,6,0,L|304:257,1,95,2|0,0:0|0:0,0:0:0:0:
169,155,82812,2,0,L|359:161,1,190,8|2,0:0|0:0,0:0:0:0:
213,48,83284,1,2,0:0:0:0:
352,49,83443,2,0,L|355:144,1,95,8|0,0:0|0:0,0:0:0:0:
81,244,83759,6,0,L|74:148,1,95,2|0,0:0|0:0,0:0:0:0:
209,90,84075,2,0,P|256:103|209:196,1,190,8|2,0:0|0:0,0:0:0:0:
72,97,84548,2,0,L|171:93,2,95,2|8|0,0:0|0:0|0:0,0:0:0:0:
306,205,85022,6,0,L|400:203,1,95,2|0,0:0|0:0,0:0:0:0:
267,301,85338,2,0,L|77:295,1,190,8|2,0:0|0:0,0:0:0:0:
212,204,85812,1,2,0:0:0:0:
72,97,85969,2,0,P|26:118|70:177,1,142.5,8|0,0:0|0:0,0:0:0:0:
318,177,86285,5,12,0:0:0:0:
394,105,86443,1,2,0:0:0:0:
294,76,86601,1,0,0:0:0:0:
79,48,86759,1,8,0:0:0:0:
20,128,86917,1,0,0:0:0:0:
118,169,87075,1,2,0:0:0:0:
380,165,87233,2,0,L|475:158,1,95,8|0,0:0|0:0,0:0:0:0:
188,341,87548,6,0,P|145:332|187:237,1,190,6|8,0:0|0:3,0:0:0:0:
322,239,88022,1,4,0:3:0:0:
188,237,88180,1,4,0:3:0:0:
451,329,88496,6,0,P|479:289|369:118,1,285,8|2,0:0|0:0,0:0:0:0:
241,122,89127,2,0,L|147:126,1,95,8|0,0:0|0:0,0:0:0:0:
277,222,89443,1,2,0:0:0:0:
143,221,89601,1,2,0:0:0:0:
277,222,89759,2,0,L|284:316,1,95,8|0,0:0|0:0,0:0:0:0:
36,338,90075,6,0,L|29:244,1,95,8|4,0:3|0:3,0:0:0:0:
163,234,90391,1,4,0:3:0:0:
29,243,90548,1,8,0:3:0:0:
319,242,90706,1,4,0:3:0:0:
93,96,91022,6,0,L|378:85,1,285,8|2,0:0|0:0,0:0:0:0:
241,186,91654,2,0,L|239:281,1,95,8|0,0:0|0:0,0:0:0:0:
372,291,91969,2,0,L|261:285,1,95,2|2,0:0|0:0,0:0:0:0:
144,275,92285,2,0,P|103:256|142:186,1,142.5,8|0,0:0|0:0,0:0:0:0:
336,189,92601,6,0,P|382:178|340:81,1,190,6|8,0:0|0:0,0:0:0:0:
208,88,93075,1,0,0:0:0:0:
342,80,93233,2,0,L|248:78,1,95,0|2,0:0|0:0,0:0:0:0:
114,77,93548,2,0,L|110:171,1,95,8|0,0:0|0:0,0:0:0:0:
359,234,93864,6,0,L|363:328,1,95,6|0,0:0|0:0,0:0:0:0:
230,347,94180,2,0,L|131:343,1,95,8|0,0:0|0:0,0:0:0:0:
273,262,94496,2,0,L|277:163,1,95,0|2,0:0|0:0,0:0:0:0:
140,144,94812,2,0,L|46:147,1,95,8|0,0:0|0:0,0:0:0:0:
298,237,95127,6,0,P|370:209|366:106,1,190,12|2,0:0|0:0,0:0:0:0:
127,85,95601,2,0,P|55:113|59:216,1,190,12|2,0:0|0:0,0:0:0:0:
303,112,96075,2,0,L|398:115,1,95,12|0,0:0|0:0,0:0:0:0:
59,337,96385,6,0,L|54:240,1,95,12|2,0:0|0:0,0:0:0:0:
188,228,96695,2,0,L|286:226,2,95,12|2|12,0:0|0:0|0:0,0:0:0:0:
52,106,97162,2,0,L|58:153,1,47.5,2|2,0:0|0:0,0:0:0:0:
256,230,97317,2,0,L|399:229,1,142.5,12|0,0:0|0:0,0:0:0:0:
188,164,97646,6,0,P|139:175|188:269,1,190,6|8,0:0|0:0,0:0:0:0:
312,267,98124,1,0,0:0:0:0:
179,270,98284,2,0,L|81:266,2,95,2|2|8,0:0|0:0|0:0,0:0:0:0:
417,189,98763,6,0,L|226:184,1,190,8|0,0:0|0:0,0:0:0:0:
360,14,99237,2,0,L|364:108,1,95,8|0,0:0|0:0,0:0:0:0:
231,115,99553,1,8,0:0:0:0:
364,108,99711,1,0,0:0:0:0:
231,115,99869,2,0,L|134:110,1,95,8|0,0:0|0:0,0:0:0:0:
387,306,100185,6,0,P|395:269|293:176,1,190,8|2,0:0|0:0,0:0:0:0:
125,306,100658,2,0,P|117:269|219:176,1,190,8|2,0:0|0:0,0:0:0:0:
348,178,101132,1,8,0:0:0:0:
215,175,101290,1,0,0:0:0:0:
460,319,101448,6,0,L|365:318,1,95,8|2,0:0|0:0,0:0:0:0:
231,314,101764,2,0,L|136:313,1,95,8|2,0:0|0:0,0:0:0:0:
288,138,102079,1,8,0:0:0:0:
285,185,102158,1,0,0:0:0:0:
282,233,102236,1,2,0:0:0:0:
19,75,102395,2,0,L|116:74,1,95,8|0,0:0|0:0,0:0:0:0:
341,92,102711,6,0,L|373:184,1,95,6|0,0:0|0:0,0:0:0:0:
246,203,103027,1,8,0:0:0:0:
379,203,103185,1,0,0:0:0:0:
246,203,103343,2,0,L|146:199,2,95,2|2|8,0:0|0:0|0:0,0:0:0:0:
379,203,103816,1,0,0:0:0:0:
133,326,103974,6,0,L|33:323,2,95,0|2|8,0:0|0:0|0:0,0:0:0:0:
266,318,104448,1,0,0:0:0:0:
37,137,104607,1,8,0:3:0:0:
84,135,104685,1,4,0:3:0:0:
131,133,104764,1,4,0:3:0:0:
405,161,104922,2,0,L|471:239,1,95,8|0,0:0|0:0,0:0:0:0:
190,320,105237,6,0,L|94:317,1,95,14|2,0:0|0:0,0:0:0:0:
140,280,105474,1,2,0:0:0:0:
293,274,105553,2,0,L|389:271,1,95,8|2,0:0|0:0,0:0:0:0:
343,234,105790,1,2,0:0:0:0:
131,222,105869,1,8,0:0:0:0:
22,220,106013,1,8,0:3:0:0:
131,222,106169,1,0,0:0:0:0:
359,346,106325,6,0,P|257:178|166:351,1,475,8|8,0:0|0:0,0:0:0:0:
300,349,107263,1,8,0:0:0:0:
166,350,107419,1,2,0:0:0:0:
458,270,107575,1,14,0:0:0:0:
256,192,107731,12,0,116013,0:0:0:0:
