osu file format v14

[General]
AudioFilename: audio sao.mp3
AudioLeadIn: 0
PreviewTime: 56205
Countdown: 0
SampleSet: Soft
StackLeniency: 0.7
Mode: 0
LetterboxInBreaks: 0
WidescreenStoryboard: 1

[Editor]
Bookmarks: 15019,29458
DistanceSpacing: 1
BeatDivisor: 4
GridSize: 4
TimelineZoom: 1

[Metadata]
Title:Catch the Moment
TitleUnicode:Catch the Moment
Artist:LiSA
ArtistUnicode:LiSA
Creator:tiffany yu tyu
Version:Hard
Source:劇場版 ソードアート・オンライン -オーディナル・スケール-
Tags:Sword Art Online
BeatmapID:1162647
BeatmapSetID:549012

[Difficulty]
HPDrainRate:5
CircleSize:4
OverallDifficulty:7
ApproachRate:7.5
SliderMultiplier:1.4
SliderTickRate:1

[Events]
//Background and Video events
0,0,"sword-art-online-ordinal-scale.jpg",0,0
//Break Periods
2,105353,106665
//Storyboard Layer 0 (Background)
//Storyboard Layer 1 (Fail)
//Storyboard Layer 2 (Pass)
//Storyboard Layer 3 (Foreground)
//Storyboard Sound Samples

[TimingPoints]
311,315.789473684211,4,2,0,80,1,0
48616,-100,4,2,0,80,0,0
57153,-133.333333333333,4,2,0,80,0,1
68047,-100,4,2,0,80,0,0
77353,-100,4,2,0,80,0,0
82416,-100,4,2,0,80,0,1
98205,-100,4,2,0,80,0,0

[Colours]
Combo1 : 0,255,64
Combo2 : 0,128,255
Combo3 : 255,128,0
Combo4 : 255,0,128

[HitObjects]
112,160,311,5,0,0:0:0:0:
196,148,626,1,0,0:0:0:0:
284,132,942,2,0,P|316:116|440:144,1,140
416,236,1574,1,0,0:0:0:0:
328,264,1889,1,0,0:0:0:0:
220,280,2205,2,0,P|148:276|96:220,1,140
140,80,2837,6,0,L|240:60,2,70
144,152,3468,2,0,L|220:144,2,70
136,240,4100,2,0,P|180:280|276:288,1,140
352,276,4732,1,0,0:0:0:0:
88,84,5363,6,0,L|80:160,1,70
160,168,5679,2,0,L|160:252,1,70
80,224,5995,2,0,L|80:320,1,70
80,294,6311,1,0,0:0:0:0:
240,232,6626,2,0,L|320:216,1,70
312,152,6942,2,0,L|384:136,1,70
392,64,7258,2,0,L|472:40,2,70
280,184,7889,5,0,0:0:0:0:
220,224,8205,1,0,0:0:0:0:
160,252,8521,1,0,0:0:0:0:
256,192,9153,12,0,11047,0:0:0:0:
120,88,11679,6,0,P|176:56|264:84,1,140
360,132,12311,1,0,0:0:0:0:
360,132,12468,1,0,0:0:0:0:
360,132,12626,2,0,P|332:184|244:228,1,140
96,264,13258,1,0,0:0:0:0:
96,264,13416,1,0,0:0:0:0:
96,264,13574,2,0,P|64:204|100:124,1,140
156,112,14205,6,0,L|232:156,2,70
144,240,14837,2,0,P|84:196|60:112,1,140
156,72,15468,2,0,L|320:60,1,140
396,124,16100,1,0,0:0:0:0:
352,208,16416,1,0,0:0:0:0:
252,104,16732,6,0,L|96:84,1,140
112,200,17363,2,0,L|268:216,1,140
92,276,17995,1,0,0:0:0:0:
92,276,18311,2,0,P|144:284|364:228,1,280
256,192,19573,12,0,21468,0:0:0:0:
104,84,22100,6,0,L|192:76,2,70
108,172,22732,2,0,L|188:176,2,70
104,256,23363,2,0,P|152:300|224:296,1,140
252,188,23995,1,0,0:0:0:0:
272,96,24290,1,0,0:0:0:0:
272,96,24448,1,0,0:0:0:0:
272,96,24626,2,0,P|380:144|388:168,1,140
328,256,25258,2,0,P|288:292|208:256,1,140
104,204,25889,1,0,0:0:0:0:
104,100,26204,5,0,0:0:0:0:
104,100,26362,1,0,0:0:0:0:
104,100,26521,1,0,0:0:0:0:
108,200,26837,2,0,L|152:268,2,70
200,180,27468,2,0,L|248:252,2,70
304,112,28100,2,0,L|376:120,2,70
328,228,28732,1,0,0:0:0:0:
328,228,28889,1,0,0:0:0:0:
328,228,29047,2,0,P|284:272|184:260,1,140
100,224,29679,1,0,0:0:0:0:
200,76,29995,1,0,0:0:0:0:
280,160,30311,1,0,0:0:0:0:
384,88,30626,2,0,P|436:108|456:192,2,140
328,64,31574,2,0,P|260:44|188:100,1,140
100,96,32205,5,0,0:0:0:0:
100,96,32363,1,0,0:0:0:0:
100,96,32521,2,0,L|176:224,1,140
280,196,33153,2,0,L|196:56,1,140
300,80,33784,1,0,0:0:0:0:
300,80,33943,1,0,0:0:0:0:
300,80,34101,2,0,L|388:192,1,140
304,240,34732,2,0,L|212:252,1,70
136,252,35047,1,0,0:0:0:0:
136,252,35205,2,0,P|104:204|100:160,1,70
120,96,35521,2,0,L|200:88,2,70
120,96,35995,1,0,0:0:0:0:
320,132,36311,5,0,0:0:0:0:
320,132,36468,1,0,0:0:0:0:
348,232,36626,2,0,L|216:316,1,140
152,280,37258,2,0,L|68:156,1,140
136,96,37889,2,0,L|288:40,1,140
392,108,38521,2,0,L|416:192,2,70
392,232,38995,2,0,L|320:296,2,70
296,176,39468,2,0,L|204:168,2,70
308,96,40100,2,0,L|152:88,1,140
56,80,40732,1,0,0:0:0:0:
64,140,40889,1,0,0:0:0:0:
72,188,41047,1,0,0:0:0:0:
224,192,41364,5,0,0:0:0:0:
292,196,41521,1,0,0:0:0:0:
360,200,41679,1,0,0:0:0:0:
444,196,41837,1,0,0:0:0:0:
444,196,41995,2,0,L|500:264,1,70
408,128,42311,2,0,L|400:28,2,70
360,200,42942,1,0,0:0:0:0:
360,200,43100,1,0,0:0:0:0:
240,128,43258,2,0,L|188:68,1,70
196,232,43574,2,0,L|100:232,2,70
328,304,44205,1,0,0:0:0:0:
312,68,44521,6,0,L|376:120,1,70
256,132,44837,2,0,L|332:200,1,70
196,196,45153,2,0,L|248:256,1,70
113,214,45448,2,0,P|21:150|132:64,1,280
115,58,46416,2,0,L|268:52,1,140
316,168,47047,5,0,0:0:0:0:
316,168,47205,2,0,L|240:192,1,70
180,216,47521,2,0,L|112:176,1,70
64,232,47837,2,0,L|20:296,1,70
96,312,48153,1,0,0:0:0:0:
100,316,48311,1,0,0:0:0:0:
100,316,48468,1,0,0:0:0:0:
88,176,48626,6,0,L|152:220,1,70
224,100,48942,2,0,L|152:136,1,70
312,104,49258,2,0,L|396:148,1,70
368,212,49574,2,0,P|280:208|248:244,1,140
140,244,50205,1,0,0:0:0:0:
140,244,50363,1,0,0:0:0:0:
140,244,50521,2,0,P|92:196|92:108,1,140
160,96,51153,1,0,0:0:0:0:
160,96,51311,2,0,L|232:92,1,70
288,96,51626,2,0,L|372:96,3,70
440,112,52416,5,0,0:0:0:0:
440,112,52574,1,0,0:0:0:0:
416,184,52732,2,0,P|392:224|376:252,1,70
296,248,53047,2,0,L|204:272,1,70
124,288,53363,1,0,0:0:0:0:
124,288,53521,1,0,0:0:0:0:
68,200,53679,2,0,L|88:124,1,70
180,92,53995,2,0,L|256:84,1,70
344,96,54311,5,0,0:0:0:0:
344,96,54468,1,0,0:0:0:0:
376,160,54626,2,0,L|432:232,1,70
372,272,54942,2,0,L|308:328,1,70
248,272,55258,2,0,P|172:236|120:184,2,140
108,112,57153,6,0,L|172:112,1,52.5000020027161
152,196,57468,2,0,L|188:256,1,52.5000020027161
276,224,57784,2,0,L|276:296,1,52.5000020027161
372,296,58100,1,0,0:0:0:0:
416,88,58416,6,0,L|344:80,1,52.5000020027161
304,112,58732,2,0,L|268:164,1,52.5000020027161
248,220,59047,2,0,L|248:292,1,52.5000020027161
164,276,59363,1,0,0:0:0:0:
84,228,59679,5,0,0:0:0:0:
80,168,59837,1,0,0:0:0:0:
76,108,59995,2,0,P|88:72|168:40,1,105.000004005432
336,60,60626,1,0,0:0:0:0:
380,88,60784,1,0,0:0:0:0:
416,140,60942,2,0,P|424:176|416:256,1,105.000004005432
272,100,61574,5,0,0:0:0:0:
272,100,61732,1,0,0:0:0:0:
168,48,61889,2,0,L|112:72,1,52.5000020027161
148,152,62205,2,0,L|184:208,1,52.5000020027161
252,216,62521,2,0,L|328:212,1,52.5000020027161
404,220,62837,1,0,0:0:0:0:
396,52,63153,6,0,L|360:108,1,52.5000020027161
288,96,63468,2,0,L|252:152,1,52.5000020027161
188,152,63784,2,0,L|204:216,1,52.5000020027161
148,260,64100,1,0,0:0:0:0:
344,292,64416,6,0,P|384:252|392:192,1,105.000004005432
344,112,65047,1,0,0:0:0:0:
240,72,65363,1,0,0:0:0:0:
148,76,65679,2,0,P|100:72|84:88,2,52.5000020027161
152,160,66311,2,0,L|92:172,2,52.5000020027161
228,152,66942,1,0,0:0:0:0:
64,284,67573,6,0,P|112:308|156:280,1,105.000004005432
56,192,68205,2,0,B|80:164|124:140|184:192,1,140
272,204,68837,1,0,0:0:0:0:
272,204,68995,1,0,0:0:0:0:
272,204,69152,2,0,P|312:216|376:144,1,140
32,60,69784,6,0,L|108:76,1,70
176,132,70100,2,0,L|228:192,1,70
296,228,70416,1,0,0:0:0:0:
304,340,70573,1,0,0:0:0:0:
416,336,70732,1,0,0:0:0:0:
404,232,70889,1,0,0:0:0:0:
404,232,71048,1,0,0:0:0:0:
456,128,71206,2,0,L|460:36,1,70
372,72,71522,2,0,L|288:68,1,70
208,88,71996,1,0,0:0:0:0:
104,120,72311,1,0,0:0:0:0:
76,256,72626,6,0,L|152:236,1,70
184,180,72942,2,0,L|268:172,1,70
336,176,73258,2,0,L|352:264,2,70
424,152,73731,2,0,L|496:208,1,70
288,56,74047,1,0,0:0:0:0:
152,72,74205,2,0,L|112:152,1,70
156,200,74521,2,0,L|180:288,1,70
272,280,74837,1,0,0:0:0:0:
336,196,75153,2,0,L|416:200,2,70
320,108,75784,2,0,L|272:64,4,35
128,168,76416,5,0,0:0:0:0:
128,168,76573,1,0,0:0:0:0:
128,168,76731,1,0,0:0:0:0:
144,232,76889,2,0,P|144:288|164:316,1,70
188,56,77363,6,0,B|252:56|304:68|360:68,1,140
384,172,77995,1,0,0:0:0:0:
384,172,78310,1,0,0:0:0:0:
348,248,78626,2,0,P|252:256|196:224,1,140
100,88,79258,1,0,0:0:0:0:
100,88,79573,1,0,0:0:0:0:
232,84,79889,2,0,L|328:80,2,70
232,160,80521,1,0,0:0:0:0:
228,240,80837,2,0,L|324:236,2,70
112,244,81468,1,0,0:0:0:0:
116,152,81784,2,0,L|116:64,2,70
352,80,82416,6,0,L|428:128,1,70
376,180,82732,2,0,L|328:260,1,70
252,244,83047,2,0,L|156:244,2,70
72,80,83679,6,0,L|152:52,1,70
196,88,83995,2,0,L|272:136,1,70
240,204,84310,2,0,L|260:300,1,70
328,280,84626,1,0,0:0:0:0:
348,200,84942,2,0,P|400:208|412:168,1,70
444,136,85258,1,0,0:0:0:0:
404,80,85416,2,0,B|388:44|364:20|356:20,1,70
260,28,85731,1,0,0:0:0:0:
184,36,85889,1,0,0:0:0:0:
224,128,86047,1,0,0:0:0:0:
224,128,86205,2,0,P|252:196|200:228,1,140
112,140,86837,2,0,L|36:204,1,70
68,260,87152,1,0,0:0:0:0:
208,272,87468,5,0,0:0:0:0:
308,80,87784,1,0,0:0:0:0:
328,132,87942,2,0,L|356:212,1,70
208,272,88416,2,0,L|120:312,2,70
360,180,89047,1,0,0:0:0:0:
232,80,89363,2,0,P|160:56|92:36,1,140
96,164,89995,5,0,0:0:0:0:
96,248,90310,1,0,0:0:0:0:
92,332,90626,1,0,0:0:0:0:
200,324,90942,2,0,L|356:324,1,140
352,252,91574,2,0,L|372:168,1,70
364,116,91889,2,0,L|304:48,1,70
256,192,92521,12,0,93626,0:0:0:0:
104,96,94100,5,0,0:0:0:0:
112,160,94416,2,0,L|108:248,1,70
144,288,94731,2,0,L|224:328,1,70
244,232,95047,2,0,P|232:168|232:140,2,70
320,224,95521,2,0,L|340:128,2,70
320,224,95995,1,0,0:0:0:0:
316,304,96310,2,0,L|412:284,1,70
392,152,96626,5,0,0:0:0:0:
396,152,96784,1,0,0:0:0:0:
396,152,96942,2,0,P|372:104|352:80,2,70
276,80,97573,1,0,0:0:0:0:
156,88,97731,2,0,L|76:116,1,70
204,168,98205,5,0,0:0:0:0:
144,192,98363,2,0,L|76:232,2,70
232,280,98837,1,0,0:0:0:0:
320,76,99153,6,0,P|368:112|372:136,1,70
340,176,99468,2,0,L|340:260,1,70
256,292,99784,2,0,L|176:312,1,70
100,260,100100,1,0,0:0:0:0:
100,260,100258,1,0,0:0:0:0:
84,184,100416,2,0,P|64:116|68:96,1,70
112,56,100731,1,0,0:0:0:0:
200,64,100889,2,0,P|240:48|280:56,1,70
88,220,101679,6,0,L|184:200,1,70
224,132,101995,2,0,P|268:96|304:96,1,70
364,96,102310,1,0,0:0:0:0:
376,180,102626,2,0,L|368:264,2,70
376,180,103100,1,0,0:0:0:0:
256,192,103573,12,0,105153,0:0:0:0:
112,108,107679,6,0,L|200:100,1,70
276,112,107995,2,0,L|364:144,1,70
384,208,108310,2,0,L|416:296,1,70
288,284,108626,1,0,0:0:0:0:
200,280,108784,2,0,L|120:284,1,70
76,232,109100,2,0,B|48:156|44:120|64:84,1,140
120,44,109573,1,0,0:0:0:0:
240,76,110205,6,0,P|292:44|320:52,2,70
244,160,110837,2,0,P|272:204|308:200,2,70
244,152,111310,1,0,0:0:0:0:
176,156,111468,2,0,B|112:180|92:228|76:264,1,140
80,252,112100,1,0,0:0:0:0:
336,88,112731,6,0,L|408:112,1,70
328,176,113047,2,0,L|396:224,1,70
292,248,113363,2,0,L|340:328,1,70
200,252,113679,1,0,0:0:0:0:
200,252,113837,1,0,0:0:0:0:
124,224,113995,2,0,L|76:284,1,70
96,148,114310,2,0,L|20:160,2,70
88,60,114942,1,0,0:0:0:0:
196,72,115258,6,0,L|280:84,1,70
256,192,116205,12,0,120311,0:0:0:0:
