osu file format v14

[General]
AudioFilename: audio.mp3
AudioLeadIn: 0
PreviewTime: 56278
Countdown: 0
SampleSet: Normal
StackLeniency: 0.7
Mode: 1
LetterboxInBreaks: 0
WidescreenStoryboard: 0

[Editor]
Bookmarks: 390,11758,21858,31963,41910,52173,57226,67331,77436,87541,97647,107765,117712,127975,133027,143132,153223,163341,173265,183380,193656,203761,218918,229009,239141,246706,255211,259351
DistanceSpacing: 1.1
BeatDivisor: 2
GridSize: 32
TimelineZoom: 0.3999999

[Metadata]
Title:Catch the Moment
TitleUnicode:Catch the Moment
Artist:LiSA
ArtistUnicode:LiSA
Creator:gaston_2199
Version:Kantan
Source:劇場版 ソードアート・オンライン -オーディナル・スケール-
Tags:sword art online sao movie ordinal scale asuna Dagger-Gazel 404 accnotfound
BeatmapID:1440004
BeatmapSetID:679285

[Difficulty]
HPDrainRate:7
CircleSize:2
OverallDifficulty:2
ApproachRate:10
SliderMultiplier:1.4
SliderTickRate:1

[Events]
//Background and Video events
0,0,"BG.jpg",0,0
//Break Periods
2,209027,217205
//Storyboard Layer 0 (Background)
//Storyboard Layer 1 (Fail)
//Storyboard Layer 2 (Pass)
//Storyboard Layer 3 (Foreground)
//Storyboard Sound Samples

[TimingPoints]
390,315.789473684211,4,1,0,80,1,0
19337,314.13612565445,4,1,0,80,1,0
20593,314.13612565445,5,1,0,80,1,0
21858,315.789473684211,4,1,0,80,1,0
44594,322.58064516129,4,1,0,80,1,0
45884,319.148936170213,4,1,0,80,1,0
47160,306.122448979592,4,1,0,80,1,0
48384,315.789473684211,4,1,0,80,1,0
57226,-100,4,1,0,90,0,1
76489,-100,4,1,0,80,0,0
77436,-100,4,1,0,90,0,1
97647,319.148936170213,4,1,0,80,1,0
98923,315.789473684211,4,1,0,80,1,0
127975,319.148936170213,4,1,0,80,1,0
129251,312.5,4,1,0,80,1,0
131751,319.148936170213,4,1,0,80,1,0
133027,315.789473684211,4,1,0,80,1,0
133027,-100,4,1,0,90,0,1
148184,312.5,4,1,0,90,1,1
149434,315.789473684211,4,1,0,90,1,1
152276,-100,4,1,0,80,0,0
153223,-100,4,1,0,90,0,1
160802,319.148936170213,4,1,0,90,1,1
162078,315.789473684211,4,1,0,90,1,1
172183,309.278350515464,4,1,0,90,1,1
173265,-100,4,1,0,80,0,0
173420,319.148936170213,4,1,0,80,1,0
174696,315.789473684211,4,1,0,80,1,0
183538,319.148936170213,4,1,0,80,1,0
186091,315.789473684211,4,1,0,80,1,0
187354,312.5,4,1,0,80,1,0
188604,315.789473684211,4,1,0,80,1,0
193656,-100,4,1,0,90,0,1
203761,-100,4,1,0,80,0,0
207551,319.148936170213,4,1,0,80,1,0
208827,315.789473684211,4,1,0,80,1,0
216405,312.5,4,1,0,80,1,0
217498,-101.010101010101,4,1,0,80,0,0
217655,315.789473684211,4,1,0,80,1,0
218918,312.5,4,1,0,80,1,0
220168,315.789473684211,4,1,0,80,1,0
221431,319.148936170213,4,1,0,80,1,0
222707,315.789473684211,4,1,0,80,1,0
223970,319.148936170213,4,1,0,80,1,0
225246,315.789473684211,4,1,0,80,1,0
226509,312.5,4,1,0,80,1,0
229009,315.789473684211,4,1,0,80,1,0
229009,-100,4,1,0,90,0,1
237851,322.58064516129,4,1,0,90,1,1
237851,-98.0392156862745,4,1,0,90,0,1
239141,315.789473684211,4,1,0,90,1,1
245456,312.5,4,1,0,90,1,1
246706,315.789473684211,4,1,0,90,1,1
254284,309.278350515464,4,1,0,90,1,1
255211,-100,4,1,0,80,0,0
255521,322.58064516129,4,1,0,80,1,0
259351,312.5,4,1,0,80,1,0
259351,-100,4,1,0,90,0,1
260601,315.789473684211,4,1,0,90,1,1
268022,312.5,4,1,0,90,1,1
269272,-100,4,1,0,80,0,0

[HitObjects]
256,192,390,5,8,0:0:0:0:
256,192,1653,1,8,0:0:0:0:
256,192,2916,1,0,0:0:0:0:
256,192,4179,1,0,0:0:0:0:
256,192,5442,1,8,0:0:0:0:
256,192,6705,1,8,0:0:0:0:
256,192,7968,1,0,0:0:0:0:
256,192,9232,1,8,0:0:0:0:
256,192,10495,12,0,11442,0:0:0:0:
256,192,11758,5,4,0:0:0:0:
256,192,12863,1,12,0:0:0:0:
256,192,14284,1,0,0:0:0:0:
256,192,14916,1,8,0:0:0:0:
256,192,15547,1,0,0:0:0:0:
256,192,16811,1,0,0:0:0:0:
256,192,17442,1,0,0:0:0:0:
256,192,17758,1,8,0:0:0:0:
256,192,18074,1,0,0:0:0:0:
256,192,18705,1,0,0:0:0:0:
256,192,19337,1,8,0:0:0:0:
256,192,20436,1,4,0:0:0:0:
256,192,21849,5,0,0:0:0:0:
256,192,23121,1,8,0:0:0:0:
256,192,23752,1,0,0:0:0:0:
256,192,24384,1,8,0:0:0:0:
256,192,25647,1,8,0:0:0:0:
256,192,26279,1,8,0:0:0:0:
256,192,26910,1,0,0:0:0:0:
256,192,28173,1,8,0:0:0:0:
256,192,28805,1,0,0:0:0:0:
256,192,29436,1,8,0:0:0:0:
256,192,30068,1,8,0:0:0:0:
256,192,30384,1,4,0:0:0:0:
256,192,31963,5,4,0:0:0:0:
256,192,32594,1,8,0:0:0:0:
256,192,33226,1,0,0:0:0:0:
256,192,33858,1,0,0:0:0:0:
256,192,34173,1,8,0:0:0:0:
256,192,34489,1,0,0:0:0:0:
256,192,35121,1,8,0:0:0:0:
256,192,35752,1,0,0:0:0:0:
256,192,37015,1,0,0:0:0:0:
256,192,37647,1,8,0:0:0:0:
256,192,38279,1,0,0:0:0:0:
256,192,38910,1,8,0:0:0:0:
256,192,39226,1,0,0:0:0:0:
256,192,39542,1,8,0:0:0:0:
256,192,40647,1,12,0:0:0:0:
256,192,41910,1,4,0:0:0:0:
256,192,43173,1,12,0:0:0:0:
256,192,44594,1,0,0:0:0:0:
256,192,45239,1,8,0:0:0:0:
256,192,45884,1,0,0:0:0:0:
256,192,46522,1,0,0:0:0:0:
256,192,47160,1,8,0:0:0:0:
256,192,48078,1,0,0:0:0:0:
256,192,48384,1,8,0:0:0:0:
256,192,49015,1,0,0:0:0:0:
256,192,49647,1,8,0:0:0:0:
256,192,50278,1,0,0:0:0:0:
256,192,50594,1,8,0:0:0:0:
256,192,51541,1,8,0:0:0:0:
256,192,52173,1,0,0:0:0:0:
256,192,52805,1,8,0:0:0:0:
256,192,53436,1,8,0:0:0:0:
256,192,54068,1,0,0:0:0:0:
256,192,54699,1,8,0:0:0:0:
256,192,55331,1,0,0:0:0:0:
256,192,55647,1,8,0:0:0:0:
256,192,55962,1,0,0:0:0:0:
256,192,57226,1,4,0:0:0:0:
256,192,58173,1,8,0:0:0:0:
256,192,58489,1,0,0:0:0:0:
256,192,58805,1,8,0:0:0:0:
256,192,59436,1,8,0:0:0:0:
256,192,59752,1,0,0:0:0:0:
256,192,60699,1,8,0:0:0:0:
256,192,61331,1,0,0:0:0:0:
256,192,61647,1,8,0:0:0:0:
256,192,62278,1,0,0:0:0:0:
256,192,63226,1,8,0:0:0:0:
256,192,63541,1,0,0:0:0:0:
256,192,63857,1,8,0:0:0:0:
256,192,64489,1,0,0:0:0:0:
256,192,64805,1,8,0:0:0:0:
256,192,66068,1,8,0:0:0:0:
256,192,66699,1,8,0:0:0:0:
256,192,67015,1,8,0:0:0:0:
256,192,67331,1,4,0:0:0:0:
256,192,68594,1,0,0:0:0:0:
256,192,69226,1,8,0:0:0:0:
256,192,69541,1,8,0:0:0:0:
256,192,69857,1,0,0:0:0:0:
256,192,71120,1,8,0:0:0:0:
256,192,71752,1,8,0:0:0:0:
256,192,72068,1,8,0:0:0:0:
256,192,72384,1,0,0:0:0:0:
256,192,73015,1,8,0:0:0:0:
256,192,73647,1,8,0:0:0:0:
256,192,74278,1,0,0:0:0:0:
256,192,74910,1,8,0:0:0:0:
256,192,75541,1,0,0:0:0:0:
256,192,75857,1,8,0:0:0:0:
256,192,76173,1,0,0:0:0:0:
256,192,76805,1,8,0:0:0:0:
256,192,77436,1,4,0:0:0:0:
256,192,78384,1,0,0:0:0:0:
256,192,78699,1,0,0:0:0:0:
256,192,79015,1,8,0:0:0:0:
256,192,79647,1,8,0:0:0:0:
256,192,79962,1,0,0:0:0:0:
256,192,80910,1,8,0:0:0:0:
256,192,81541,1,0,0:0:0:0:
256,192,81857,1,8,0:0:0:0:
256,192,82489,1,0,0:0:0:0:
256,192,83436,1,8,0:0:0:0:
256,192,83752,1,0,0:0:0:0:
256,192,84068,1,0,0:0:0:0:
256,192,84699,1,0,0:0:0:0:
256,192,85015,1,8,0:0:0:0:
256,192,86278,1,8,0:0:0:0:
256,192,86910,1,8,0:0:0:0:
256,192,87226,1,8,0:0:0:0:
256,192,87541,1,0,0:0:0:0:
256,192,88173,1,0,0:0:0:0:
256,192,88489,1,12,0:0:0:0:
256,192,89120,1,8,0:0:0:0:
256,192,90068,1,0,0:0:0:0:
256,192,90699,1,8,0:0:0:0:
256,192,91015,1,4,0:0:0:0:
256,192,91962,1,8,0:0:0:0:
256,192,92594,1,0,0:0:0:0:
256,192,93226,1,0,0:0:0:0:
256,192,93541,1,8,0:0:0:0:
256,192,93857,1,0,0:0:0:0:
256,192,94489,1,0,0:0:0:0:
256,192,95120,1,8,0:0:0:0:
256,192,95752,1,0,0:0:0:0:
256,192,96068,1,0,0:0:0:0:
256,192,96384,1,8,0:0:0:0:
256,192,97015,1,8,0:0:0:0:
256,192,97647,5,4,0:0:0:0:
256,192,98764,1,12,0:0:0:0:
256,192,100186,1,0,0:0:0:0:
256,192,100817,1,8,0:0:0:0:
256,192,101449,1,0,0:0:0:0:
256,192,102712,1,0,0:0:0:0:
256,192,103344,1,0,0:0:0:0:
256,192,103659,1,8,0:0:0:0:
256,192,103975,1,0,0:0:0:0:
256,192,104607,1,0,0:0:0:0:
256,192,105238,1,8,0:0:0:0:
256,192,106344,1,4,0:0:0:0:
256,192,107765,5,0,0:0:0:0:
256,192,108396,1,8,0:0:0:0:
256,192,109028,1,0,0:0:0:0:
256,192,110291,1,8,0:0:0:0:
256,192,110923,1,0,0:0:0:0:
256,192,111554,1,8,0:0:0:0:
256,192,112817,1,0,0:0:0:0:
256,192,113133,1,8,0:0:0:0:
256,192,113765,1,8,0:0:0:0:
256,192,114396,1,8,0:0:0:0:
256,192,115028,1,8,0:0:0:0:
256,192,115344,1,0,0:0:0:0:
256,192,116291,1,0,0:0:0:0:
256,192,116607,1,8,0:0:0:0:
256,192,117238,1,8,0:0:0:0:
256,192,117870,5,0,0:0:0:0:
256,192,119133,1,8,0:0:0:0:
256,192,120396,1,0,0:0:0:0:
256,192,121028,1,8,0:0:0:0:
256,192,121659,1,0,0:0:0:0:
256,192,122291,1,0,0:0:0:0:
256,192,122923,1,8,0:0:0:0:
256,192,123870,1,0,0:0:0:0:
256,192,124186,1,8,0:0:0:0:
256,192,124817,1,0,0:0:0:0:
256,192,125449,1,8,0:0:0:0:
256,192,126080,1,0,0:0:0:0:
256,192,126396,1,8,0:0:0:0:
256,192,127344,1,8,0:0:0:0:
256,192,127975,1,0,0:0:0:0:
256,192,128613,1,8,0:0:0:0:
256,192,129251,1,8,0:0:0:0:
256,192,129876,1,0,0:0:0:0:
256,192,130501,1,8,0:0:0:0:
256,192,131126,1,0,0:0:0:0:
256,192,131438,1,8,0:0:0:0:
256,192,133027,1,4,0:0:0:0:
256,192,133342,1,8,0:0:0:0:
256,192,133974,1,8,0:0:0:0:
256,192,134290,1,0,0:0:0:0:
256,192,134605,1,8,0:0:0:0:
256,192,135237,1,8,0:0:0:0:
256,192,135553,1,0,0:0:0:0:
256,192,136500,1,8,0:0:0:0:
256,192,137132,1,0,0:0:0:0:
256,192,137448,1,8,0:0:0:0:
256,192,137763,1,8,0:0:0:0:
256,192,138079,1,0,0:0:0:0:
256,192,139027,1,8,0:0:0:0:
256,192,139342,1,0,0:0:0:0:
256,192,139658,1,8,0:0:0:0:
256,192,140290,1,0,0:0:0:0:
256,192,140605,1,8,0:0:0:0:
256,192,141553,1,8,0:0:0:0:
256,192,141869,1,0,0:0:0:0:
256,192,142500,1,8,0:0:0:0:
256,192,142816,1,8,0:0:0:0:
256,192,143132,1,4,0:0:0:0:
256,192,144395,1,0,0:0:0:0:
256,192,145027,1,8,0:0:0:0:
256,192,145342,1,8,0:0:0:0:
256,192,145658,1,0,0:0:0:0:
256,192,146921,1,8,0:0:0:0:
256,192,147553,1,8,0:0:0:0:
256,192,147869,1,8,0:0:0:0:
256,192,148184,1,0,0:0:0:0:
256,192,148809,1,8,0:0:0:0:
256,192,149434,1,8,0:0:0:0:
256,192,150065,1,0,0:0:0:0:
256,192,150697,1,8,0:0:0:0:
256,192,151328,1,0,0:0:0:0:
256,192,151644,1,8,0:0:0:0:
256,192,151960,1,0,0:0:0:0:
256,192,152591,1,8,0:0:0:0:
256,192,153223,1,4,0:0:0:0:
256,192,153539,1,8,0:0:0:0:
256,192,154170,1,0,0:0:0:0:
256,192,154486,1,0,0:0:0:0:
256,192,154802,1,8,0:0:0:0:
256,192,155434,1,8,0:0:0:0:
256,192,155749,1,0,0:0:0:0:
256,192,156697,1,8,0:0:0:0:
256,192,157328,1,0,0:0:0:0:
256,192,157644,1,8,0:0:0:0:
256,192,157960,1,0,0:0:0:0:
256,192,158276,1,8,0:0:0:0:
256,192,159223,1,8,0:0:0:0:
256,192,159539,1,0,0:0:0:0:
256,192,159855,1,0,0:0:0:0:
256,192,160486,1,0,0:0:0:0:
256,192,160802,1,8,0:0:0:0:
256,192,161759,1,8,0:0:0:0:
256,192,162078,1,0,0:0:0:0:
256,192,162709,1,8,0:0:0:0:
256,192,163025,1,8,0:0:0:0:
256,192,163341,1,0,0:0:0:0:
256,192,163972,1,0,0:0:0:0:
256,192,164288,1,12,0:0:0:0:
256,192,164920,1,8,0:0:0:0:
256,192,165867,1,0,0:0:0:0:
256,192,166499,1,8,0:0:0:0:
256,192,166814,1,4,0:0:0:0:
256,192,167762,1,8,0:0:0:0:
256,192,168393,1,0,0:0:0:0:
256,192,169025,1,0,0:0:0:0:
256,192,169341,1,8,0:0:0:0:
256,192,169656,1,0,0:0:0:0:
256,192,170288,1,0,0:0:0:0:
256,192,170920,1,8,0:0:0:0:
256,192,171551,1,0,0:0:0:0:
256,192,171867,1,0,0:0:0:0:
256,192,172183,1,8,0:0:0:0:
256,192,173265,5,4,0:0:0:0:
256,192,174537,1,8,0:0:0:0:
256,192,175801,1,4,0:0:0:0:
256,192,177064,1,8,0:0:0:0:
256,192,177696,1,8,0:0:0:0:
256,192,178327,1,4,0:0:0:0:
256,192,179590,1,8,0:0:0:0:
256,192,180853,1,4,0:0:0:0:
256,192,182117,1,8,0:0:0:0:
256,192,182748,1,8,0:0:0:0:
256,192,183380,1,4,0:0:0:0:
256,192,184495,1,8,0:0:0:0:
256,192,185133,1,8,0:0:0:0:
256,192,185772,1,8,0:0:0:0:
256,192,186091,1,0,0:0:0:0:
256,192,187038,1,8,0:0:0:0:
256,192,187666,1,8,0:0:0:0:
256,192,188291,1,8,0:0:0:0:
256,192,188604,1,0,0:0:0:0:
256,192,189551,1,8,0:0:0:0:
256,192,190182,1,8,0:0:0:0:
256,192,190814,1,8,0:0:0:0:
256,192,191130,1,0,0:0:0:0:
256,192,192077,1,8,0:0:0:0:
256,192,192393,2,0,L|352:192,7,70
256,192,193656,1,4,0:0:0:0:
256,192,194604,1,0,0:0:0:0:
256,192,195551,1,8,0:0:0:0:
256,192,196182,1,0,0:0:0:0:
256,192,197130,1,0,0:0:0:0:
256,192,198077,1,0,0:0:0:0:
256,192,198709,1,8,0:0:0:0:
256,192,199656,1,8,0:0:0:0:
256,192,200604,1,8,0:0:0:0:
256,192,201235,1,0,0:0:0:0:
256,192,202498,1,8,0:0:0:0:
256,192,203761,1,0,0:0:0:0:
256,192,204393,1,8,0:0:0:0:
256,192,205025,1,8,0:0:0:0:
256,192,205340,1,8,0:0:0:0:
256,192,205656,1,0,0:0:0:0:
256,192,206288,1,8,0:0:0:0:
256,192,206919,1,0,0:0:0:0:
256,192,207235,1,8,0:0:0:0:
256,192,207551,1,0,0:0:0:0:
256,192,207710,12,0,208827,0:0:0:0:
256,192,217655,5,8,0:0:0:0:
256,192,218286,1,8,0:0:0:0:
256,192,218918,1,4,0:0:0:0:
256,192,220168,1,0,0:0:0:0:
256,192,220799,1,8,0:0:0:0:
256,192,221431,1,0,0:0:0:0:
256,192,222707,1,8,0:0:0:0:
256,192,223338,1,0,0:0:0:0:
256,192,223970,1,8,0:0:0:0:
256,192,224608,1,8,0:0:0:0:
256,192,224927,1,0,0:0:0:0:
256,192,225246,1,8,0:0:0:0:
256,192,225877,1,0,0:0:0:0:
256,192,226509,1,8,0:0:0:0:
256,192,227134,1,0,0:0:0:0:
256,192,227446,1,8,0:0:0:0:
256,192,227759,1,0,0:0:0:0:
256,192,229009,1,4,0:0:0:0:
256,192,229324,1,8,0:0:0:0:
256,192,229956,1,8,0:0:0:0:
256,192,230272,1,0,0:0:0:0:
256,192,230587,1,8,0:0:0:0:
256,192,231219,1,8,0:0:0:0:
256,192,231535,1,0,0:0:0:0:
256,192,231851,1,0,0:0:0:0:
256,192,232482,1,8,0:0:0:0:
256,192,233114,1,0,0:0:0:0:
256,192,233430,1,8,0:0:0:0:
256,192,233745,1,8,0:0:0:0:
256,192,234061,1,0,0:0:0:0:
256,192,234377,1,8,0:0:0:0:
256,192,235009,1,8,0:0:0:0:
256,192,235324,1,0,0:0:0:0:
256,192,235640,1,8,0:0:0:0:
256,192,236272,1,0,0:0:0:0:
256,192,236587,1,8,0:0:0:0:
256,192,236903,1,0,0:0:0:0:
256,192,237535,1,8,0:0:0:0:
256,192,237851,1,0,0:0:0:0:
256,192,238496,1,8,0:0:0:0:
256,192,238818,1,8,0:0:0:0:
256,192,239141,1,0,0:0:0:0:
256,192,239772,1,0,0:0:0:0:
256,192,240088,1,12,0:0:0:0:
256,192,240719,1,8,0:0:0:0:
256,192,241667,1,0,0:0:0:0:
256,192,242298,1,8,0:0:0:0:
256,192,242614,1,4,0:0:0:0:
256,192,243562,1,8,0:0:0:0:
256,192,244193,1,0,0:0:0:0:
256,192,244825,1,0,0:0:0:0:
256,192,245141,1,8,0:0:0:0:
256,192,245456,1,0,0:0:0:0:
256,192,246081,1,0,0:0:0:0:
256,192,246706,1,8,0:0:0:0:
256,192,247337,5,0,0:0:0:0:
256,192,247653,1,0,0:0:0:0:
256,192,247653,1,0,0:0:0:0:
256,192,247969,1,8,0:0:0:0:
256,192,247969,1,8,0:0:0:0:
256,192,248600,1,8,0:0:0:0:
256,192,249232,5,0,0:0:0:0:
256,192,250495,1,0,0:0:0:0:
256,192,251127,1,8,0:0:0:0:
256,192,251758,1,0,0:0:0:0:
256,192,252390,1,0,0:0:0:0:
256,192,252706,1,8,0:0:0:0:
256,192,253021,1,0,0:0:0:0:
256,192,253653,1,8,0:0:0:0:
256,192,254284,1,0,0:0:0:0:
256,192,254902,1,8,0:0:0:0:
256,192,255211,1,12,0:0:0:0:
256,192,255366,12,0,256758,0:0:0:0:
256,192,259391,5,4,0:0:0:0:
256,192,260444,1,12,0:0:0:0:
256,192,261864,1,0,0:0:0:0:
256,192,262495,1,8,0:0:0:0:
256,192,263127,1,0,0:0:0:0:
256,192,264390,1,0,0:0:0:0:
256,192,265022,1,8,0:0:0:0:
256,192,265337,1,8,0:0:0:0:
256,192,265653,1,0,0:0:0:0:
256,192,266285,1,0,0:0:0:0:
256,192,266916,1,8,0:0:0:0:
256,192,268022,1,4,0:0:0:0:
256,192,269272,1,12,0:0:0:0:
256,192,269428,12,0,276772,0:0:0:0:
