osu file format v14

[General]
AudioFilename: audio.mp3
AudioLeadIn: 0
PreviewTime: 56278
Countdown: 0
SampleSet: Normal
StackLeniency: 0.7
Mode: 1
LetterboxInBreaks: 0
WidescreenStoryboard: 0

[Editor]
Bookmarks: 390,11758,21858,31963,41910,52173,57226,67331,77436,87541,97647,107765,117712,127975,133027,143132,153223,163341,173265,183380,193656,203761,218918,229009,239141,246706,255211,259351
DistanceSpacing: 1.1
BeatDivisor: 4
GridSize: 32
TimelineZoom: 2.3

[Metadata]
Title:Catch the Moment
TitleUnicode:Catch the Moment
Artist:LiSA
ArtistUnicode:LiSA
Creator:gaston_2199
Version:Inner Oni
Source:劇場版 ソードアート・オンライン -オーディナル・スケール-
Tags:sword art online sao movie ordinal scale asuna Dagger-Gazel 404 accnotfound
BeatmapID:1444181
BeatmapSetID:679285

[Difficulty]
HPDrainRate:6
CircleSize:5
OverallDifficulty:6
ApproachRate:10
SliderMultiplier:1.4
SliderTickRate:1

[Events]
//Background and Video events
0,0,"BG.jpg",0,0
//Break Periods
2,209027,217048
//Storyboard Layer 0 (Background)
//Storyboard Layer 1 (Fail)
//Storyboard Layer 2 (Pass)
//Storyboard Layer 3 (Foreground)
//Storyboard Sound Samples

[TimingPoints]
390,315.789473684211,4,1,0,80,1,0
390,-100,4,1,0,60,0,0
19337,314.13612565445,4,1,0,80,1,0
20593,314.13612565445,5,1,0,80,1,0
21535,-111.111111111111,5,1,0,80,0,0
21858,315.789473684211,4,1,0,80,1,0
21858,-117.647058823529,4,1,0,70,0,0
29594,-114.942528735632,4,1,0,80,0,0
29752,-112.359550561798,4,1,0,80,0,0
29910,-109.89010989011,4,1,0,80,0,0
30068,-108.695652173913,4,1,0,80,0,0
30147,-107.52688172043,4,1,0,80,0,0
30226,-106.382978723404,4,1,0,80,0,0
30384,-105.263157894737,4,1,0,80,0,0
31489,-103.092783505155,4,1,0,80,0,0
31963,-100,4,1,0,80,0,0
44594,322.58064516129,4,1,0,80,1,0
45884,319.148936170213,4,1,0,80,1,0
47160,306.122448979592,4,1,0,80,1,0
48384,315.789473684211,4,1,0,80,1,0
57226,-100,4,1,0,90,0,1
76489,-100,4,1,0,80,0,0
77436,-100,4,1,0,90,0,1
97647,319.148936170213,4,1,0,80,1,0
98923,315.789473684211,4,1,0,80,1,0
127975,319.148936170213,4,1,0,80,1,0
129251,312.5,4,1,0,80,1,0
131751,319.148936170213,4,1,0,80,1,0
133027,315.789473684211,4,1,0,80,1,0
133027,-100,4,1,0,90,0,1
148184,312.5,4,1,0,90,1,1
149434,315.789473684211,4,1,0,90,1,1
152276,-100,4,1,0,80,0,0
153223,-100,4,1,0,90,0,1
160802,319.148936170213,4,1,0,90,1,1
162078,315.789473684211,4,1,0,90,1,1
172183,309.278350515464,4,1,0,90,1,1
173265,-100,4,1,0,80,0,0
173420,319.148936170213,4,1,0,80,1,0
174696,315.789473684211,4,1,0,80,1,0
183538,319.148936170213,4,1,0,80,1,0
186091,315.789473684211,4,1,0,80,1,0
187354,312.5,4,1,0,80,1,0
188604,315.789473684211,4,1,0,80,1,0
193656,-100,4,1,0,90,0,1
203761,-100,4,1,0,80,0,0
207551,319.148936170213,4,1,0,80,1,0
208827,315.789473684211,4,1,0,80,1,0
216405,312.5,4,1,0,80,1,0
217498,-101.010101010101,4,1,0,80,0,0
217655,315.789473684211,4,1,0,80,1,0
218918,312.5,4,1,0,80,1,0
220168,315.789473684211,4,1,0,80,1,0
221431,319.148936170213,4,1,0,80,1,0
222707,315.789473684211,4,1,0,80,1,0
223970,319.148936170213,4,1,0,80,1,0
225246,315.789473684211,4,1,0,80,1,0
226509,312.5,4,1,0,80,1,0
229009,315.789473684211,4,1,0,80,1,0
229009,-100,4,1,0,90,0,1
237851,322.58064516129,4,1,0,90,1,1
237851,-98.0392156862745,4,1,0,90,0,1
239141,315.789473684211,4,1,0,90,1,1
245456,312.5,4,1,0,90,1,1
246706,315.789473684211,4,1,0,90,1,1
254284,309.278350515464,4,1,0,90,1,1
255211,-100,4,1,0,80,0,0
255521,322.58064516129,4,1,0,80,1,0
259351,312.5,4,1,0,80,1,0
259351,-100,4,1,0,90,0,1
260601,315.789473684211,4,1,0,90,1,1
268022,312.5,4,1,0,90,1,1
269272,-100,4,1,0,80,0,0

[HitObjects]
256,192,390,5,8,0:0:0:0:
256,192,547,1,0,0:0:0:0:
256,192,705,5,8,0:0:0:0:
256,192,863,1,8,0:0:0:0:
256,192,1179,1,0,0:0:0:0:
256,192,1337,1,8,0:0:0:0:
256,192,1495,1,0,0:0:0:0:
256,192,1574,1,0,0:0:0:0:
256,192,1653,1,8,0:0:0:0:
256,192,1968,1,0,0:0:0:0:
256,192,2284,1,8,0:0:0:0:
256,192,2600,1,8,0:0:0:0:
256,192,2916,1,0,0:0:0:0:
256,192,3074,1,0,0:0:0:0:
256,192,3232,1,8,0:0:0:0:
256,192,3390,1,0,0:0:0:0:
256,192,3705,1,8,0:0:0:0:
256,192,3863,1,0,0:0:0:0:
256,192,4021,1,8,0:0:0:0:
256,192,4100,1,8,0:0:0:0:
256,192,4179,1,0,0:0:0:0:
256,192,4495,1,0,0:0:0:0:
256,192,4811,1,0,0:0:0:0:
256,192,5442,5,8,0:0:0:0:
256,192,5600,1,0,0:0:0:0:
256,192,5758,1,8,0:0:0:0:
256,192,5916,1,8,0:0:0:0:
256,192,6232,1,0,0:0:0:0:
256,192,6390,1,8,0:0:0:0:
256,192,6547,1,0,0:0:0:0:
256,192,6626,1,0,0:0:0:0:
256,192,6705,1,8,0:0:0:0:
256,192,7021,1,0,0:0:0:0:
256,192,7337,1,8,0:0:0:0:
256,192,7653,1,8,0:0:0:0:
256,192,7968,1,0,0:0:0:0:
256,192,8126,1,0,0:0:0:0:
256,192,8284,1,8,0:0:0:0:
256,192,8442,1,0,0:0:0:0:
256,192,8758,1,8,0:0:0:0:
256,192,8916,1,0,0:0:0:0:
256,192,9074,1,0,0:0:0:0:
256,192,9153,1,0,0:0:0:0:
256,192,9232,1,8,0:0:0:0:
256,192,10337,5,0,0:0:0:0:
256,192,10416,1,0,0:0:0:0:
256,192,10495,1,8,0:0:0:0:
256,192,10732,1,8,0:0:0:0:
256,192,10968,1,8,0:0:0:0:
256,192,11126,1,8,0:0:0:0:
256,192,11205,1,8,0:0:0:0:
256,192,11284,1,0,0:0:0:0:
256,192,11363,1,0,0:0:0:0:
256,192,11442,1,8,0:0:0:0:
256,192,11758,1,4,0:0:0:0:
256,192,12074,1,8,0:0:0:0:
256,192,12232,1,0,0:0:0:0:
256,192,12311,1,0,0:0:0:0:
256,192,12390,1,0,0:0:0:0:
256,192,12547,1,0,0:0:0:0:
256,192,12705,1,8,0:0:0:0:
256,192,12863,1,4,0:0:0:0:
256,192,13179,1,0,0:0:0:0:
256,192,13337,1,8,0:0:0:0:
256,192,13495,1,0,0:0:0:0:
256,192,13574,1,0,0:0:0:0:
256,192,13653,1,8,0:0:0:0:
256,192,13811,1,0,0:0:0:0:
256,192,13968,1,8,0:0:0:0:
256,192,14284,1,4,0:0:0:0:
256,192,14600,1,0,0:0:0:0:
256,192,14758,1,8,0:0:0:0:
256,192,15074,1,0,0:0:0:0:
256,192,15232,1,8,0:0:0:0:
256,192,15390,1,0,0:0:0:0:
256,192,15468,1,0,0:0:0:0:
256,192,15547,1,8,0:0:0:0:
256,192,15705,1,0,0:0:0:0:
256,192,15863,1,8,0:0:0:0:
256,192,16021,1,0,0:0:0:0:
256,192,16100,1,0,0:0:0:0:
256,192,16179,1,8,0:0:0:0:
256,192,16258,1,8,0:0:0:0:
256,192,16337,1,0,0:0:0:0:
256,192,16495,1,8,0:0:0:0:
256,192,16811,1,0,0:0:0:0:
256,192,16968,1,0,0:0:0:0:
256,192,17047,1,0,0:0:0:0:
256,192,17126,1,8,0:0:0:0:
256,192,17284,1,0,0:0:0:0:
256,192,17442,1,8,0:0:0:0:
256,192,17521,1,8,0:0:0:0:
256,192,17600,1,0,0:0:0:0:
256,192,17758,1,8,0:0:0:0:
256,192,17916,1,0,0:0:0:0:
256,192,18074,1,8,0:0:0:0:
256,192,18153,1,0,0:0:0:0:
256,192,18232,1,8,0:0:0:0:
256,192,18311,1,8,0:0:0:0:
256,192,18390,1,0,0:0:0:0:
256,192,18547,1,8,0:0:0:0:
256,192,18705,1,8,0:0:0:0:
256,192,18784,1,0,0:0:0:0:
256,192,18863,1,0,0:0:0:0:
256,192,18942,1,0,0:0:0:0:
256,192,19021,1,8,0:0:0:0:
256,192,19179,1,0,0:0:0:0:
256,192,19337,1,12,0:0:0:0:
256,192,19494,1,0,0:0:0:0:
256,192,19572,1,0,0:0:0:0:
256,192,19651,1,8,0:0:0:0:
256,192,19729,1,0,0:0:0:0:
256,192,19808,1,8,0:0:0:0:
256,192,19886,1,8,0:0:0:0:
256,192,19965,1,0,0:0:0:0:
256,192,20122,1,8,0:0:0:0:
256,192,20436,1,4,0:0:0:0:
256,192,21535,5,8,0:0:0:0:
256,192,21858,1,4,0:0:0:0:
256,192,22173,1,0,0:0:0:0:
256,192,22331,1,8,0:0:0:0:
256,192,22489,1,0,0:0:0:0:
256,192,22647,1,0,0:0:0:0:
256,192,22805,1,8,0:0:0:0:
256,192,22963,1,0,0:0:0:0:
256,192,23279,1,0,0:0:0:0:
256,192,23436,1,8,0:0:0:0:
256,192,23594,1,8,0:0:0:0:
256,192,23752,1,0,0:0:0:0:
256,192,24068,1,8,0:0:0:0:
256,192,24226,1,8,0:0:0:0:
256,192,24384,1,0,0:0:0:0:
256,192,24700,1,8,0:0:0:0:
256,192,24858,1,0,0:0:0:0:
256,192,25173,1,0,0:0:0:0:
256,192,25331,1,8,0:0:0:0:
256,192,25489,1,8,0:0:0:0:
256,192,25647,1,0,0:0:0:0:
256,192,25963,1,8,0:0:0:0:
256,192,26279,1,8,0:0:0:0:
256,192,26436,1,0,0:0:0:0:
256,192,26594,1,8,0:0:0:0:
256,192,26910,1,0,0:0:0:0:
256,192,27226,1,0,0:0:0:0:
256,192,27384,1,8,0:0:0:0:
256,192,27542,1,0,0:0:0:0:
256,192,27700,1,0,0:0:0:0:
256,192,27858,1,8,0:0:0:0:
256,192,28015,1,0,0:0:0:0:
256,192,28173,1,8,0:0:0:0:
256,192,28489,1,8,0:0:0:0:
256,192,28647,1,0,0:0:0:0:
256,192,28805,1,8,0:0:0:0:
256,192,28963,1,8,0:0:0:0:
256,192,29279,1,8,0:0:0:0:
256,192,29436,1,0,0:0:0:0:
256,192,29594,1,0,0:0:0:0:
256,192,29752,1,8,0:0:0:0:
256,192,29910,1,0,0:0:0:0:
256,192,30068,1,8,0:0:0:0:
256,192,30147,1,8,0:0:0:0:
256,192,30226,1,0,0:0:0:0:
256,192,30384,1,12,0:0:0:0:
256,192,30542,12,0,31331,0:0:0:0:
256,192,31489,5,0,0:0:0:0:
256,192,31647,5,8,0:0:0:0:
256,192,31805,1,8,0:0:0:0:
256,192,31963,1,4,0:0:0:0:
256,192,32279,1,8,0:0:0:0:
256,192,32436,1,0,0:0:0:0:
256,192,32515,1,0,0:0:0:0:
256,192,32594,1,8,0:0:0:0:
256,192,32752,1,0,0:0:0:0:
256,192,32910,1,8,0:0:0:0:
256,192,33068,1,8,0:0:0:0:
256,192,33147,1,8,0:0:0:0:
256,192,33226,1,0,0:0:0:0:
256,192,33384,1,0,0:0:0:0:
256,192,33542,1,8,0:0:0:0:
256,192,33700,1,0,0:0:0:0:
256,192,33858,1,8,0:0:0:0:
256,192,33936,1,0,0:0:0:0:
256,192,34015,1,8,0:0:0:0:
256,192,34094,1,8,0:0:0:0:
256,192,34173,1,0,0:0:0:0:
256,192,34331,1,8,0:0:0:0:
256,192,34489,1,0,0:0:0:0:
256,192,34805,1,8,0:0:0:0:
256,192,34963,1,0,0:0:0:0:
256,192,35042,1,0,0:0:0:0:
256,192,35121,1,8,0:0:0:0:
256,192,35279,1,0,0:0:0:0:
256,192,35436,1,8,0:0:0:0:
256,192,35594,1,8,0:0:0:0:
256,192,35673,1,8,0:0:0:0:
256,192,35752,1,0,0:0:0:0:
256,192,35910,1,0,0:0:0:0:
256,192,36068,1,8,0:0:0:0:
256,192,36226,1,0,0:0:0:0:
256,192,36384,1,8,0:0:0:0:
256,192,36463,1,8,0:0:0:0:
256,192,36542,1,0,0:0:0:0:
256,192,36621,1,0,0:0:0:0:
256,192,36700,1,8,0:0:0:0:
256,192,36858,1,8,0:0:0:0:
256,192,37015,1,0,0:0:0:0:
256,192,37331,1,8,0:0:0:0:
256,192,37489,1,0,0:0:0:0:
256,192,37568,1,0,0:0:0:0:
256,192,37647,1,0,0:0:0:0:
256,192,37805,1,0,0:0:0:0:
256,192,37963,1,8,0:0:0:0:
256,192,38121,1,0,0:0:0:0:
256,192,38200,1,0,0:0:0:0:
256,192,38279,1,8,0:0:0:0:
256,192,38436,1,0,0:0:0:0:
256,192,38594,1,8,0:0:0:0:
256,192,38673,1,0,0:0:0:0:
256,192,38752,1,8,0:0:0:0:
256,192,38831,1,8,0:0:0:0:
256,192,38910,1,0,0:0:0:0:
256,192,39068,1,0,0:0:0:0:
256,128,39226,1,8,0:0:0:0:
256,192,39384,1,8,0:0:0:0:
256,192,39542,1,0,0:0:0:0:
256,192,39858,1,8,0:0:0:0:
264,184,40015,1,0,0:0:0:0:
264,184,40094,1,0,0:0:0:0:
256,192,40173,1,0,0:0:0:0:
256,192,40331,1,8,0:0:0:0:
256,192,40489,1,0,0:0:0:0:
256,192,40647,1,12,0:0:0:0:
256,192,40963,1,0,0:0:0:0:
256,192,41121,1,8,0:0:0:0:
256,192,41279,1,0,0:0:0:0:
256,192,41436,1,8,0:0:0:0:
256,192,41515,1,0,0:0:0:0:
256,192,41594,1,0,0:0:0:0:
256,192,41752,1,8,0:0:0:0:
256,192,41910,1,4,0:0:0:0:
256,192,42384,1,0,0:0:0:0:
256,192,42700,1,8,0:0:0:0:
256,192,43015,1,8,0:0:0:0:
256,192,43173,1,4,0:0:0:0:
256,192,43647,1,0,0:0:0:0:
256,192,43963,1,8,0:0:0:0:
256,192,44279,1,0,0:0:0:0:
256,192,44594,1,12,0:0:0:0:
256,192,45239,1,12,0:0:0:0:
256,192,45884,1,4,0:0:0:0:
256,192,46522,1,4,0:0:0:0:
256,192,46841,1,8,0:0:0:0:
256,192,47160,1,4,0:0:0:0:
256,192,47313,1,0,0:0:0:0:
256,192,47619,1,0,0:0:0:0:
256,192,47772,1,8,0:0:0:0:
256,192,47925,1,0,0:0:0:0:
256,192,48231,1,0,0:0:0:0:
256,192,48384,1,8,0:0:0:0:
256,192,48462,1,0,0:0:0:0:
256,192,48541,1,8,0:0:0:0:
256,192,48699,1,0,0:0:0:0:
256,192,48857,1,0,0:0:0:0:
256,192,49015,1,8,0:0:0:0:
256,192,49094,1,8,0:0:0:0:
256,192,49173,1,0,0:0:0:0:
256,192,49331,1,8,0:0:0:0:
256,192,49647,1,12,0:0:0:0:
256,192,49805,1,0,0:0:0:0:
256,192,50120,1,0,0:0:0:0:
256,192,50278,1,8,0:0:0:0:
256,192,50436,1,0,0:0:0:0:
256,192,50594,1,12,0:0:0:0:
256,192,51068,1,0,0:0:0:0:
256,192,51226,1,8,0:0:0:0:
256,192,51384,1,0,0:0:0:0:
256,192,51541,1,8,0:0:0:0:
256,192,51699,1,0,0:0:0:0:
256,192,51778,1,0,0:0:0:0:
256,192,51857,1,8,0:0:0:0:
256,192,52173,1,4,0:0:0:0:
256,192,52489,1,8,0:0:0:0:
256,192,52647,1,0,0:0:0:0:
256,192,52726,1,0,0:0:0:0:
256,192,52805,1,8,0:0:0:0:
256,192,52962,1,0,0:0:0:0:
256,192,53120,1,8,0:0:0:0:
256,192,53278,1,0,0:0:0:0:
256,192,53436,1,8,0:0:0:0:
256,192,53515,1,8,0:0:0:0:
256,192,53594,1,0,0:0:0:0:
256,192,53673,1,0,0:0:0:0:
256,192,53752,1,8,0:0:0:0:
256,192,53910,1,0,0:0:0:0:
256,192,54068,1,8,0:0:0:0:
256,192,54226,1,0,0:0:0:0:
256,192,54305,1,0,0:0:0:0:
256,192,54384,1,8,0:0:0:0:
256,192,54462,1,8,0:0:0:0:
256,192,54541,1,0,0:0:0:0:
256,192,54699,1,8,0:0:0:0:
256,192,54857,1,0,0:0:0:0:
256,192,55015,1,0,0:0:0:0:
256,192,55173,1,8,0:0:0:0:
256,192,55331,1,0,0:0:0:0:
256,192,55489,1,0,0:0:0:0:
256,192,55647,1,8,0:0:0:0:
256,192,55726,1,0,0:0:0:0:
256,192,55805,1,8,0:0:0:0:
256,192,55962,1,4,0:0:0:0:
256,192,56594,1,0,0:0:0:0:
256,192,56673,1,8,0:0:0:0:
256,192,56752,1,0,0:0:0:0:
256,192,56831,1,0,0:0:0:0:
256,192,56910,1,8,0:0:0:0:
256,192,57226,1,4,0:0:0:0:
256,192,57541,1,8,0:0:0:0:
256,192,57699,1,0,0:0:0:0:
256,192,57857,1,0,0:0:0:0:
256,192,57936,1,0,0:0:0:0:
256,192,58015,1,0,0:0:0:0:
256,192,58173,1,8,0:0:0:0:
256,192,58331,1,0,0:0:0:0:
256,192,58489,1,8,0:0:0:0:
256,192,58568,1,8,0:0:0:0:
256,192,58647,1,0,0:0:0:0:
256,192,58805,1,8,0:0:0:0:
256,192,58962,1,8,0:0:0:0:
256,192,59120,1,0,0:0:0:0:
256,192,59436,1,8,0:0:0:0:
256,192,59594,1,0,0:0:0:0:
256,192,59752,1,8,0:0:0:0:
256,192,59831,1,0,0:0:0:0:
256,192,59910,1,0,0:0:0:0:
256,192,59989,1,0,0:0:0:0:
256,192,60068,1,8,0:0:0:0:
256,192,60226,1,8,0:0:0:0:
256,192,60384,1,0,0:0:0:0:
256,192,60699,1,8,0:0:0:0:
256,192,60857,1,0,0:0:0:0:
256,192,60936,1,0,0:0:0:0:
256,192,61015,1,0,0:0:0:0:
256,192,61173,1,0,0:0:0:0:
256,192,61331,1,8,0:0:0:0:
256,192,61489,1,0,0:0:0:0:
256,192,61568,1,0,0:0:0:0:
256,192,61647,1,8,0:0:0:0:
256,192,61726,1,8,0:0:0:0:
256,192,61805,1,0,0:0:0:0:
256,192,61962,1,8,0:0:0:0:
256,192,62120,1,0,0:0:0:0:
256,192,62278,1,8,0:0:0:0:
256,192,62594,1,8,0:0:0:0:
256,192,62752,1,0,0:0:0:0:
256,192,62831,1,0,0:0:0:0:
256,192,62910,1,0,0:0:0:0:
256,192,63068,1,0,0:0:0:0:
256,192,63226,1,8,0:0:0:0:
256,192,63384,1,0,0:0:0:0:
256,192,63462,1,0,0:0:0:0:
256,192,63541,1,8,0:0:0:0:
256,192,63699,1,0,0:0:0:0:
256,192,63857,1,8,0:0:0:0:
256,192,64015,1,8,0:0:0:0:
256,192,64173,1,0,0:0:0:0:
256,192,64489,1,8,0:0:0:0:
256,192,64647,1,0,0:0:0:0:
256,192,64805,1,8,0:0:0:0:
256,192,64884,1,8,0:0:0:0:
256,192,64962,1,0,0:0:0:0:
256,192,65041,1,0,0:0:0:0:
256,192,65120,1,8,0:0:0:0:
256,192,65278,1,8,0:0:0:0:
256,192,65436,1,0,0:0:0:0:
256,192,65752,1,8,0:0:0:0:
256,192,65910,1,0,0:0:0:0:
256,192,65989,1,0,0:0:0:0:
256,192,66068,1,8,0:0:0:0:
256,192,66226,1,0,0:0:0:0:
256,192,66384,1,0,0:0:0:0:
256,192,66541,1,8,0:0:0:0:
256,192,66699,1,0,0:0:0:0:
256,192,66857,1,0,0:0:0:0:
256,192,67015,1,8,0:0:0:0:
256,192,67173,1,8,0:0:0:0:
256,192,67331,1,4,0:0:0:0:
256,192,67647,1,8,0:0:0:0:
256,192,67805,1,0,0:0:0:0:
256,192,67962,1,0,0:0:0:0:
256,192,68041,1,0,0:0:0:0:
256,192,68120,1,0,0:0:0:0:
256,192,68278,1,8,0:0:0:0:
256,192,68436,1,0,0:0:0:0:
256,192,68594,1,0,0:0:0:0:
256,192,68673,1,0,0:0:0:0:
256,192,68752,1,0,0:0:0:0:
256,192,68910,1,8,0:0:0:0:
256,192,69068,1,0,0:0:0:0:
256,192,69226,1,0,0:0:0:0:
256,192,69305,1,8,0:0:0:0:
256,192,69384,1,0,0:0:0:0:
256,192,69541,1,8,0:0:0:0:
256,192,69699,1,8,0:0:0:0:
256,192,69857,1,0,0:0:0:0:
256,192,70173,1,8,0:0:0:0:
256,192,70331,1,0,0:0:0:0:
256,192,70489,1,0,0:0:0:0:
256,192,70568,1,0,0:0:0:0:
256,192,70647,1,0,0:0:0:0:
256,192,70805,1,8,0:0:0:0:
256,192,70962,1,0,0:0:0:0:
256,192,71120,1,0,0:0:0:0:
256,192,71199,1,0,0:0:0:0:
256,192,71278,1,0,0:0:0:0:
256,192,71436,1,8,0:0:0:0:
256,192,71594,1,0,0:0:0:0:
256,192,71752,1,8,0:0:0:0:
256,192,71831,1,8,0:0:0:0:
256,192,71910,1,0,0:0:0:0:
256,192,72068,1,8,0:0:0:0:
256,192,72226,1,8,0:0:0:0:
256,192,72384,1,4,0:0:0:0:
256,192,72699,1,8,0:0:0:0:
256,192,72857,1,0,0:0:0:0:
256,192,73015,1,8,0:0:0:0:
256,192,73094,1,8,0:0:0:0:
256,192,73173,1,0,0:0:0:0:
256,192,73331,1,8,0:0:0:0:
256,192,73489,1,0,0:0:0:0:
256,192,73568,1,0,0:0:0:0:
256,192,73647,1,8,0:0:0:0:
256,192,73805,1,0,0:0:0:0:
256,192,73962,1,8,0:0:0:0:
256,192,74120,1,0,0:0:0:0:
256,192,74199,1,0,0:0:0:0:
256,192,74278,1,8,0:0:0:0:
256,192,74357,1,8,0:0:0:0:
256,192,74436,1,0,0:0:0:0:
256,192,74594,1,8,0:0:0:0:
256,192,74752,1,0,0:0:0:0:
256,192,74910,1,12,0:0:0:0:
256,192,75068,1,0,0:0:0:0:
256,192,75147,1,0,0:0:0:0:
256,192,75226,1,0,0:0:0:0:
256,192,75384,1,12,0:0:0:0:
256,192,75541,1,0,0:0:0:0:
256,192,75620,1,0,0:0:0:0:
256,192,75699,1,0,0:0:0:0:
256,192,75857,1,12,0:0:0:0:
256,192,76015,1,0,0:0:0:0:
256,192,76173,1,12,0:0:0:0:
256,192,76489,1,8,0:0:0:0:
256,192,76647,1,0,0:0:0:0:
256,192,76805,1,8,0:0:0:0:
256,192,76884,1,8,0:0:0:0:
256,192,76962,1,0,0:0:0:0:
256,192,77041,1,0,0:0:0:0:
256,192,77120,1,8,0:0:0:0:
256,192,77436,1,4,0:0:0:0:
256,192,77752,1,8,0:0:0:0:
256,192,77910,1,0,0:0:0:0:
256,192,78068,1,0,0:0:0:0:
256,192,78147,1,0,0:0:0:0:
256,192,78226,1,0,0:0:0:0:
256,192,78384,1,8,0:0:0:0:
256,192,78541,1,0,0:0:0:0:
256,192,78699,1,8,0:0:0:0:
256,192,78778,1,8,0:0:0:0:
256,192,78857,1,0,0:0:0:0:
256,192,79015,1,8,0:0:0:0:
256,192,79173,1,0,0:0:0:0:
256,192,79331,1,0,0:0:0:0:
256,192,79647,1,8,0:0:0:0:
256,192,79805,1,0,0:0:0:0:
256,192,79962,1,8,0:0:0:0:
256,192,80041,1,8,0:0:0:0:
256,192,80120,1,0,0:0:0:0:
256,192,80199,1,0,0:0:0:0:
256,192,80278,1,8,0:0:0:0:
256,192,80436,1,8,0:0:0:0:
256,192,80594,1,0,0:0:0:0:
256,192,80910,1,8,0:0:0:0:
256,192,81068,1,0,0:0:0:0:
256,192,81147,1,0,0:0:0:0:
256,192,81226,1,0,0:0:0:0:
256,192,81384,1,0,0:0:0:0:
256,192,81541,1,8,0:0:0:0:
256,192,81699,1,0,0:0:0:0:
256,192,81778,1,0,0:0:0:0:
256,192,81857,1,8,0:0:0:0:
256,192,82015,1,0,0:0:0:0:
256,192,82173,1,8,0:0:0:0:
256,192,82331,1,0,0:0:0:0:
256,192,82489,1,8,0:0:0:0:
256,192,82805,1,8,0:0:0:0:
256,192,82962,1,0,0:0:0:0:
256,192,83041,1,0,0:0:0:0:
256,192,83120,1,0,0:0:0:0:
256,192,83278,1,0,0:0:0:0:
256,192,83436,1,8,0:0:0:0:
256,192,83594,1,0,0:0:0:0:
256,192,83673,1,0,0:0:0:0:
256,192,83752,1,8,0:0:0:0:
256,192,83910,1,0,0:0:0:0:
256,192,84068,1,8,0:0:0:0:
256,192,84226,1,0,0:0:0:0:
256,192,84384,1,0,0:0:0:0:
256,192,84699,1,8,0:0:0:0:
256,192,84857,1,0,0:0:0:0:
256,192,85015,1,8,0:0:0:0:
256,192,85094,1,0,0:0:0:0:
256,192,85173,1,0,0:0:0:0:
256,192,85252,1,0,0:0:0:0:
256,192,85331,1,8,0:0:0:0:
256,192,85489,1,8,0:0:0:0:
256,192,85647,1,0,0:0:0:0:
256,192,85962,1,8,0:0:0:0:
256,192,86120,1,0,0:0:0:0:
256,192,86199,1,0,0:0:0:0:
256,192,86278,1,8,0:0:0:0:
256,192,86436,1,0,0:0:0:0:
256,192,86594,1,0,0:0:0:0:
256,192,86752,1,8,0:0:0:0:
256,192,86910,1,0,0:0:0:0:
256,192,87068,1,0,0:0:0:0:
256,192,87226,1,8,0:0:0:0:
256,192,87384,1,8,0:0:0:0:
256,192,87541,1,4,0:0:0:0:
256,192,87857,1,8,0:0:0:0:
256,192,88015,1,8,0:0:0:0:
256,192,88173,1,0,0:0:0:0:
256,192,88331,1,0,0:0:0:0:
256,192,88489,1,12,0:0:0:0:
256,192,88962,1,0,0:0:0:0:
256,192,89120,1,8,0:0:0:0:
256,192,89278,1,8,0:0:0:0:
256,192,89436,1,0,0:0:0:0:
256,192,89594,1,0,0:0:0:0:
256,192,89673,1,0,0:0:0:0:
256,192,89752,1,8,0:0:0:0:
256,192,89910,1,0,0:0:0:0:
256,192,90068,1,8,0:0:0:0:
256,192,90226,1,8,0:0:0:0:
256,192,90384,1,0,0:0:0:0:
256,192,90541,1,0,0:0:0:0:
256,192,90699,1,8,0:0:0:0:
256,192,90857,1,8,0:0:0:0:
256,192,91015,1,4,0:0:0:0:
256,192,91489,1,0,0:0:0:0:
256,192,91647,1,8,0:0:0:0:
256,192,91805,1,0,0:0:0:0:
256,192,91884,1,0,0:0:0:0:
256,192,91962,1,8,0:0:0:0:
256,192,92120,1,0,0:0:0:0:
256,192,92278,1,8,0:0:0:0:
256,192,92594,1,4,0:0:0:0:
256,192,92910,1,8,0:0:0:0:
256,192,93068,1,0,0:0:0:0:
256,192,93147,1,0,0:0:0:0:
256,192,93226,1,0,0:0:0:0:
256,192,93384,1,0,0:0:0:0:
256,192,93541,1,8,0:0:0:0:
256,192,93699,1,0,0:0:0:0:
256,192,93778,1,0,0:0:0:0:
256,192,93857,1,8,0:0:0:0:
256,192,93936,1,0,0:0:0:0:
256,192,94015,1,8,0:0:0:0:
256,192,94173,1,8,0:0:0:0:
256,192,94331,1,0,0:0:0:0:
256,192,94489,1,8,0:0:0:0:
256,192,94568,1,8,0:0:0:0:
256,192,94647,1,0,0:0:0:0:
256,192,94805,1,8,0:0:0:0:
256,192,94962,1,0,0:0:0:0:
256,192,95120,1,12,0:0:0:0:
256,192,95278,1,0,0:0:0:0:
256,192,95357,1,0,0:0:0:0:
256,192,95436,1,0,0:0:0:0:
256,192,95594,1,12,0:0:0:0:
256,192,95752,1,0,0:0:0:0:
256,192,95831,1,0,0:0:0:0:
256,192,95910,1,0,0:0:0:0:
256,192,96068,1,12,0:0:0:0:
256,192,96226,1,0,0:0:0:0:
256,192,96384,1,12,0:0:0:0:
256,192,96699,1,8,0:0:0:0:
256,192,96857,1,0,0:0:0:0:
256,192,96936,1,0,0:0:0:0:
256,192,97015,1,8,0:0:0:0:
256,192,97173,1,0,0:0:0:0:
256,192,97331,1,8,0:0:0:0:
256,192,97647,1,4,0:0:0:0:
256,192,97966,1,8,0:0:0:0:
256,192,98125,1,0,0:0:0:0:
256,192,98205,1,0,0:0:0:0:
256,192,98285,1,8,0:0:0:0:
256,192,98444,1,0,0:0:0:0:
256,192,98604,1,0,0:0:0:0:
256,192,98764,1,12,0:0:0:0:
256,192,99080,1,0,0:0:0:0:
256,192,99238,1,8,0:0:0:0:
256,192,99396,1,0,0:0:0:0:
256,192,99475,1,0,0:0:0:0:
256,192,99554,1,8,0:0:0:0:
256,192,99712,1,0,0:0:0:0:
256,192,99870,1,8,0:0:0:0:
256,192,100186,1,4,0:0:0:0:
256,192,100501,1,0,0:0:0:0:
256,192,100659,1,8,0:0:0:0:
256,192,100975,1,0,0:0:0:0:
256,192,101133,1,8,0:0:0:0:
256,192,101291,1,0,0:0:0:0:
256,192,101370,1,0,0:0:0:0:
256,192,101449,1,8,0:0:0:0:
256,192,101607,1,0,0:0:0:0:
256,192,101765,1,8,0:0:0:0:
256,192,101923,1,0,0:0:0:0:
256,192,102001,1,0,0:0:0:0:
256,192,102080,1,8,0:0:0:0:
256,192,102159,1,8,0:0:0:0:
256,192,102238,1,0,0:0:0:0:
256,192,102396,1,8,0:0:0:0:
256,192,102712,1,0,0:0:0:0:
256,192,102870,1,0,0:0:0:0:
256,192,102949,1,0,0:0:0:0:
256,192,103028,1,8,0:0:0:0:
256,192,103186,1,0,0:0:0:0:
256,192,103344,1,8,0:0:0:0:
256,192,103423,1,8,0:0:0:0:
256,192,103501,1,0,0:0:0:0:
256,192,103659,1,8,0:0:0:0:
256,192,103817,1,0,0:0:0:0:
256,192,103975,1,8,0:0:0:0:
256,192,104054,1,0,0:0:0:0:
256,192,104133,1,8,0:0:0:0:
256,192,104212,1,8,0:0:0:0:
256,192,104291,1,0,0:0:0:0:
256,192,104449,1,8,0:0:0:0:
256,192,104607,1,8,0:0:0:0:
256,192,104686,1,0,0:0:0:0:
256,192,104765,1,0,0:0:0:0:
256,192,104844,1,0,0:0:0:0:
256,192,104923,1,8,0:0:0:0:
256,192,105080,1,0,0:0:0:0:
256,192,105238,1,12,0:0:0:0:
256,192,105396,1,0,0:0:0:0:
256,192,105475,1,0,0:0:0:0:
256,192,105554,1,8,0:0:0:0:
256,192,105633,1,0,0:0:0:0:
256,192,105712,1,8,0:0:0:0:
256,192,105791,1,8,0:0:0:0:
256,192,105870,1,0,0:0:0:0:
256,192,106028,1,8,0:0:0:0:
256,160,106344,1,4,0:0:0:0:
256,192,107133,1,8,0:0:0:0:
256,192,107291,1,0,0:0:0:0:
256,192,107370,1,0,0:0:0:0:
256,192,107449,1,8,0:0:0:0:
256,192,107528,1,8,0:0:0:0:
256,192,107607,1,8,0:0:0:0:
256,192,107686,1,8,0:0:0:0:
256,192,107765,1,4,0:0:0:0:
256,192,108080,1,8,0:0:0:0:
256,192,108238,1,0,0:0:0:0:
256,192,108317,1,0,0:0:0:0:
256,192,108396,1,8,0:0:0:0:
256,192,108554,1,0,0:0:0:0:
256,192,108712,1,8,0:0:0:0:
256,192,108791,1,0,0:0:0:0:
256,192,108870,1,8,0:0:0:0:
256,192,109028,1,0,0:0:0:0:
256,192,109186,1,0,0:0:0:0:
256,192,109344,1,8,0:0:0:0:
256,192,109659,1,0,0:0:0:0:
256,192,109817,1,0,0:0:0:0:
256,192,109975,1,8,0:0:0:0:
256,192,110291,1,0,0:0:0:0:
256,192,110607,1,8,0:0:0:0:
256,192,110765,1,0,0:0:0:0:
256,192,110844,1,0,0:0:0:0:
256,192,110923,1,0,0:0:0:0:
256,192,111080,1,0,0:0:0:0:
256,192,111238,1,8,0:0:0:0:
256,192,111317,1,0,0:0:0:0:
256,192,111396,1,8,0:0:0:0:
256,192,111554,1,0,0:0:0:0:
256,192,111712,1,0,0:0:0:0:
256,192,111870,1,8,0:0:0:0:
256,192,112186,1,0,0:0:0:0:
256,192,112344,1,0,0:0:0:0:
256,192,112501,1,8,0:0:0:0:
256,192,112817,1,8,0:0:0:0:
256,192,112975,1,0,0:0:0:0:
256,192,113133,1,8,0:0:0:0:
256,192,113449,1,0,0:0:0:0:
256,192,113607,1,0,0:0:0:0:
256,192,113765,1,8,0:0:0:0:
256,192,114080,1,8,0:0:0:0:
256,192,114238,1,0,0:0:0:0:
256,192,114396,1,8,0:0:0:0:
256,192,114712,1,0,0:0:0:0:
256,192,114870,1,0,0:0:0:0:
256,192,115028,1,8,0:0:0:0:
256,192,115344,1,4,0:0:0:0:
256,192,115659,1,8,0:0:0:0:
256,192,115817,1,0,0:0:0:0:
256,192,116133,1,0,0:0:0:0:
256,192,116291,1,8,0:0:0:0:
256,192,116607,1,12,0:0:0:0:
256,192,116923,1,0,0:0:0:0:
256,192,117080,1,0,0:0:0:0:
256,192,117238,1,8,0:0:0:0:
256,192,117554,1,0,0:0:0:0:
256,192,117712,1,8,0:0:0:0:
256,192,117870,1,0,0:0:0:0:
256,192,118186,5,0,0:0:0:0:
256,192,118501,1,8,0:0:0:0:
256,192,118817,1,8,0:0:0:0:
256,192,118975,1,0,0:0:0:0:
256,192,119133,1,0,0:0:0:0:
256,192,119449,1,0,0:0:0:0:
256,192,119765,1,8,0:0:0:0:
256,192,120080,1,0,0:0:0:0:
256,192,120396,1,8,0:0:0:0:
256,192,121028,1,8,0:0:0:0:
256,192,121659,1,0,0:0:0:0:
256,192,122291,1,0,0:0:0:0:
256,192,122607,1,8,0:0:0:0:
256,192,122923,1,0,0:0:0:0:
256,192,123080,1,0,0:0:0:0:
256,192,123396,1,0,0:0:0:0:
256,192,123554,1,8,0:0:0:0:
256,192,123712,1,0,0:0:0:0:
256,192,124028,1,0,0:0:0:0:
256,192,124186,1,8,0:0:0:0:
256,192,124265,1,0,0:0:0:0:
256,192,124344,1,8,0:0:0:0:
256,192,124501,1,0,0:0:0:0:
256,192,124659,1,0,0:0:0:0:
256,192,124817,1,8,0:0:0:0:
256,192,124896,1,8,0:0:0:0:
256,192,124975,1,0,0:0:0:0:
256,192,125133,1,8,0:0:0:0:
256,192,125449,1,12,0:0:0:0:
256,192,125607,1,0,0:0:0:0:
256,192,125923,1,0,0:0:0:0:
256,192,126080,1,8,0:0:0:0:
256,192,126238,1,0,0:0:0:0:
256,192,126396,1,12,0:0:0:0:
256,192,126870,1,0,0:0:0:0:
256,192,127028,1,8,0:0:0:0:
256,192,127186,1,0,0:0:0:0:
256,192,127344,1,8,0:0:0:0:
256,192,127501,1,0,0:0:0:0:
256,192,127580,1,0,0:0:0:0:
256,192,127659,1,8,0:0:0:0:
256,192,127975,1,4,0:0:0:0:
256,192,128294,1,8,0:0:0:0:
256,192,128453,1,0,0:0:0:0:
256,192,128533,1,0,0:0:0:0:
256,192,128613,1,8,0:0:0:0:
256,192,128772,1,0,0:0:0:0:
256,192,128932,1,8,0:0:0:0:
256,192,129092,1,0,0:0:0:0:
256,192,129251,1,8,0:0:0:0:
256,192,129329,1,8,0:0:0:0:
256,192,129407,1,0,0:0:0:0:
256,192,129485,1,0,0:0:0:0:
256,192,129563,1,8,0:0:0:0:
256,192,129719,1,0,0:0:0:0:
256,192,129876,1,8,0:0:0:0:
256,192,130032,1,0,0:0:0:0:
256,192,130110,1,0,0:0:0:0:
256,192,130188,1,8,0:0:0:0:
256,192,130266,1,8,0:0:0:0:
256,192,130344,1,0,0:0:0:0:
256,192,130501,1,8,0:0:0:0:
256,192,130579,1,8,0:0:0:0:
256,192,130657,1,0,0:0:0:0:
256,192,130813,1,8,0:0:0:0:
256,192,130969,1,0,0:0:0:0:
256,192,131047,1,0,0:0:0:0:
256,192,131126,1,8,0:0:0:0:
256,192,131282,1,0,0:0:0:0:
256,192,131438,1,8,0:0:0:0:
256,192,131516,1,0,0:0:0:0:
256,192,131594,1,8,0:0:0:0:
256,192,131751,12,0,132708,0:0:0:0:
256,192,133027,5,4,0:0:0:0:
256,192,133342,1,8,0:0:0:0:
256,192,133500,1,0,0:0:0:0:
256,192,133658,1,0,0:0:0:0:
256,192,133737,1,0,0:0:0:0:
256,192,133816,1,0,0:0:0:0:
256,192,133974,1,8,0:0:0:0:
256,192,134132,1,0,0:0:0:0:
256,192,134290,1,8,0:0:0:0:
256,192,134369,1,0,0:0:0:0:
256,192,134448,1,0,0:0:0:0:
256,192,134527,1,0,0:0:0:0:
256,192,134605,1,8,0:0:0:0:
256,192,134763,1,8,0:0:0:0:
256,192,134921,1,0,0:0:0:0:
256,192,135237,1,8,0:0:0:0:
256,192,135395,1,0,0:0:0:0:
256,192,135553,1,8,0:0:0:0:
256,192,135632,1,8,0:0:0:0:
256,192,135711,1,0,0:0:0:0:
256,192,135790,1,0,0:0:0:0:
256,192,135869,1,8,0:0:0:0:
256,192,136027,1,8,0:0:0:0:
256,192,136184,1,0,0:0:0:0:
256,192,136500,1,8,0:0:0:0:
256,192,136658,1,0,0:0:0:0:
256,192,136737,1,0,0:0:0:0:
256,192,136816,1,0,0:0:0:0:
256,192,136974,1,0,0:0:0:0:
256,192,137132,1,8,0:0:0:0:
256,192,137290,1,0,0:0:0:0:
256,192,137369,1,0,0:0:0:0:
256,192,137448,1,8,0:0:0:0:
256,192,137527,1,0,0:0:0:0:
256,192,137605,1,0,0:0:0:0:
256,192,137763,1,8,0:0:0:0:
256,192,137921,1,0,0:0:0:0:
256,192,138079,1,8,0:0:0:0:
256,192,138395,1,8,0:0:0:0:
256,192,138553,1,0,0:0:0:0:
256,192,138632,1,0,0:0:0:0:
256,192,138711,1,0,0:0:0:0:
256,192,138869,1,0,0:0:0:0:
256,192,139027,1,8,0:0:0:0:
256,192,139184,1,0,0:0:0:0:
256,192,139263,1,0,0:0:0:0:
256,192,139342,1,8,0:0:0:0:
256,192,139421,1,8,0:0:0:0:
256,192,139500,1,0,0:0:0:0:
256,192,139658,1,8,0:0:0:0:
256,192,139816,1,8,0:0:0:0:
256,192,139974,1,0,0:0:0:0:
256,192,140290,1,8,0:0:0:0:
256,192,140448,1,0,0:0:0:0:
256,192,140605,1,8,0:0:0:0:
256,192,140684,1,8,0:0:0:0:
256,192,140763,1,0,0:0:0:0:
256,192,140842,1,0,0:0:0:0:
256,192,140921,1,8,0:0:0:0:
256,192,141079,1,8,0:0:0:0:
256,192,141237,1,0,0:0:0:0:
256,192,141553,1,8,0:0:0:0:
256,192,141711,1,0,0:0:0:0:
256,192,141790,1,0,0:0:0:0:
256,192,141869,1,8,0:0:0:0:
256,192,142027,1,0,0:0:0:0:
256,192,142184,1,0,0:0:0:0:
256,192,142342,1,8,0:0:0:0:
256,192,142500,1,0,0:0:0:0:
256,192,142658,1,0,0:0:0:0:
256,192,142816,1,8,0:0:0:0:
256,192,142974,1,8,0:0:0:0:
256,192,143132,1,4,0:0:0:0:
256,192,143448,1,8,0:0:0:0:
256,192,143605,1,0,0:0:0:0:
256,192,143763,1,0,0:0:0:0:
256,192,143842,1,0,0:0:0:0:
256,192,143921,1,0,0:0:0:0:
256,192,144079,1,8,0:0:0:0:
256,192,144237,1,0,0:0:0:0:
256,192,144395,1,0,0:0:0:0:
256,192,144474,1,0,0:0:0:0:
256,192,144553,1,0,0:0:0:0:
256,192,144711,1,8,0:0:0:0:
256,192,144869,1,0,0:0:0:0:
256,192,145027,1,0,0:0:0:0:
256,192,145105,1,8,0:0:0:0:
256,192,145184,1,0,0:0:0:0:
256,192,145342,1,8,0:0:0:0:
256,192,145500,1,8,0:0:0:0:
256,192,145658,1,0,0:0:0:0:
256,192,145974,1,8,0:0:0:0:
256,192,146132,1,0,0:0:0:0:
256,192,146290,1,0,0:0:0:0:
256,192,146369,1,0,0:0:0:0:
256,192,146448,1,0,0:0:0:0:
256,192,146605,1,8,0:0:0:0:
256,192,146763,1,0,0:0:0:0:
256,192,146921,1,0,0:0:0:0:
256,192,147000,1,0,0:0:0:0:
256,192,147079,1,0,0:0:0:0:
256,192,147237,1,8,0:0:0:0:
256,192,147395,1,0,0:0:0:0:
256,192,147553,1,8,0:0:0:0:
256,192,147632,1,8,0:0:0:0:
256,192,147711,1,0,0:0:0:0:
256,192,147869,1,8,0:0:0:0:
256,192,148027,1,8,0:0:0:0:
256,192,148184,1,4,0:0:0:0:
256,192,148496,1,8,0:0:0:0:
256,192,148652,1,0,0:0:0:0:
256,192,148809,1,8,0:0:0:0:
256,192,148887,1,8,0:0:0:0:
256,192,148965,1,0,0:0:0:0:
256,192,149121,1,8,0:0:0:0:
256,192,149277,1,0,0:0:0:0:
256,192,149355,1,0,0:0:0:0:
256,192,149434,1,8,0:0:0:0:
256,192,149591,1,0,0:0:0:0:
256,192,149749,1,8,0:0:0:0:
256,192,149907,1,0,0:0:0:0:
256,192,149986,1,0,0:0:0:0:
256,192,150065,1,8,0:0:0:0:
256,192,150144,1,8,0:0:0:0:
256,192,150223,1,0,0:0:0:0:
256,192,150381,1,8,0:0:0:0:
256,192,150539,1,0,0:0:0:0:
256,192,150697,1,12,0:0:0:0:
256,192,150855,1,0,0:0:0:0:
256,192,150934,1,0,0:0:0:0:
256,192,151012,1,0,0:0:0:0:
256,192,151170,1,12,0:0:0:0:
256,192,151328,1,0,0:0:0:0:
256,192,151407,1,0,0:0:0:0:
256,192,151486,1,0,0:0:0:0:
256,192,151644,1,12,0:0:0:0:
256,192,151802,1,0,0:0:0:0:
256,192,151960,1,12,0:0:0:0:
256,192,152276,1,8,0:0:0:0:
256,192,152434,1,0,0:0:0:0:
256,192,152591,1,8,0:0:0:0:
256,192,152670,1,8,0:0:0:0:
256,192,152749,1,0,0:0:0:0:
256,192,152828,1,0,0:0:0:0:
256,192,152907,1,8,0:0:0:0:
256,192,153223,1,4,0:0:0:0:
256,192,153539,1,8,0:0:0:0:
256,192,153697,1,0,0:0:0:0:
256,192,153855,1,0,0:0:0:0:
256,192,153934,1,0,0:0:0:0:
256,192,154012,1,0,0:0:0:0:
256,192,154170,1,8,0:0:0:0:
256,192,154328,1,0,0:0:0:0:
256,192,154486,1,8,0:0:0:0:
256,192,154565,1,8,0:0:0:0:
256,192,154644,1,0,0:0:0:0:
256,192,154723,1,0,0:0:0:0:
256,192,154802,1,8,0:0:0:0:
256,192,154960,1,0,0:0:0:0:
256,192,155118,1,0,0:0:0:0:
256,192,155434,1,8,0:0:0:0:
256,192,155591,1,0,0:0:0:0:
256,192,155749,1,8,0:0:0:0:
256,192,155828,1,0,0:0:0:0:
256,192,155907,1,0,0:0:0:0:
256,192,155986,1,0,0:0:0:0:
256,192,156065,1,8,0:0:0:0:
256,192,156223,1,8,0:0:0:0:
256,192,156381,1,0,0:0:0:0:
256,192,156697,1,8,0:0:0:0:
256,192,156855,1,0,0:0:0:0:
256,192,156934,1,0,0:0:0:0:
256,192,157012,1,0,0:0:0:0:
256,192,157170,1,0,0:0:0:0:
256,192,157328,1,8,0:0:0:0:
256,192,157486,1,0,0:0:0:0:
256,192,157565,1,0,0:0:0:0:
256,192,157644,1,8,0:0:0:0:
256,192,157723,1,0,0:0:0:0:
256,192,157802,1,0,0:0:0:0:
256,192,157960,1,8,0:0:0:0:
256,192,158118,1,0,0:0:0:0:
256,192,158276,1,8,0:0:0:0:
256,192,158591,1,8,0:0:0:0:
256,192,158749,1,0,0:0:0:0:
256,192,158828,1,0,0:0:0:0:
256,192,158907,1,0,0:0:0:0:
256,192,159065,1,0,0:0:0:0:
256,192,159223,1,8,0:0:0:0:
256,192,159381,1,0,0:0:0:0:
256,192,159460,1,0,0:0:0:0:
256,192,159539,1,8,0:0:0:0:
256,192,159618,1,8,0:0:0:0:
256,192,159697,1,0,0:0:0:0:
256,192,159855,1,8,0:0:0:0:
256,192,160012,1,0,0:0:0:0:
256,192,160170,1,0,0:0:0:0:
256,192,160486,1,8,0:0:0:0:
256,192,160644,1,0,0:0:0:0:
256,192,160802,1,8,0:0:0:0:
256,192,160881,1,8,0:0:0:0:
256,192,160961,1,0,0:0:0:0:
256,192,161041,1,0,0:0:0:0:
256,192,161121,1,8,0:0:0:0:
256,192,161280,1,8,0:0:0:0:
256,192,161440,1,0,0:0:0:0:
256,192,161759,1,8,0:0:0:0:
256,192,161919,1,0,0:0:0:0:
256,192,161998,1,0,0:0:0:0:
256,192,162078,1,8,0:0:0:0:
256,192,162235,1,0,0:0:0:0:
256,192,162393,1,0,0:0:0:0:
256,192,162551,1,8,0:0:0:0:
256,192,162709,1,0,0:0:0:0:
256,192,162867,1,0,0:0:0:0:
256,192,163025,1,8,0:0:0:0:
256,192,163183,1,8,0:0:0:0:
256,192,163341,1,4,0:0:0:0:
256,192,163656,1,0,0:0:0:0:
256,192,163814,1,8,0:0:0:0:
256,192,163972,1,0,0:0:0:0:
256,192,164130,1,0,0:0:0:0:
256,192,164288,1,12,0:0:0:0:
256,192,164762,1,0,0:0:0:0:
256,192,164920,1,8,0:0:0:0:
256,192,165078,1,8,0:0:0:0:
256,192,165235,1,0,0:0:0:0:
256,192,165393,1,0,0:0:0:0:
256,192,165472,1,0,0:0:0:0:
256,192,165551,1,8,0:0:0:0:
256,192,165709,1,0,0:0:0:0:
256,192,165867,1,8,0:0:0:0:
256,192,166025,1,8,0:0:0:0:
256,192,166183,1,0,0:0:0:0:
256,192,166341,1,0,0:0:0:0:
256,192,166499,1,8,0:0:0:0:
256,192,166656,1,8,0:0:0:0:
256,192,166814,1,4,0:0:0:0:
256,192,167288,1,0,0:0:0:0:
256,192,167446,1,8,0:0:0:0:
256,192,167604,1,0,0:0:0:0:
256,192,167683,1,0,0:0:0:0:
256,192,167762,1,8,0:0:0:0:
256,192,167920,1,0,0:0:0:0:
256,192,168078,1,8,0:0:0:0:
256,192,168393,1,4,0:0:0:0:
256,192,168709,1,8,0:0:0:0:
256,192,168867,1,0,0:0:0:0:
256,192,168946,1,0,0:0:0:0:
256,192,169025,1,0,0:0:0:0:
256,192,169183,1,0,0:0:0:0:
256,192,169341,1,8,0:0:0:0:
256,192,169499,1,0,0:0:0:0:
256,192,169578,1,0,0:0:0:0:
256,192,169656,1,8,0:0:0:0:
256,192,169735,1,0,0:0:0:0:
256,192,169814,1,8,0:0:0:0:
256,192,169972,1,8,0:0:0:0:
256,192,170130,1,0,0:0:0:0:
256,192,170288,1,8,0:0:0:0:
256,192,170367,1,8,0:0:0:0:
256,192,170446,1,0,0:0:0:0:
256,192,170604,1,8,0:0:0:0:
256,192,170762,1,0,0:0:0:0:
256,192,170920,1,12,0:0:0:0:
256,192,171078,1,0,0:0:0:0:
256,192,171156,1,0,0:0:0:0:
256,192,171235,1,0,0:0:0:0:
256,192,171393,1,12,0:0:0:0:
256,192,171551,1,0,0:0:0:0:
256,192,171630,1,0,0:0:0:0:
256,192,171709,1,0,0:0:0:0:
256,192,171867,1,12,0:0:0:0:
256,192,172025,1,0,0:0:0:0:
256,192,172183,5,12,0:0:0:0:
256,192,172492,1,8,0:0:0:0:
256,192,172801,1,0,0:0:0:0:
256,192,172956,1,0,0:0:0:0:
256,192,173265,1,12,0:0:0:0:
256,192,173579,1,8,0:0:0:0:
256,192,173739,1,8,0:0:0:0:
256,192,173898,1,0,0:0:0:0:
256,192,173978,1,0,0:0:0:0:
256,192,174058,1,8,0:0:0:0:
256,192,174217,1,0,0:0:0:0:
256,192,174377,1,8,0:0:0:0:
256,192,174537,1,0,0:0:0:0:
256,192,174853,1,0,0:0:0:0:
256,192,175011,1,8,0:0:0:0:
256,192,175169,1,0,0:0:0:0:
256,192,175327,1,8,0:0:0:0:
256,192,175406,1,8,0:0:0:0:
256,192,175485,1,0,0:0:0:0:
256,192,175643,1,8,0:0:0:0:
256,192,175801,1,4,0:0:0:0:
256,192,176117,1,0,0:0:0:0:
256,192,176274,1,8,0:0:0:0:
256,192,176432,1,0,0:0:0:0:
256,192,176511,1,0,0:0:0:0:
256,192,176590,1,8,0:0:0:0:
256,192,176748,1,0,0:0:0:0:
256,192,176906,1,8,0:0:0:0:
256,192,176985,1,0,0:0:0:0:
256,192,177064,1,8,0:0:0:0:
256,192,177143,1,8,0:0:0:0:
256,192,177222,1,0,0:0:0:0:
256,192,177380,1,8,0:0:0:0:
256,192,177538,1,0,0:0:0:0:
256,192,177696,1,8,0:0:0:0:
256,192,177774,1,8,0:0:0:0:
256,192,177853,1,0,0:0:0:0:
256,192,178011,1,8,0:0:0:0:
256,192,178169,1,0,0:0:0:0:
256,192,178327,1,12,0:0:0:0:
256,192,178643,1,0,0:0:0:0:
256,192,178801,1,8,0:0:0:0:
256,192,178959,1,0,0:0:0:0:
256,192,179038,1,0,0:0:0:0:
256,192,179117,1,8,0:0:0:0:
256,192,179274,1,0,0:0:0:0:
256,192,179432,1,8,0:0:0:0:
256,192,179590,1,0,0:0:0:0:
256,192,179906,1,8,0:0:0:0:
256,192,180064,1,8,0:0:0:0:
256,192,180222,1,0,0:0:0:0:
256,192,180380,1,8,0:0:0:0:
256,192,180459,1,8,0:0:0:0:
256,192,180538,1,0,0:0:0:0:
256,192,180696,1,8,0:0:0:0:
256,192,180853,1,4,0:0:0:0:
256,192,181169,1,0,0:0:0:0:
256,192,181248,1,0,0:0:0:0:
256,192,181327,1,8,0:0:0:0:
256,192,181485,1,0,0:0:0:0:
256,192,181643,1,8,0:0:0:0:
256,192,181722,1,8,0:0:0:0:
256,192,181801,1,0,0:0:0:0:
256,192,181959,1,8,0:0:0:0:
256,192,182038,1,0,0:0:0:0:
256,192,182117,1,8,0:0:0:0:
256,192,182196,1,8,0:0:0:0:
256,192,182274,1,8,0:0:0:0:
256,192,182432,1,8,0:0:0:0:
256,192,182590,1,0,0:0:0:0:
256,192,182748,1,8,0:0:0:0:
256,192,182827,1,8,0:0:0:0:
256,192,182906,1,0,0:0:0:0:
256,192,183064,1,8,0:0:0:0:
256,192,183222,1,0,0:0:0:0:
256,192,183380,1,12,0:0:0:0:
256,192,183697,1,0,0:0:0:0:
256,192,183857,1,8,0:0:0:0:
256,192,184176,1,0,0:0:0:0:
256,192,184335,1,0,0:0:0:0:
256,192,184495,1,8,0:0:0:0:
256,192,184814,1,0,0:0:0:0:
256,192,184974,1,0,0:0:0:0:
256,192,185133,1,8,0:0:0:0:
256,192,185293,1,0,0:0:0:0:
256,192,185452,1,0,0:0:0:0:
256,192,185612,1,0,0:0:0:0:
256,192,185772,1,8,0:0:0:0:
256,192,186091,1,0,0:0:0:0:
256,192,186248,1,0,0:0:0:0:
256,192,186406,1,8,0:0:0:0:
256,192,186722,1,0,0:0:0:0:
256,192,186880,1,0,0:0:0:0:
256,192,187038,1,8,0:0:0:0:
256,192,187354,1,0,0:0:0:0:
256,192,187510,1,0,0:0:0:0:
256,192,187666,1,8,0:0:0:0:
256,192,187822,1,0,0:0:0:0:
256,192,187979,1,0,0:0:0:0:
256,192,188135,1,0,0:0:0:0:
256,192,188291,1,8,0:0:0:0:
256,192,188447,1,8,0:0:0:0:
256,192,188604,1,4,0:0:0:0:
256,192,188919,1,8,0:0:0:0:
256,192,189235,1,8,0:0:0:0:
256,192,189393,1,0,0:0:0:0:
256,192,189551,1,8,0:0:0:0:
256,192,189867,1,0,0:0:0:0:
256,192,190025,1,0,0:0:0:0:
256,192,190182,1,8,0:0:0:0:
256,192,190498,1,8,0:0:0:0:
256,192,190656,1,0,0:0:0:0:
256,192,190814,1,8,0:0:0:0:
256,192,191130,1,8,0:0:0:0:
256,192,191288,1,0,0:0:0:0:
256,192,191446,1,0,0:0:0:0:
256,192,191604,1,8,0:0:0:0:
256,192,191761,1,0,0:0:0:0:
256,192,191919,1,0,0:0:0:0:
256,192,192077,1,8,0:0:0:0:
256,192,192235,1,8,0:0:0:0:
256,192,192393,1,0,0:0:0:0:
256,192,192551,1,0,0:0:0:0:
256,192,192709,1,8,0:0:0:0:
256,192,192788,1,0,0:0:0:0:
256,192,192867,1,0,0:0:0:0:
256,192,192946,1,0,0:0:0:0:
256,192,193025,1,8,0:0:0:0:
256,192,193104,1,0,0:0:0:0:
256,192,193182,1,8,0:0:0:0:
256,192,193261,1,8,0:0:0:0:
256,192,193340,1,0,0:0:0:0:
256,192,193419,1,0,0:0:0:0:
256,192,193498,1,8,0:0:0:0:
256,192,193656,1,12,0:0:0:0:
256,192,193972,1,0,0:0:0:0:
256,192,194130,1,12,0:0:0:0:
256,192,194446,1,0,0:0:0:0:
256,192,194604,1,12,0:0:0:0:
256,192,194919,1,0,0:0:0:0:
256,192,195077,1,12,0:0:0:0:
256,192,195393,1,0,0:0:0:0:
256,192,195551,1,12,0:0:0:0:
256,192,195709,1,0,0:0:0:0:
256,192,195867,1,12,0:0:0:0:
256,192,196182,1,4,0:0:0:0:
256,192,196498,1,8,0:0:0:0:
256,192,196656,1,4,0:0:0:0:
256,192,196972,1,8,0:0:0:0:
256,192,197130,1,4,0:0:0:0:
256,192,197446,1,8,0:0:0:0:
256,192,197604,1,4,0:0:0:0:
256,192,197919,1,8,0:0:0:0:
256,192,198077,1,4,0:0:0:0:
256,192,198235,1,8,0:0:0:0:
256,192,198393,1,4,0:0:0:0:
256,192,198709,1,12,0:0:0:0:
256,192,198867,1,0,0:0:0:0:
256,192,199025,1,0,0:0:0:0:
256,192,199182,1,12,0:0:0:0:
256,192,199498,1,0,0:0:0:0:
256,192,199656,1,12,0:0:0:0:
256,192,199972,1,0,0:0:0:0:
256,192,200130,1,12,0:0:0:0:
256,192,200446,1,0,0:0:0:0:
256,192,200604,1,12,0:0:0:0:
256,192,200761,1,0,0:0:0:0:
256,192,200919,1,12,0:0:0:0:
256,192,201235,1,4,0:0:0:0:
256,192,201393,1,8,0:0:0:0:
256,192,201551,1,8,0:0:0:0:
256,192,201709,1,4,0:0:0:0:
256,192,202025,1,8,0:0:0:0:
256,192,202182,1,4,0:0:0:0:
256,192,202498,1,8,0:0:0:0:
256,192,202656,1,0,0:0:0:0:
256,192,202814,1,12,0:0:0:0:
256,192,203130,1,0,0:0:0:0:
256,192,203209,1,8,0:0:0:0:
256,192,203288,1,0,0:0:0:0:
256,192,203367,1,0,0:0:0:0:
256,192,203446,1,8,0:0:0:0:
256,192,203761,1,0,0:0:0:0:
256,192,203919,1,0,0:0:0:0:
256,192,203998,1,0,0:0:0:0:
256,192,204077,1,8,0:0:0:0:
256,192,204235,1,0,0:0:0:0:
256,192,204393,1,0,0:0:0:0:
256,192,204472,1,8,0:0:0:0:
256,192,204551,1,0,0:0:0:0:
256,192,204709,1,8,0:0:0:0:
256,192,204867,1,0,0:0:0:0:
256,192,204946,1,0,0:0:0:0:
256,192,205025,1,8,0:0:0:0:
256,192,205104,1,8,0:0:0:0:
256,192,205182,1,0,0:0:0:0:
256,192,205340,1,8,0:0:0:0:
256,192,205498,1,8,0:0:0:0:
256,192,205577,1,0,0:0:0:0:
256,192,205656,1,8,0:0:0:0:
256,192,205735,1,8,0:0:0:0:
256,192,205814,1,0,0:0:0:0:
256,192,205972,1,8,0:0:0:0:
256,192,206130,1,0,0:0:0:0:
256,192,206288,1,8,0:0:0:0:
256,192,206446,1,0,0:0:0:0:
256,192,206525,1,0,0:0:0:0:
256,192,206604,1,0,0:0:0:0:
256,192,206761,1,8,0:0:0:0:
256,192,206919,1,0,0:0:0:0:
256,192,207077,1,0,0:0:0:0:
256,192,207156,1,0,0:0:0:0:
256,192,207235,1,8,0:0:0:0:
256,192,207393,1,8,0:0:0:0:
256,192,207551,1,0,0:0:0:0:
256,192,207710,12,0,208827,0:0:0:0:
256,192,217498,5,0,0:0:0:0:
256,192,217576,5,0,0:0:0:0:
256,192,217655,1,8,0:0:0:0:
256,192,217812,1,0,0:0:0:0:
256,192,217970,1,8,0:0:0:0:
256,192,218128,1,8,0:0:0:0:
256,192,218286,1,0,0:0:0:0:
256,192,218444,1,0,0:0:0:0:
256,192,218602,1,8,0:0:0:0:
256,192,218918,1,4,0:0:0:0:
256,192,219230,1,0,0:0:0:0:
256,192,219543,1,8,0:0:0:0:
256,192,219855,1,0,0:0:0:0:
256,192,220168,1,8,0:0:0:0:
256,192,220483,1,0,0:0:0:0:
256,192,220799,1,8,0:0:0:0:
256,192,221115,1,8,0:0:0:0:
256,192,221431,1,4,0:0:0:0:
256,192,221750,1,0,0:0:0:0:
256,192,222069,1,8,0:0:0:0:
256,192,222388,1,0,0:0:0:0:
256,192,222548,1,8,0:0:0:0:
256,192,222707,1,0,0:0:0:0:
256,192,223022,1,0,0:0:0:0:
256,192,223338,1,8,0:0:0:0:
256,192,223654,1,8,0:0:0:0:
256,192,223970,1,4,0:0:0:0:
256,192,224289,1,0,0:0:0:0:
256,192,224448,1,8,0:0:0:0:
256,192,224608,1,0,0:0:0:0:
256,192,224767,1,0,0:0:0:0:
256,192,224927,1,8,0:0:0:0:
256,192,225246,1,0,0:0:0:0:
256,192,225561,1,0,0:0:0:0:
256,192,225719,1,8,0:0:0:0:
256,192,225877,1,0,0:0:0:0:
256,192,226035,1,0,0:0:0:0:
256,192,226193,1,8,0:0:0:0:
256,192,226509,1,12,0:0:0:0:
256,192,226665,1,0,0:0:0:0:
256,192,226821,1,0,0:0:0:0:
256,192,226977,1,12,0:0:0:0:
256,192,227134,1,0,0:0:0:0:
256,192,227290,1,0,0:0:0:0:
256,192,227446,1,12,0:0:0:0:
256,192,227602,1,0,0:0:0:0:
256,192,227759,1,12,0:0:0:0:
256,192,228071,12,0,228852,0:0:0:0:
256,192,229009,5,4,0:0:0:0:
256,192,229324,1,8,0:0:0:0:
256,192,229482,1,0,0:0:0:0:
256,192,229640,1,0,0:0:0:0:
256,192,229719,1,0,0:0:0:0:
256,192,229798,1,0,0:0:0:0:
256,192,229956,1,8,0:0:0:0:
256,192,230114,1,0,0:0:0:0:
256,192,230272,1,8,0:0:0:0:
256,192,230351,1,0,0:0:0:0:
256,192,230430,1,0,0:0:0:0:
256,192,230509,1,0,0:0:0:0:
256,192,230587,1,8,0:0:0:0:
256,192,230745,1,8,0:0:0:0:
256,192,230824,1,8,0:0:0:0:
256,192,230903,1,0,0:0:0:0:
256,192,231061,1,0,0:0:0:0:
256,192,231219,1,8,0:0:0:0:
256,192,231377,1,0,0:0:0:0:
256,192,231535,1,8,0:0:0:0:
256,192,231614,1,8,0:0:0:0:
256,192,231693,1,0,0:0:0:0:
256,192,231772,1,0,0:0:0:0:
256,192,231851,1,8,0:0:0:0:
256,192,232009,1,8,0:0:0:0:
256,192,232166,1,0,0:0:0:0:
256,192,232482,1,8,0:0:0:0:
256,192,232640,1,0,0:0:0:0:
256,192,232719,1,0,0:0:0:0:
256,192,232798,1,0,0:0:0:0:
256,192,232956,1,0,0:0:0:0:
256,192,233114,1,8,0:0:0:0:
256,192,233272,1,0,0:0:0:0:
256,192,233351,1,0,0:0:0:0:
256,192,233430,1,8,0:0:0:0:
256,192,233509,1,0,0:0:0:0:
256,192,233587,1,0,0:0:0:0:
256,192,233745,1,8,0:0:0:0:
256,192,233903,1,0,0:0:0:0:
256,192,233982,1,0,0:0:0:0:
256,192,234061,1,8,0:0:0:0:
256,192,234219,1,0,0:0:0:0:
256,192,234377,1,8,0:0:0:0:
256,192,234535,1,0,0:0:0:0:
256,192,234614,1,0,0:0:0:0:
256,192,234693,1,0,0:0:0:0:
256,192,234851,1,0,0:0:0:0:
256,192,235009,1,8,0:0:0:0:
256,192,235166,1,0,0:0:0:0:
256,192,235245,1,0,0:0:0:0:
256,192,235324,1,8,0:0:0:0:
256,192,235403,1,8,0:0:0:0:
256,192,235482,1,0,0:0:0:0:
256,192,235640,1,8,0:0:0:0:
256,192,235798,1,8,0:0:0:0:
256,192,235877,1,8,0:0:0:0:
256,192,235956,1,0,0:0:0:0:
256,192,236114,1,0,0:0:0:0:
256,192,236272,1,8,0:0:0:0:
256,192,236430,1,0,0:0:0:0:
256,192,236587,1,8,0:0:0:0:
256,192,236666,1,8,0:0:0:0:
256,192,236745,1,8,0:0:0:0:
256,192,236824,1,0,0:0:0:0:
256,192,236903,1,8,0:0:0:0:
256,192,237061,1,8,0:0:0:0:
256,192,237219,1,0,0:0:0:0:
256,192,237535,1,8,0:0:0:0:
256,192,237693,1,0,0:0:0:0:
256,192,237772,1,0,0:0:0:0:
256,192,237851,1,8,0:0:0:0:
256,192,238012,1,0,0:0:0:0:
256,192,238173,1,0,0:0:0:0:
256,192,238334,1,8,0:0:0:0:
256,192,238496,1,0,0:0:0:0:
256,192,238657,1,0,0:0:0:0:
256,192,238818,1,8,0:0:0:0:
256,192,238980,1,8,0:0:0:0:
256,192,239141,1,4,0:0:0:0:
256,192,239456,1,0,0:0:0:0:
256,192,239614,1,8,0:0:0:0:
256,192,239772,1,0,0:0:0:0:
256,192,239851,1,0,0:0:0:0:
256,192,239930,1,0,0:0:0:0:
256,192,240088,1,12,0:0:0:0:
256,192,240562,1,0,0:0:0:0:
256,192,240719,1,8,0:0:0:0:
256,192,240877,1,8,0:0:0:0:
256,192,241035,1,0,0:0:0:0:
256,192,241193,1,0,0:0:0:0:
256,192,241272,1,0,0:0:0:0:
256,192,241351,1,8,0:0:0:0:
256,192,241509,1,0,0:0:0:0:
256,192,241667,1,8,0:0:0:0:
256,192,241825,1,8,0:0:0:0:
256,192,241983,1,0,0:0:0:0:
256,192,242141,1,0,0:0:0:0:
256,192,242219,1,0,0:0:0:0:
256,192,242298,1,8,0:0:0:0:
256,192,242456,1,8,0:0:0:0:
256,192,242614,1,4,0:0:0:0:
256,192,243088,1,0,0:0:0:0:
256,192,243246,1,8,0:0:0:0:
256,192,243404,1,0,0:0:0:0:
256,192,243483,1,0,0:0:0:0:
256,192,243562,1,8,0:0:0:0:
256,192,243719,1,0,0:0:0:0:
256,192,243877,1,8,0:0:0:0:
256,192,244193,1,4,0:0:0:0:
256,192,244509,1,8,0:0:0:0:
256,192,244667,1,0,0:0:0:0:
256,192,244746,1,0,0:0:0:0:
256,192,244825,1,0,0:0:0:0:
256,192,244983,1,0,0:0:0:0:
256,192,245141,1,8,0:0:0:0:
256,192,245298,1,0,0:0:0:0:
256,192,245377,1,0,0:0:0:0:
256,192,245456,1,8,0:0:0:0:
256,192,245534,1,0,0:0:0:0:
256,192,245612,1,8,0:0:0:0:
256,192,245768,1,8,0:0:0:0:
256,192,245924,1,0,0:0:0:0:
256,192,246081,1,8,0:0:0:0:
256,192,246159,1,8,0:0:0:0:
256,192,246237,1,0,0:0:0:0:
256,192,246393,1,8,0:0:0:0:
256,192,246549,1,0,0:0:0:0:
256,192,246706,1,12,0:0:0:0:
256,192,246863,1,0,0:0:0:0:
256,192,246942,1,0,0:0:0:0:
256,192,247021,1,0,0:0:0:0:
256,192,247179,1,12,0:0:0:0:
256,192,247337,1,0,0:0:0:0:
256,192,247416,1,0,0:0:0:0:
256,192,247495,1,0,0:0:0:0:
256,192,247653,1,12,0:0:0:0:
256,192,247811,1,0,0:0:0:0:
256,192,247969,5,12,0:0:0:0:
256,192,248284,1,8,0:0:0:0:
256,192,248442,1,8,0:0:0:0:
256,192,248521,1,8,0:0:0:0:
256,192,248600,1,0,0:0:0:0:
256,192,248758,1,0,0:0:0:0:
256,192,248916,1,8,0:0:0:0:
256,192,249232,1,4,0:0:0:0:
256,192,249548,5,0,0:0:0:0:
256,192,249706,1,8,0:0:0:0:
256,192,249863,1,0,0:0:0:0:
256,192,250179,1,8,0:0:0:0:
256,192,250337,1,8,0:0:0:0:
256,192,250495,1,4,0:0:0:0:
256,192,250811,1,8,0:0:0:0:
256,192,250969,1,0,0:0:0:0:
256,192,251127,1,8,0:0:0:0:
256,192,251206,1,8,0:0:0:0:
256,192,251284,1,0,0:0:0:0:
256,192,251442,1,8,0:0:0:0:
256,192,251758,1,12,0:0:0:0:
256,192,251916,1,0,0:0:0:0:
256,192,251995,1,0,0:0:0:0:
256,192,252074,1,0,0:0:0:0:
256,192,252232,1,12,0:0:0:0:
256,192,252390,1,0,0:0:0:0:
256,192,252469,1,0,0:0:0:0:
256,192,252548,1,0,0:0:0:0:
256,192,252706,1,12,0:0:0:0:
256,192,252863,1,0,0:0:0:0:
256,192,253021,1,12,0:0:0:0:
256,192,253337,1,8,0:0:0:0:
256,192,253495,1,0,0:0:0:0:
256,192,253653,1,8,0:0:0:0:
256,192,253732,1,8,0:0:0:0:
256,192,253811,1,0,0:0:0:0:
256,192,253969,1,8,0:0:0:0:
256,192,254127,1,0,0:0:0:0:
256,192,254284,1,8,0:0:0:0:
256,192,254361,1,8,0:0:0:0:
256,192,254438,1,0,0:0:0:0:
256,192,254515,1,0,0:0:0:0:
256,192,254593,1,8,0:0:0:0:
256,192,254670,1,0,0:0:0:0:
256,192,254747,1,8,0:0:0:0:
256,192,254825,1,8,0:0:0:0:
256,192,254902,1,0,0:0:0:0:
256,192,254979,1,0,0:0:0:0:
256,192,255057,1,8,0:0:0:0:
256,192,255211,1,12,0:0:0:0:
256,192,255366,12,0,256811,0:0:0:0:
256,192,259351,5,4,0:0:0:0:
256,192,259663,1,8,0:0:0:0:
256,192,259819,1,0,0:0:0:0:
256,192,259897,1,0,0:0:0:0:
256,192,259976,1,8,0:0:0:0:
256,192,260132,1,0,0:0:0:0:
256,192,260288,1,8,0:0:0:0:
256,192,260444,1,4,0:0:0:0:
256,192,260758,1,0,0:0:0:0:
256,192,260916,1,8,0:0:0:0:
256,192,261074,1,0,0:0:0:0:
256,192,261153,1,0,0:0:0:0:
256,192,261232,1,8,0:0:0:0:
256,192,261311,1,8,0:0:0:0:
256,192,261390,1,0,0:0:0:0:
256,192,261548,1,8,0:0:0:0:
256,192,261864,1,4,0:0:0:0:
256,192,262179,1,0,0:0:0:0:
256,192,262337,1,8,0:0:0:0:
256,192,262653,1,0,0:0:0:0:
256,192,262811,1,8,0:0:0:0:
256,192,262969,1,0,0:0:0:0:
256,192,263048,1,0,0:0:0:0:
256,192,263127,1,8,0:0:0:0:
256,192,263285,1,8,0:0:0:0:
256,192,263364,1,8,0:0:0:0:
256,192,263443,1,0,0:0:0:0:
256,192,263522,1,8,0:0:0:0:
256,192,263601,1,0,0:0:0:0:
256,192,263679,1,0,0:0:0:0:
256,192,263758,1,8,0:0:0:0:
256,192,263916,1,0,0:0:0:0:
256,192,264074,1,8,0:0:0:0:
256,192,264390,1,0,0:0:0:0:
256,192,264548,1,0,0:0:0:0:
256,192,264627,1,0,0:0:0:0:
256,192,264706,1,8,0:0:0:0:
256,192,264864,1,0,0:0:0:0:
256,192,265022,1,8,0:0:0:0:
256,192,265101,1,8,0:0:0:0:
256,192,265179,1,0,0:0:0:0:
256,192,265337,1,8,0:0:0:0:
256,192,265495,1,0,0:0:0:0:
256,192,265653,1,8,0:0:0:0:
256,192,265732,1,0,0:0:0:0:
256,192,265811,1,8,0:0:0:0:
256,192,265890,1,8,0:0:0:0:
256,192,265969,1,0,0:0:0:0:
256,192,266127,1,8,0:0:0:0:
256,192,266285,1,8,0:0:0:0:
256,192,266364,1,0,0:0:0:0:
256,192,266443,1,0,0:0:0:0:
256,192,266522,1,0,0:0:0:0:
256,192,266601,1,8,0:0:0:0:
256,192,266758,1,0,0:0:0:0:
256,192,266916,1,12,0:0:0:0:
256,192,267074,1,0,0:0:0:0:
256,192,267153,1,0,0:0:0:0:
256,192,267232,1,8,0:0:0:0:
256,192,267311,1,0,0:0:0:0:
256,192,267390,1,8,0:0:0:0:
256,192,267469,1,8,0:0:0:0:
256,192,267548,1,0,0:0:0:0:
256,192,267706,1,8,0:0:0:0:
256,192,268022,2,4,L|416:192,2,140
256,192,268803,5,8,0:0:0:0:
256,192,268959,1,8,0:0:0:0:
256,192,269115,5,0,0:0:0:0:
256,192,269272,1,12,0:0:0:0:
256,192,269428,12,0,276772,0:0:0:0:
