osu file format v14

[General]
AudioFilename: audio.mp3
AudioLeadIn: 0
PreviewTime: 56263
Countdown: 0
SampleSet: Normal
StackLeniency: 0.7
Mode: 3
LetterboxInBreaks: 0
SpecialStyle: 0
WidescreenStoryboard: 0

[Editor]
DistanceSpacing: 0.8
BeatDivisor: 4
GridSize: 32
TimelineZoom: 1.5

[Metadata]
Title:Catch the Moment
TitleUnicode:Catch the Moment
Artist:LiSA
ArtistUnicode:LiSA
Creator:Maxus
Version:Hard
Source:劇場版 ソードアート・オンライン -オーディナル・スケール-
Tags:Sword Art Online The Movie Ordinal Scale A-1 Pictures SAO Kirito Asuna Fantasy Science Fiction Aniplex Game Adventure Romance Action Virtual Reality Augma Nerve Gear MMORPG Yuna Eiji
BeatmapID:1219747
BeatmapSetID:576112

[Difficulty]
HPDrainRate:8
CircleSize:4
OverallDifficulty:8
ApproachRate:5
SliderMultiplier:1.4
SliderTickRate:1

[Events]
//Background and Video events
0,0,"SAO+BG+Diff.jpg",0,0
//Break Periods
//Storyboard Layer 0 (Background)
//Storyboard Layer 1 (Fail)
//Storyboard Layer 2 (Pass)
//Storyboard Layer 3 (Foreground)
//Storyboard Sound Samples

[TimingPoints]
383,315.789473684211,4,1,1,30,1,0
19330,314.13612565445,4,1,1,30,1,0
21843,315.789473684211,4,1,1,30,1,0
44579,322.58064516129,4,1,1,30,1,0
44579,-98.0392156862745,4,1,1,30,0,0
45869,319.148936170213,4,1,1,30,1,0
45869,-99.009900990099,4,1,1,30,0,0
47145,306.122448979592,4,1,1,30,1,0
47145,-103.092783505155,4,1,1,30,0,0
48369,315.789473684211,4,1,1,30,1,0
57211,-100,4,1,1,30,0,1
76158,-100,4,1,1,30,0,0
77421,-100,4,1,1,30,0,1
97632,319.148936170213,4,1,1,30,1,0
97632,-99.009900990099,4,1,1,30,0,0
98908,315.789473684211,4,1,1,30,1,0
106329,312.5,4,1,1,30,1,0
106429,-101.010101010101,4,1,1,30,0,0

[HitObjects]
64,192,383,5,0,0:0:0:0:
448,192,383,1,0,0:0:0:0:
192,192,698,1,0,0:0:0:0:
320,192,698,1,0,0:0:0:0:
64,192,856,1,0,0:0:0:0:
320,192,1014,1,0,0:0:0:0:
448,192,1014,1,0,0:0:0:0:
192,192,1172,1,0,0:0:0:0:
448,192,1330,1,0,0:0:0:0:
64,192,1330,1,0,0:0:0:0:
192,192,1488,1,0,0:0:0:0:
320,192,1646,1,0,0:0:0:0:
448,192,1646,128,0,1804:0:0:0:0:
192,192,1961,128,0,2119:0:0:0:0:
64,192,1961,1,0,0:0:0:0:
320,192,2277,128,0,2909:0:0:0:0:
448,192,2277,1,0,0:0:0:0:
64,192,2593,1,0,0:0:0:0:
192,192,2909,1,0,0:0:0:0:
448,192,2909,1,0,0:0:0:0:
64,192,3067,1,0,0:0:0:0:
320,192,3225,1,0,0:0:0:0:
448,192,3225,1,0,0:0:0:0:
192,192,3383,1,0,0:0:0:0:
64,192,3540,1,0,0:0:0:0:
448,192,3540,1,0,0:0:0:0:
192,192,3856,1,0,0:0:0:0:
320,192,3856,1,0,0:0:0:0:
448,192,4014,1,0,0:0:0:0:
64,192,4172,128,0,4330:0:0:0:0:
192,192,4172,1,0,0:0:0:0:
448,192,4488,128,0,4646:0:0:0:0:
320,192,4488,1,0,0:0:0:0:
192,192,4804,128,0,5435:0:0:0:0:
64,192,4804,1,0,0:0:0:0:
448,192,4961,1,0,0:0:0:0:
320,192,5119,1,0,0:0:0:0:
448,192,5435,1,0,0:0:0:0:
64,192,5435,1,0,0:0:0:0:
320,192,5751,1,0,0:0:0:0:
192,192,5751,1,0,0:0:0:0:
64,192,5909,1,0,0:0:0:0:
192,192,6067,1,0,0:0:0:0:
448,192,6067,1,0,0:0:0:0:
320,192,6225,1,0,0:0:0:0:
64,192,6383,1,0,0:0:0:0:
448,192,6383,1,0,0:0:0:0:
192,192,6540,1,0,0:0:0:0:
320,192,6698,128,0,6856:0:0:0:0:
448,192,6698,1,0,0:0:0:0:
64,192,7014,128,0,7172:0:0:0:0:
192,192,7014,1,0,0:0:0:0:
192,192,7330,128,0,7961:0:0:0:0:
448,192,7330,1,0,0:0:0:0:
64,192,7488,1,0,0:0:0:0:
320,192,7646,1,0,0:0:0:0:
64,192,7961,1,0,0:0:0:0:
448,192,7961,1,0,0:0:0:0:
320,192,8277,1,0,0:0:0:0:
192,192,8277,1,0,0:0:0:0:
64,192,8435,1,0,0:0:0:0:
192,192,8593,1,0,0:0:0:0:
448,192,8593,1,0,0:0:0:0:
64,192,8909,1,0,0:0:0:0:
320,192,8909,1,0,0:0:0:0:
448,192,9067,1,0,0:0:0:0:
320,192,9225,128,0,10330:0:0:0:0:
192,192,9225,1,0,0:0:0:0:
192,192,10330,1,2,0:0:0:0:
320,192,10409,1,2,0:0:0:0:
64,192,10488,1,8,0:0:0:0:
448,192,10488,1,4,0:0:0:0:
448,192,10751,1,0,0:0:0:0:
64,192,10751,1,8,0:0:0:0:
64,192,10961,1,8,0:0:0:0:
448,192,10961,1,0,0:0:0:0:
320,192,11119,1,8,0:0:0:0:
192,192,11119,1,0,0:0:0:0:
448,192,11198,1,2,0:0:0:0:
64,192,11277,1,2,0:0:0:0:
192,192,11356,1,2,0:0:0:0:
320,192,11435,1,8,0:0:0:0:
448,192,11435,1,0,0:0:0:0:
448,192,11751,1,4,0:0:0:0:
192,192,11751,1,2,0:0:0:0:
64,192,11751,1,0,0:0:0:0:
320,192,12067,1,8,0:0:0:0:
64,192,12067,1,0,0:0:0:0:
448,192,12383,1,2,0:0:0:0:
192,192,12540,1,2,0:0:0:0:
320,192,12698,1,8,0:0:0:0:
448,192,12698,1,0,0:0:0:0:
64,192,12856,128,4,13330:0:0:0:0:
192,192,12856,1,8,0:0:0:0:
320,192,13172,1,2,0:0:0:0:
192,192,13330,1,8,0:0:0:0:
448,192,13330,1,0,0:0:0:0:
64,192,13646,1,8,0:0:0:0:
192,192,13646,1,0,0:0:0:0:
320,192,13804,1,2,0:0:0:0:
448,192,13961,1,8,0:0:0:0:
64,192,13961,1,0,0:0:0:0:
192,192,14277,1,8,0:0:0:0:
320,192,14277,1,4,0:0:0:0:
448,192,14435,1,2,0:0:0:0:
64,192,14593,1,2,0:0:0:0:
448,192,14751,1,8,0:0:0:0:
320,192,14751,1,0,0:0:0:0:
192,192,14909,1,0,0:0:0:0:
320,192,15067,1,2,0:0:0:0:
64,192,15225,1,8,0:0:0:0:
448,192,15225,1,0,0:0:0:0:
320,192,15540,1,8,0:0:0:0:
448,192,15540,1,0,0:0:0:0:
192,192,15698,1,2,0:0:0:0:
320,192,15856,1,8,0:0:0:0:
448,192,15856,1,0,0:0:0:0:
192,192,16014,1,2,0:0:0:0:
448,192,16172,1,8,0:0:0:0:
64,192,16172,128,0,16330:0:0:0:0:
320,192,16330,1,0,0:0:0:0:
192,192,16409,1,0,0:0:0:0:
448,192,16488,128,4,16804:0:0:0:0:
64,192,16488,1,8,0:0:0:0:
64,192,16804,1,2,0:0:0:0:
192,192,16804,1,4,0:0:0:0:
320,192,16961,1,0,0:0:0:0:
448,192,17119,1,8,0:0:0:0:
192,192,17119,1,0,0:0:0:0:
64,192,17277,1,0,0:0:0:0:
320,192,17435,1,2,0:0:0:0:
192,192,17593,1,2,0:0:0:0:
320,192,17751,128,8,17909:0:0:0:0:
448,192,17751,1,0,0:0:0:0:
64,192,17909,128,2,18067:0:0:0:0:
320,192,18067,128,0,18225:0:0:0:0:
64,192,18225,128,2,18383:0:0:0:0:
192,192,18383,128,8,18540:0:0:0:0:
320,192,18383,1,0,0:0:0:0:
448,192,18540,128,0,18698:0:0:0:0:
64,192,18698,1,2,0:0:0:0:
192,192,18777,1,2,0:0:0:0:
448,192,18856,1,2,0:0:0:0:
320,192,18935,1,2,0:0:0:0:
192,192,19014,1,8,0:0:0:0:
64,192,19014,1,4,0:0:0:0:
192,192,19330,1,4,0:0:0:0:
448,192,19330,1,8,0:0:0:0:
64,192,19487,1,0,0:0:0:0:
320,192,19565,1,2,0:0:0:0:
64,192,19644,1,8,0:0:0:0:
192,192,19644,1,0,0:0:0:0:
448,192,19801,1,0,0:0:0:0:
192,192,19879,1,8,0:0:0:0:
448,192,19958,1,8,0:0:0:0:
320,192,19958,1,0,0:0:0:0:
64,192,20115,128,8,20272:0:0:0:0:
192,192,20115,1,0,0:0:0:0:
320,192,20272,1,2,0:0:0:0:
448,192,20429,128,4,21528:0:0:0:0:
64,192,20429,1,8,0:0:0:0:
192,192,20429,1,0,0:0:0:0:
192,192,21528,1,4,0:0:0:0:
64,192,21528,128,8,21843:0:0:0:0:
320,192,21843,1,4,0:0:0:0:
448,192,21843,1,2,0:0:0:0:
192,192,22000,1,0,0:0:0:0:
320,192,22158,1,2,0:0:0:0:
64,192,22316,1,0,0:0:0:0:
448,192,22474,1,2,0:0:0:0:
64,192,22632,1,0,0:0:0:0:
192,192,22790,1,2,0:0:0:0:
320,192,22948,1,0,0:0:0:0:
64,192,23106,1,2,0:0:0:0:
448,192,23106,128,0,23737:0:0:0:0:
192,192,23421,1,2,0:0:0:0:
320,192,23421,1,0,0:0:0:0:
192,192,23737,1,2,0:0:0:0:
64,192,23737,128,0,24369:0:0:0:0:
448,192,24053,1,2,0:0:0:0:
320,192,24053,1,0,0:0:0:0:
320,192,24369,1,2,0:0:0:0:
192,192,24369,1,0,0:0:0:0:
448,192,24527,1,0,0:0:0:0:
320,192,24685,1,2,0:0:0:0:
64,192,24843,1,0,0:0:0:0:
192,192,25000,1,2,0:0:0:0:
448,192,25158,1,0,0:0:0:0:
64,192,25316,1,2,0:0:0:0:
448,192,25474,1,0,0:0:0:0:
320,192,25632,128,2,26264:0:0:0:0:
192,192,25632,1,0,0:0:0:0:
448,192,25948,1,2,0:0:0:0:
64,192,25948,1,0,0:0:0:0:
64,192,26264,1,2,0:0:0:0:
192,192,26264,128,0,26895:0:0:0:0:
448,192,26579,1,2,0:0:0:0:
320,192,26579,1,0,0:0:0:0:
64,192,26895,1,2,0:0:0:0:
448,192,26895,1,0,0:0:0:0:
320,192,27053,1,0,0:0:0:0:
64,192,27211,1,2,0:0:0:0:
448,192,27369,1,0,0:0:0:0:
192,192,27527,1,2,0:0:0:0:
320,192,27685,1,0,0:0:0:0:
64,192,27843,1,2,0:0:0:0:
448,192,28000,1,0,0:0:0:0:
320,192,28158,128,2,28790:0:0:0:0:
192,192,28158,1,0,0:0:0:0:
448,192,28474,1,2,0:0:0:0:
64,192,28474,1,0,0:0:0:0:
64,192,28790,128,2,29421:0:0:0:0:
192,192,28790,1,0,0:0:0:0:
448,192,29106,1,2,0:0:0:0:
320,192,29106,1,0,0:0:0:0:
192,192,29421,1,2,0:0:0:0:
320,192,29421,1,0,0:0:0:0:
448,192,29579,1,0,0:0:0:0:
192,192,29737,1,2,0:0:0:0:
64,192,29895,1,0,0:0:0:0:
320,192,30053,1,8,0:0:0:0:
448,192,30053,1,0,0:0:0:0:
192,192,30211,1,0,0:0:0:0:
64,192,30369,128,4,31632:0:0:0:0:
448,192,30369,1,8,0:0:0:0:
192,192,31316,128,0,31632:0:0:0:0:
320,192,31632,1,8,0:0:0:0:
448,192,31632,1,0,0:0:0:0:
64,192,31948,1,4,0:0:0:0:
448,192,31948,1,2,0:0:0:0:
320,192,31948,1,0,0:0:0:0:
64,192,32264,1,8,0:0:0:0:
192,192,32264,1,0,0:0:0:0:
320,192,32421,1,0,0:0:0:0:
448,192,32579,1,2,0:0:0:0:
64,192,32737,1,0,0:0:0:0:
192,192,32895,1,8,0:0:0:0:
448,192,32895,1,0,0:0:0:0:
320,192,33053,1,0,0:0:0:0:
64,192,33211,1,2,0:0:0:0:
448,192,33369,1,0,0:0:0:0:
192,192,33527,1,8,0:0:0:0:
320,192,33527,1,0,0:0:0:0:
64,192,33685,1,0,0:0:0:0:
448,192,33843,1,2,0:0:0:0:
192,192,34000,1,0,0:0:0:0:
320,192,34158,1,8,0:0:0:0:
448,192,34158,1,0,0:0:0:0:
64,192,34316,1,0,0:0:0:0:
192,192,34474,128,2,34948:0:0:0:0:
320,192,34474,1,0,0:0:0:0:
64,192,34632,1,0,0:0:0:0:
320,192,34790,1,8,0:0:0:0:
448,192,34790,1,0,0:0:0:0:
448,192,34948,128,0,35421:0:0:0:0:
64,192,34948,1,0,0:0:0:0:
320,192,35106,1,2,0:0:0:0:
192,192,35264,1,0,0:0:0:0:
320,192,35421,128,8,35737:0:0:0:0:
64,192,35421,1,0,0:0:0:0:
448,192,35579,1,0,0:0:0:0:
192,192,35737,1,2,0:0:0:0:
448,192,35895,1,0,0:0:0:0:
192,192,36053,1,8,0:0:0:0:
64,192,36053,1,0,0:0:0:0:
320,192,36211,1,0,0:0:0:0:
64,192,36369,128,2,36685:0:0:0:0:
448,192,36369,1,0,0:0:0:0:
192,192,36527,1,0,0:0:0:0:
320,192,36685,128,8,37000:0:0:0:0:
448,192,36685,1,0,0:0:0:0:
64,192,36843,1,0,0:0:0:0:
192,192,37000,128,2,37316:0:0:0:0:
448,192,37000,1,0,0:0:0:0:
64,192,37158,1,0,0:0:0:0:
320,192,37316,1,8,0:0:0:0:
448,192,37316,1,0,0:0:0:0:
64,192,37474,1,0,0:0:0:0:
448,192,37632,1,2,0:0:0:0:
320,192,37790,1,0,0:0:0:0:
64,192,37948,1,8,0:0:0:0:
192,192,37948,1,0,0:0:0:0:
448,192,38106,1,0,0:0:0:0:
192,192,38264,1,2,0:0:0:0:
320,192,38421,1,0,0:0:0:0:
64,192,38579,1,8,0:0:0:0:
448,192,38579,1,0,0:0:0:0:
192,192,38737,1,0,0:0:0:0:
320,192,38895,1,2,0:0:0:0:
192,192,39053,128,0,39211:0:0:0:0:
64,192,39211,1,8,0:0:0:0:
448,192,39211,1,0,0:0:0:0:
320,192,39369,128,0,39843:0:0:0:0:
192,192,39527,1,2,0:0:0:0:
448,192,39685,1,0,0:0:0:0:
192,192,39843,1,8,0:0:0:0:
64,192,39843,1,0,0:0:0:0:
320,192,40000,1,0,0:0:0:0:
64,192,40158,5,2,0:0:0:0:
448,192,40316,1,8,0:0:0:0:
320,192,40316,1,4,0:0:0:0:
192,192,40474,1,2,0:0:0:0:
448,192,40632,1,8,0:0:0:0:
64,192,40632,128,4,40948:0:0:0:0:
192,192,40948,1,2,0:0:0:0:
64,192,41106,1,8,0:0:0:0:
448,192,41106,1,0,0:0:0:0:
320,192,41264,1,2,0:0:0:0:
192,192,41421,1,8,0:0:0:0:
64,192,41421,1,0,0:0:0:0:
448,192,41579,128,2,41895:0:0:0:0:
320,192,41895,1,8,0:0:0:0:
192,192,41895,1,0,0:0:0:0:
64,192,42053,1,2,0:0:0:0:
448,192,42211,1,0,0:0:0:0:
64,192,42369,1,2,0:0:0:0:
448,192,42527,1,0,0:0:0:0:
64,192,42685,1,2,0:0:0:0:
448,192,42843,1,0,0:0:0:0:
64,192,43000,1,2,0:0:0:0:
320,192,43158,1,8,0:0:0:0:
448,192,43158,1,4,0:0:0:0:
192,192,43316,1,2,0:0:0:0:
320,192,43474,1,0,0:0:0:0:
192,192,43632,1,2,0:0:0:0:
320,192,43790,1,0,0:0:0:0:
192,192,43948,1,2,0:0:0:0:
320,192,44106,1,0,0:0:0:0:
64,192,44264,1,8,0:0:0:0:
448,192,44264,1,0,0:0:0:0:
320,192,44579,128,8,45224:0:0:0:0:
64,192,44579,1,4,0:0:0:0:
192,192,44579,1,0,0:0:0:0:
448,192,45224,1,4,0:0:0:0:
192,192,45224,128,8,45869:0:0:0:0:
64,192,45224,1,0,0:0:0:0:
64,192,45869,1,8,0:0:0:0:
320,192,45869,1,0,0:0:0:0:
448,192,45869,128,4,46507:0:0:0:0:
64,192,46507,128,4,47145:0:0:0:0:
192,192,46507,1,8,0:0:0:0:
320,192,46507,1,0,0:0:0:0:
448,192,46826,1,8,0:0:0:0:
448,192,47145,1,4,0:0:0:0:
320,192,47145,1,8,0:0:0:0:
192,192,47451,1,0,0:0:0:0:
320,192,47604,1,2,0:0:0:0:
64,192,47757,1,8,0:0:0:0:
448,192,47757,1,0,0:0:0:0:
320,192,47910,128,0,48063:0:0:0:0:
192,192,48063,1,0,0:0:0:0:
448,192,48216,1,2,0:0:0:0:
320,192,48369,128,0,48684:0:0:0:0:
192,192,48526,1,8,0:0:0:0:
64,192,48526,1,0,0:0:0:0:
448,192,48684,1,0,0:0:0:0:
64,192,48842,1,2,0:0:0:0:
448,192,49000,1,8,0:0:0:0:
192,192,49000,1,0,0:0:0:0:
320,192,49158,1,0,0:0:0:0:
64,192,49316,1,0,0:0:0:0:
448,192,49474,1,0,0:0:0:0:
192,192,49632,1,8,0:0:0:0:
64,192,49632,128,4,50579:0:0:0:0:
320,192,49790,1,2,0:0:0:0:
448,192,49947,1,0,0:0:0:0:
192,192,50105,1,2,0:0:0:0:
448,192,50263,1,0,0:0:0:0:
320,192,50421,1,2,0:0:0:0:
448,192,50579,128,8,51211:0:0:0:0:
192,192,50579,1,4,0:0:0:0:
320,192,50737,1,2,0:0:0:0:
64,192,50895,1,2,0:0:0:0:
192,192,51053,1,2,0:0:0:0:
64,192,51211,128,2,51526:0:0:0:0:
320,192,51211,1,0,0:0:0:0:
448,192,51369,1,0,0:0:0:0:
192,192,51526,128,2,51842:0:0:0:0:
320,192,51526,1,0,0:0:0:0:
448,192,51684,1,2,0:0:0:0:
320,192,51842,128,8,52158:0:0:0:0:
64,192,51842,1,4,0:0:0:0:
448,192,52000,1,0,0:0:0:0:
64,192,52158,1,4,0:0:0:0:
192,192,52158,1,8,0:0:0:0:
64,192,52316,1,2,0:0:0:0:
320,192,52474,1,8,0:0:0:0:
448,192,52474,1,0,0:0:0:0:
448,192,52632,1,2,0:0:0:0:
192,192,52790,1,8,0:0:0:0:
320,192,52790,1,0,0:0:0:0:
192,192,52947,1,2,0:0:0:0:
64,192,53105,1,8,0:0:0:0:
320,192,53105,1,0,0:0:0:0:
320,192,53263,1,2,0:0:0:0:
64,192,53421,1,8,0:0:0:0:
448,192,53421,1,0,0:0:0:0:
64,192,53579,1,2,0:0:0:0:
192,192,53737,1,8,0:0:0:0:
320,192,53737,1,0,0:0:0:0:
192,192,53895,1,2,0:0:0:0:
320,192,54053,1,8,0:0:0:0:
448,192,54053,1,0,0:0:0:0:
320,192,54211,1,2,0:0:0:0:
448,192,54369,1,8,0:0:0:0:
64,192,54369,1,0,0:0:0:0:
448,192,54526,1,2,0:0:0:0:
64,192,54684,128,4,55632:0:0:0:0:
320,192,54684,1,8,0:0:0:0:
192,192,54684,1,0,0:0:0:0:
448,192,55000,1,2,0:0:0:0:
192,192,55158,1,2,0:0:0:0:
448,192,55316,1,2,0:0:0:0:
192,192,55474,1,2,0:0:0:0:
320,192,55632,1,2,0:0:0:0:
448,192,55632,1,0,0:0:0:0:
64,192,55790,1,2,0:0:0:0:
192,192,55790,1,0,0:0:0:0:
64,192,55947,1,8,0:0:0:0:
448,192,55947,1,4,0:0:0:0:
320,192,55947,1,0,0:0:0:0:
320,192,56263,1,0,0:0:0:0:
448,192,56579,1,8,0:0:0:0:
192,192,56579,1,0,0:0:0:0:
64,192,56658,1,2,0:0:0:0:
320,192,56737,1,2,0:0:0:0:
192,192,56816,1,2,0:0:0:0:
64,192,56895,1,8,0:0:0:0:
448,192,56895,1,4,0:0:0:0:
64,192,57211,128,2,58474:0:0:0:0:
192,192,57211,1,4,0:0:0:0:
448,192,57211,1,0,0:0:0:0:
320,192,57526,1,8,0:0:0:0:
448,192,57526,1,0,0:0:0:0:
192,192,57842,1,2,0:0:0:0:
320,192,58000,1,2,0:0:0:0:
448,192,58158,1,8,0:0:0:0:
192,192,58158,1,0,0:0:0:0:
320,192,58474,128,2,59737:0:0:0:0:
192,192,58474,1,0,0:0:0:0:
448,192,58632,1,2,0:0:0:0:
64,192,58790,1,8,0:0:0:0:
192,192,58790,1,0,0:0:0:0:
448,192,59105,1,2,0:0:0:0:
192,192,59263,1,2,0:0:0:0:
64,192,59421,1,8,0:0:0:0:
448,192,59421,1,0,0:0:0:0:
192,192,59737,128,2,60684:0:0:0:0:
64,192,59737,1,0,0:0:0:0:
448,192,60053,1,8,0:0:0:0:
320,192,60053,1,0,0:0:0:0:
64,192,60369,1,2,0:0:0:0:
320,192,60526,1,2,0:0:0:0:
448,192,60684,128,8,61316:0:0:0:0:
64,192,60684,1,0,0:0:0:0:
320,192,61000,1,2,0:0:0:0:
192,192,61316,128,8,61632:0:0:0:0:
64,192,61316,1,0,0:0:0:0:
64,192,61632,128,2,61947:0:0:0:0:
320,192,61632,1,0,0:0:0:0:
448,192,61790,1,2,0:0:0:0:
320,192,61947,128,8,62263:0:0:0:0:
192,192,61947,1,0,0:0:0:0:
448,192,62263,128,2,63526:0:0:0:0:
64,192,62263,1,0,0:0:0:0:
192,192,62579,1,8,0:0:0:0:
320,192,62579,1,0,0:0:0:0:
64,192,62895,1,2,0:0:0:0:
320,192,63053,1,2,0:0:0:0:
192,192,63211,1,8,0:0:0:0:
64,192,63211,1,0,0:0:0:0:
320,192,63526,128,2,64790:0:0:0:0:
192,192,63526,1,0,0:0:0:0:
64,192,63684,1,2,0:0:0:0:
192,192,63842,1,8,0:0:0:0:
448,192,63842,1,0,0:0:0:0:
64,192,64158,1,2,0:0:0:0:
448,192,64316,1,2,0:0:0:0:
64,192,64474,1,8,0:0:0:0:
192,192,64474,1,0,0:0:0:0:
192,192,64790,128,2,66053:0:0:0:0:
448,192,64790,1,0,0:0:0:0:
64,192,65105,1,8,0:0:0:0:
448,192,65105,1,0,0:0:0:0:
320,192,65421,1,2,0:0:0:0:
64,192,65579,1,2,0:0:0:0:
320,192,65737,1,8,0:0:0:0:
448,192,65737,1,0,0:0:0:0:
64,192,66053,1,4,0:0:0:0:
448,192,66053,1,8,0:0:0:0:
320,192,66211,1,2,0:0:0:0:
64,192,66369,1,0,0:0:0:0:
320,192,66526,1,8,0:0:0:0:
448,192,66526,1,0,0:0:0:0:
192,192,66684,1,0,0:0:0:0:
448,192,66842,1,2,0:0:0:0:
192,192,67000,1,8,0:0:0:0:
64,192,67000,1,4,0:0:0:0:
448,192,67316,1,2,0:0:0:0:
64,192,67316,128,4,67947:0:0:0:0:
320,192,67316,1,0,0:0:0:0:
320,192,67632,1,8,0:0:0:0:
192,192,67632,1,0,0:0:0:0:
192,192,67947,128,2,68579:0:0:0:0:
448,192,67947,1,0,0:0:0:0:
320,192,68105,1,2,0:0:0:0:
64,192,68263,1,8,0:0:0:0:
448,192,68263,1,0,0:0:0:0:
448,192,68579,128,2,69211:0:0:0:0:
320,192,68579,1,0,0:0:0:0:
64,192,68737,1,2,0:0:0:0:
192,192,68895,1,8,0:0:0:0:
320,192,68895,1,0,0:0:0:0:
64,192,69211,1,2,0:0:0:0:
320,192,69369,1,2,0:0:0:0:
64,192,69526,1,8,0:0:0:0:
192,192,69526,1,0,0:0:0:0:
192,192,69842,128,2,70474:0:0:0:0:
448,192,69842,1,0,0:0:0:0:
64,192,70158,1,8,0:0:0:0:
448,192,70158,1,0,0:0:0:0:
448,192,70474,128,2,71105:0:0:0:0:
320,192,70474,1,0,0:0:0:0:
64,192,70632,1,2,0:0:0:0:
192,192,70790,1,8,0:0:0:0:
320,192,70790,1,0,0:0:0:0:
320,192,71105,128,2,71737:0:0:0:0:
64,192,71105,1,0,0:0:0:0:
192,192,71263,1,2,0:0:0:0:
64,192,71421,1,8,0:0:0:0:
448,192,71421,1,0,0:0:0:0:
448,192,71737,1,2,0:0:0:0:
64,192,71737,128,0,72369:0:0:0:0:
192,192,71895,1,2,0:0:0:0:
320,192,72053,1,8,0:0:0:0:
448,192,72053,1,0,0:0:0:0:
192,192,72369,1,4,0:0:0:0:
320,192,72369,1,8,0:0:0:0:
192,192,72684,1,8,0:0:0:0:
64,192,72684,1,0,0:0:0:0:
320,192,72842,1,0,0:0:0:0:
448,192,73000,1,0,0:0:0:0:
192,192,73158,1,2,0:0:0:0:
64,192,73316,1,8,0:0:0:0:
320,192,73316,1,0,0:0:0:0:
448,192,73474,1,0,0:0:0:0:
64,192,73632,1,2,0:0:0:0:
192,192,73790,1,0,0:0:0:0:
320,192,73947,1,8,0:0:0:0:
448,192,73947,1,0,0:0:0:0:
192,192,74105,1,0,0:0:0:0:
64,192,74263,128,2,74579:0:0:0:0:
448,192,74263,1,0,0:0:0:0:
320,192,74421,1,2,0:0:0:0:
448,192,74579,1,8,0:0:0:0:
192,192,74579,128,0,74895:0:0:0:0:
64,192,74737,1,2,0:0:0:0:
448,192,74895,128,4,75369:0:0:0:0:
320,192,74895,1,8,0:0:0:0:
64,192,75053,1,0,0:0:0:0:
192,192,75211,1,2,0:0:0:0:
320,192,75369,128,8,75842:0:0:0:0:
64,192,75369,1,0,0:0:0:0:
448,192,75526,1,0,0:0:0:0:
192,192,75684,1,2,0:0:0:0:
64,192,75842,128,8,76000:0:0:0:0:
448,192,75842,1,0,0:0:0:0:
192,192,76000,128,0,76158:0:0:0:0:
448,192,76158,128,8,76474:0:0:0:0:
320,192,76158,1,0,0:0:0:0:
64,192,76316,1,2,0:0:0:0:
192,192,76474,1,8,0:0:0:0:
320,192,76474,1,0,0:0:0:0:
320,192,76632,1,2,0:0:0:0:
64,192,76790,1,8,0:0:0:0:
448,192,76790,1,0,0:0:0:0:
192,192,76947,1,2,0:0:0:0:
320,192,77026,1,2,0:0:0:0:
64,192,77105,1,8,0:0:0:0:
448,192,77105,1,0,0:0:0:0:
192,192,77421,128,8,78684:0:0:0:0:
448,192,77421,1,4,0:0:0:0:
320,192,77421,1,0,0:0:0:0:
64,192,77737,1,8,0:0:0:0:
320,192,77737,1,0,0:0:0:0:
448,192,78053,1,2,0:0:0:0:
64,192,78211,1,2,0:0:0:0:
320,192,78369,1,8,0:0:0:0:
448,192,78369,1,0,0:0:0:0:
448,192,78684,128,2,79947:0:0:0:0:
320,192,78684,1,0,0:0:0:0:
64,192,79000,1,8,0:0:0:0:
192,192,79000,1,0,0:0:0:0:
320,192,79316,1,2,0:0:0:0:
64,192,79474,1,2,0:0:0:0:
192,192,79632,1,8,0:0:0:0:
320,192,79632,1,0,0:0:0:0:
64,192,79947,128,2,81211:0:0:0:0:
192,192,79947,1,0,0:0:0:0:
320,192,80263,1,8,0:0:0:0:
448,192,80263,1,0,0:0:0:0:
192,192,80579,1,2,0:0:0:0:
320,192,80737,1,2,0:0:0:0:
192,192,80895,1,8,0:0:0:0:
448,192,80895,1,0,0:0:0:0:
320,192,81211,128,2,81842:0:0:0:0:
448,192,81211,1,0,0:0:0:0:
64,192,81526,1,8,0:0:0:0:
192,192,81526,1,0,0:0:0:0:
192,192,81842,128,2,82474:0:0:0:0:
448,192,81842,1,0,0:0:0:0:
64,192,82000,1,2,0:0:0:0:
320,192,82158,1,8,0:0:0:0:
448,192,82158,1,0,0:0:0:0:
64,192,82474,128,2,82790:0:0:0:0:
448,192,82474,1,0,0:0:0:0:
448,192,82632,1,0,0:0:0:0:
320,192,82790,128,8,83105:0:0:0:0:
192,192,82790,1,0,0:0:0:0:
64,192,82947,1,0,0:0:0:0:
448,192,83105,1,2,0:0:0:0:
192,192,83263,1,2,0:0:0:0:
320,192,83421,1,8,0:0:0:0:
448,192,83421,1,0,0:0:0:0:
64,192,83579,1,0,0:0:0:0:
192,192,83737,128,2,84053:0:0:0:0:
448,192,83737,1,0,0:0:0:0:
448,192,83895,1,2,0:0:0:0:
64,192,84053,1,8,0:0:0:0:
320,192,84053,1,0,0:0:0:0:
448,192,84211,1,0,0:0:0:0:
320,192,84369,1,2,0:0:0:0:
64,192,84369,128,0,84684:0:0:0:0:
320,192,84526,1,2,0:0:0:0:
448,192,84684,1,8,0:0:0:0:
192,192,84684,1,0,0:0:0:0:
64,192,85000,1,2,0:0:0:0:
448,192,85000,128,0,85316:0:0:0:0:
192,192,85316,1,8,0:0:0:0:
320,192,85316,1,0,0:0:0:0:
64,192,85632,1,2,0:0:0:0:
320,192,85790,1,2,0:0:0:0:
192,192,85947,1,8,0:0:0:0:
448,192,85947,1,0,0:0:0:0:
64,192,86105,1,0,0:0:0:0:
320,192,86263,1,8,0:0:0:0:
448,192,86263,1,0,0:0:0:0:
192,192,86421,1,2,0:0:0:0:
448,192,86579,1,0,0:0:0:0:
64,192,86737,1,8,0:0:0:0:
320,192,86737,1,0,0:0:0:0:
192,192,86895,1,0,0:0:0:0:
448,192,87053,1,2,0:0:0:0:
192,192,87211,1,8,0:0:0:0:
64,192,87211,1,4,0:0:0:0:
320,192,87369,1,0,0:0:0:0:
64,192,87526,1,2,0:0:0:0:
448,192,87526,128,4,87842:0:0:0:0:
192,192,87842,1,2,0:0:0:0:
320,192,88000,1,2,0:0:0:0:
64,192,88158,1,2,0:0:0:0:
448,192,88316,1,2,0:0:0:0:
192,192,88474,128,8,88947:0:0:0:0:
64,192,88474,1,0,0:0:0:0:
320,192,88474,1,4,0:0:0:0:
320,192,88947,1,2,0:0:0:0:
64,192,89105,1,8,0:0:0:0:
448,192,89105,1,0,0:0:0:0:
192,192,89263,1,0,0:0:0:0:
320,192,89421,1,2,0:0:0:0:
64,192,89579,1,2,0:0:0:0:
448,192,89737,1,2,0:0:0:0:
320,192,89737,128,0,90053:0:0:0:0:
64,192,90053,1,8,0:0:0:0:
192,192,90053,1,0,0:0:0:0:
448,192,90211,1,2,0:0:0:0:
192,192,90369,1,2,0:0:0:0:
320,192,90526,1,2,0:0:0:0:
64,192,90684,1,8,0:0:0:0:
448,192,90842,1,2,0:0:0:0:
64,192,91000,128,4,91474:0:0:0:0:
192,192,91000,1,8,0:0:0:0:
320,192,91000,1,0,0:0:0:0:
448,192,91316,1,0,0:0:0:0:
192,192,91474,1,2,0:0:0:0:
320,192,91632,1,8,0:0:0:0:
448,192,91632,1,0,0:0:0:0:
192,192,91947,128,2,92263:0:0:0:0:
320,192,91947,1,0,0:0:0:0:
448,192,92105,1,2,0:0:0:0:
64,192,92263,1,8,0:0:0:0:
320,192,92263,1,0,0:0:0:0:
448,192,92579,128,4,92895:0:0:0:0:
64,192,92579,1,2,0:0:0:0:
320,192,92737,1,0,0:0:0:0:
64,192,92895,1,8,0:0:0:0:
192,192,92895,1,0,0:0:0:0:
320,192,93053,128,0,93369:0:0:0:0:
448,192,93211,1,0,0:0:0:0:
192,192,93369,128,2,93842:0:0:0:0:
64,192,93369,1,0,0:0:0:0:
320,192,93526,1,8,0:0:0:0:
448,192,93526,1,0,0:0:0:0:
448,192,93842,128,2,94790:0:0:0:0:
64,192,93842,1,0,0:0:0:0:
320,192,94158,1,8,0:0:0:0:
192,192,94158,1,0,0:0:0:0:
64,192,94474,1,0,0:0:0:0:
320,192,94632,1,2,0:0:0:0:
64,192,94790,1,8,0:0:0:0:
192,192,94790,1,0,0:0:0:0:
320,192,94947,1,2,0:0:0:0:
192,192,95105,128,8,96053:0:0:0:0:
448,192,95105,1,4,0:0:0:0:
320,192,95421,1,2,0:0:0:0:
64,192,95579,1,8,0:0:0:0:
448,192,95579,1,0,0:0:0:0:
320,192,95737,1,0,0:0:0:0:
64,192,95895,1,2,0:0:0:0:
320,192,96053,128,8,96369:0:0:0:0:
448,192,96053,1,0,0:0:0:0:
64,192,96211,1,0,0:0:0:0:
192,192,96369,1,8,0:0:0:0:
448,192,96369,1,0,0:0:0:0:
320,192,96526,1,2,0:0:0:0:
192,192,96684,1,8,0:0:0:0:
64,192,96684,1,0,0:0:0:0:
448,192,96842,1,2,0:0:0:0:
192,192,97000,1,8,0:0:0:0:
320,192,97000,128,0,97158:0:0:0:0:
64,192,97158,1,0,0:0:0:0:
448,192,97237,1,0,0:0:0:0:
64,192,97316,1,8,0:0:0:0:
192,192,97316,128,4,97632:0:0:0:0:
320,192,97632,1,4,0:0:0:0:
448,192,97632,1,2,0:0:0:0:
64,192,97632,1,0,0:0:0:0:
64,192,97951,1,8,0:0:0:0:
448,192,97951,1,0,0:0:0:0:
192,192,98270,1,2,0:0:0:0:
320,192,98429,1,2,0:0:0:0:
64,192,98589,1,8,0:0:0:0:
192,192,98589,1,0,0:0:0:0:
448,192,98749,128,4,99223:0:0:0:0:
320,192,98749,1,8,0:0:0:0:
192,192,99065,1,2,0:0:0:0:
320,192,99223,1,0,0:0:0:0:
64,192,99223,1,8,0:0:0:0:
320,192,99539,1,8,0:0:0:0:
192,192,99539,1,0,0:0:0:0:
448,192,99697,1,2,0:0:0:0:
320,192,99776,1,2,0:0:0:0:
64,192,99855,1,8,0:0:0:0:
192,192,99855,1,0,0:0:0:0:
320,192,100013,1,0,0:0:0:0:
448,192,100171,1,8,0:0:0:0:
64,192,100171,1,4,0:0:0:0:
192,192,100329,1,0,0:0:0:0:
448,192,100486,1,2,0:0:0:0:
64,192,100644,1,8,0:0:0:0:
320,192,100644,1,0,0:0:0:0:
192,192,100802,1,0,0:0:0:0:
320,192,100960,1,2,0:0:0:0:
448,192,101118,1,8,0:0:0:0:
192,192,101118,1,0,0:0:0:0:
64,192,101276,1,0,0:0:0:0:
192,192,101434,1,8,0:0:0:0:
320,192,101434,1,4,0:0:0:0:
448,192,101592,1,2,0:0:0:0:
192,192,101750,1,8,0:0:0:0:
320,192,101750,1,0,0:0:0:0:
64,192,101908,128,0,102065:0:0:0:0:
320,192,102065,1,8,0:0:0:0:
448,192,102065,128,0,102223:0:0:0:0:
64,192,102223,1,0,0:0:0:0:
192,192,102302,1,0,0:0:0:0:
448,192,102381,128,4,102697:0:0:0:0:
320,192,102381,1,8,0:0:0:0:
64,192,102539,128,0,102697:0:0:0:0:
320,192,102697,1,4,0:0:0:0:
192,192,102697,1,0,0:0:0:0:
64,192,102855,1,0,0:0:0:0:
448,192,103013,1,0,0:0:0:0:
320,192,103013,1,8,0:0:0:0:
64,192,103171,1,0,0:0:0:0:
448,192,103329,1,2,0:0:0:0:
192,192,103486,1,2,0:0:0:0:
448,192,103644,128,8,103802:0:0:0:0:
64,192,103644,1,0,0:0:0:0:
192,192,103802,128,2,103960:0:0:0:0:
448,192,103960,128,0,104118:0:0:0:0:
192,192,104118,128,2,104276:0:0:0:0:
64,192,104276,128,8,104434:0:0:0:0:
320,192,104276,1,0,0:0:0:0:
448,192,104434,128,0,104592:0:0:0:0:
192,192,104592,1,2,0:0:0:0:
64,192,104671,1,2,0:0:0:0:
448,192,104750,1,2,0:0:0:0:
320,192,104829,1,2,0:0:0:0:
192,192,104908,1,4,0:0:0:0:
64,192,104908,1,8,0:0:0:0:
64,192,105223,1,8,0:0:0:0:
448,192,105223,1,4,0:0:0:0:
192,192,105381,1,0,0:0:0:0:
320,192,105460,1,2,0:0:0:0:
64,192,105539,1,8,0:0:0:0:
448,192,105539,1,0,0:0:0:0:
320,192,105697,1,0,0:0:0:0:
192,192,105776,1,8,0:0:0:0:
64,192,105855,1,8,0:0:0:0:
448,192,105855,1,0,0:0:0:0:
320,192,106013,1,2,0:0:0:0:
192,192,106013,128,0,106171:0:0:0:0:
64,192,106171,1,2,0:0:0:0:
448,192,106329,1,8,0:0:0:0:
192,192,106329,1,0,0:0:0:0:
320,192,106329,128,4,107110:0:0:0:0:
448,192,107110,1,0,0:0:0:0:
64,192,107110,1,8,0:0:0:0:
64,192,107266,1,8,0:0:0:0:
448,192,107266,1,0,0:0:0:0:
320,192,107422,1,2,0:0:0:0:
192,192,107422,1,0,0:0:0:0:
64,192,107579,128,4,114141:0:0:0:0:
448,192,107579,128,2,114141:0:0:0:0:
192,192,107579,1,8,0:0:0:0:
