osu file format v14

[General]
AudioFilename: audio.mp3
AudioLeadIn: 0
PreviewTime: 56199
Countdown: 0
SampleSet: Normal
StackLeniency: 0.7
Mode: 0
LetterboxInBreaks: 0
WidescreenStoryboard: 1

[Editor]
Bookmarks: 97653,107758,208811,217495,276547
DistanceSpacing: 1.1
BeatDivisor: 4
GridSize: 32
TimelineZoom: 1

[Metadata]
Title:Catch the Moment
TitleUnicode:Catch the Moment
Artist:LiSA
ArtistUnicode:LiSA
Creator:Delis
Version:Satellite's Easy
Source:劇場版 ソードアート・オンライン -オーディナル・スケール-
Tags:sword art online sao movie ordinal scale asuna Dagger-Gazel Satellite
BeatmapID:1214271
BeatmapSetID:572897

[Difficulty]
HPDrainRate:2
CircleSize:3
OverallDifficulty:2
ApproachRate:3
SliderMultiplier:0.799999999999999
SliderTickRate:1

[Events]
//Background and Video events
0,0,"BG.jpg",0,0
//Break Periods
2,97847,106325
2,209027,216215
2,257011,257911
//Storyboard Layer 0 (Background)
//Storyboard Layer 1 (Fail)
//Storyboard Layer 2 (Pass)
//Storyboard Layer 3 (Foreground)
//Storyboard Sound Samples

[TimingPoints]
390,315.789473684211,4,2,1,50,1,0
10258,-100,4,1,1,60,0,0
19337,314.13612565445,4,1,1,60,1,0
21858,315.789473684211,4,2,1,60,1,0
21858,-100,4,2,1,60,0,0
30384,-100,4,1,1,60,0,0
31568,-100,4,1,1,70,0,0
41831,-100,4,2,1,70,0,0
44594,322.58064516129,4,2,1,70,1,0
45884,319.148936170213,4,2,1,70,1,0
47160,306.122448979592,4,2,1,70,1,0
48384,315.789473684211,4,2,1,70,1,0
51147,-100,4,1,1,70,0,0
57226,-100,4,1,1,80,0,0
97489,-100,4,1,1,70,0,0
97647,319.148936170213,4,1,1,70,1,0
98923,315.789473684211,4,1,1,70,1,0
117870,-100,4,2,1,70,0,0
127975,319.148936170213,4,1,1,70,1,0
127975,-100,4,1,1,70,0,0
129251,312.5,4,1,1,70,1,0
131751,319.148936170213,4,2,1,50,1,0
133027,315.789473684211,4,1,1,80,1,0
133027,-100,4,1,1,80,0,0
148184,312.5,4,1,1,80,1,0
149434,315.789473684211,4,1,1,80,1,0
160802,319.148936170213,4,1,1,80,1,0
162078,315.789473684211,4,1,1,80,1,0
163262,-100,4,1,1,70,0,0
172183,309.278350515464,4,1,1,70,1,0
173188,-102.145045965271,4,1,1,70,0,0
173420,319.148936170213,4,1,1,70,1,0
174377,-99.009900990099,4,1,1,70,0,0
174696,315.789473684211,4,1,1,70,1,0
183301,-101.010101010101,4,1,1,70,0,0
183538,319.148936170213,4,1,1,70,1,0
186091,315.789473684211,4,1,1,70,1,0
186959,-99.7008973080758,4,1,1,70,0,0
187354,312.5,4,1,1,70,1,0
188604,315.789473684211,4,1,1,70,1,0
193104,-100,4,1,1,60,0,0
193656,-100,4,1,1,70,0,0
207551,319.148936170213,4,2,1,70,1,0
208827,315.789473684211,4,1,1,70,1,0
216405,312.5,4,1,1,60,1,0
217655,315.789473684211,4,1,1,60,1,0
218918,312.5,4,2,1,50,1,0
219232,-100,4,2,1,70,0,0
219777,-100.704934541793,4,2,1,70,0,0
220168,315.789473684211,4,2,1,50,1,0
221431,319.148936170213,4,2,1,50,1,0
222707,315.789473684211,4,2,1,50,1,0
223970,319.148936170213,4,2,1,70,1,0
225246,315.789473684211,4,2,1,70,1,0
226509,312.5,4,2,1,70,1,0
229009,315.789473684211,4,1,1,80,1,0
229009,-100,4,1,1,80,0,0
237851,322.58064516129,4,1,1,80,1,0
239141,315.789473684211,4,1,1,80,1,0
245456,312.5,4,1,1,80,1,0
246706,315.789473684211,4,1,1,80,1,0
254284,309.278350515464,4,1,1,80,1,0
255521,322.58064516129,4,2,1,50,1,0
258047,319.148936170213,4,2,1,50,1,0
259351,312.5,4,1,1,70,1,0
259351,-100,4,1,1,70,0,0
260366,-101.010101010101,4,1,1,70,0,0
260601,315.789473684211,4,1,1,70,1,0
268022,312.5,4,1,1,70,1,0
269428,-100,4,1,0,5,0,0
271850,-100,4,1,0,20,0,0
275365,-100,4,1,0,10,0,0

[Colours]
Combo1 : 145,185,130
Combo2 : 65,163,146
Combo3 : 79,158,255
Combo4 : 232,134,45

[HitObjects]
71,320,390,6,0,B|161:328|136:285|226:293,1,160,2|2,0:0|0:0,0:0:0:0:
298,343,1337,1,2,0:0:0:0:
382,318,1653,2,0,P|394:261|395:152,1,160,2|2,0:0|0:0,0:0:0:0:
263,43,2916,6,0,P|251:100|250:209,1,160,2|2,0:0|0:0,0:0:0:0:
311,263,3863,1,2,0:0:0:0:
391,227,4179,2,0,P|443:213|484:216,2,79.9999999999999,2|2|2,0:0|0:0|0:0,0:0:0:0:
253,336,5442,6,0,P|221:303|110:299,1,160,2|2,0:0|0:0,0:0:0:0:
48,358,6390,1,2,0:0:0:0:
30,271,6705,2,0,P|23:212|24:108,1,160,2|2,0:0|0:0,0:0:0:0:
188,49,7968,6,0,P|195:97|196:134,2,79.9999999999999,2|2|2,0:0|0:0|0:0,0:0:0:0:
107,12,8916,1,2,0:0:0:0:
111,99,9232,1,2,3:2:0:0:
111,99,10495,6,0,B|153:109|153:109|188:96|188:96|219:115|219:115|265:105,1,160,8|8,0:0|3:1,0:0:0:0:
345,129,11442,1,8,0:0:0:0:
398,58,11758,6,0,P|429:101|391:205,1,160,4|2,0:0|0:3,0:0:0:0:
268,212,12863,2,0,B|281:254|281:254|266:334,1,120,2|0,1:0|0:0,0:0:0:0:
182,354,13653,1,0,0:0:0:0:
98,379,13968,1,8,0:0:0:0:
32,320,14284,6,0,B|21:241|21:241|45:197,2,120,4|8|8,0:2|0:0|0:0,0:0:0:0:
98,379,15547,1,8,0:0:0:0:
182,354,15863,1,8,0:0:0:0:
267,329,16179,2,0,L|354:333,1,79.9999999999999,2|4,0:0|0:2,0:0:0:0:
432,356,16811,6,0,B|440:266|397:291|404:201,1,160,4|2,0:0|0:3,0:0:0:0:
447,124,17758,1,8,0:0:0:0:
480,206,18074,2,0,P|441:214|404:201,1,79.9999999999999,2|8,0:0|0:0,0:0:0:0:
355,127,18705,2,0,L|364:83,2,40,8|0|12,3:0|0:0|0:1,0:0:0:0:
274,162,19337,6,0,P|225:158|156:181,1,120,8|0,0:0|1:0,0:0:0:0:
95,240,20122,1,2,0:0:0:0:
28,299,20436,6,0,P|154:304|158:179,1,280,4|12,0:0|0:2,0:0:0:0:
117,102,21858,6,0,P|73:165|94:239,1,160,4|2,1:0|0:0,0:0:0:0:
179,266,22805,1,0,0:0:0:0:
243,206,23121,2,0,P|290:169|382:189,1,160,0|2,0:0|0:3,0:0:0:0:
328,359,24384,6,0,P|306:305|320:247,2,120,2|2|2,1:0|1:0|1:1,0:0:0:0:
393,299,25647,1,2,0:3:0:0:
217,301,26279,2,0,L|126:301,1,79.9999999999999,2|2,0:0|0:0,0:0:0:0:
52,325,26910,6,0,B|44:235|87:260|79:169,1,160,0|2,1:0|0:2,0:0:0:0:
186,30,28173,2,0,B|178:120|221:95|213:185,1,160,2|2,0:0|0:0,0:0:0:0:
177,265,29121,1,2,0:3:0:0:
117,332,29436,6,0,P|87:261|124:194,1,160,2|10,1:0|1:0,0:0:0:0:
213,185,30384,2,0,B|293:182|293:182|358:228|358:228|421:177|421:177|503:173,1,320,8|8,0:0|0:0,0:0:0:0:
508,85,31963,6,0,L|333:93,1,160,4|2,0:0|0:1,0:0:0:0:
276,40,32910,1,8,0:0:0:0:
190,62,33226,2,0,B|182:102|182:102|189:146,1,79.9999999999999,2|8,0:3|0:0,0:0:0:0:
236,213,33858,2,0,B|244:253|244:253|237:297,1,79.9999999999999,2|8,0:3|0:0,0:0:0:0:
155,258,34489,6,0,L|22:254,2,120,2|2|10,0:0|0:0|0:0,0:0:0:0:
164,345,35752,1,2,0:3:0:0:
339,330,36384,2,0,B|345:291|345:291|337:251,1,79.9999999999999,2|10,0:0|0:0,0:0:0:0:
270,193,37015,6,0,P|325:224|417:203,1,160,4|2,0:2|0:3,0:0:0:0:
478,142,37963,1,8,0:0:0:0:
390,130,38279,2,0,P|396:169|416:204,1,79.9999999999999,2|8,0:0|0:0,0:0:0:0:
501,226,38910,2,0,P|482:265|452:287,1,79.9999999999999,2|8,0:3|0:0,0:0:0:0:
365,279,39542,6,0,B|207:267|207:267|189:306,1,200,4|10,0:2|0:1,0:0:0:0:
250,368,40647,2,0,B|287:350|287:350|275:192,1,200,6|8,0:0|0:3,0:0:0:0:
163,122,41910,6,0,L|173:247,1,120,4|0,0:0|3:0,0:0:0:0:
252,279,42700,1,0,3:0:0:0:
338,179,43173,2,0,P|398:171|459:199,1,120,4|0,0:0|3:0,0:0:0:0:
461,279,43963,2,0,P|421:277|389:255,1,79.9999999999999,0|8,3:0|3:0,0:0:0:0:
451,193,44594,5,4,0:0:0:0:
395,359,45239,1,4,0:0:0:0:
229,302,45884,1,4,0:0:0:0:
286,136,46522,1,4,0:0:0:0:
369,164,46841,1,4,0:3:0:0:
342,248,47160,5,4,0:0:0:0:
192,154,47772,1,0,1:0:0:0:
349,75,48384,1,2,0:0:0:0:
349,162,48699,2,0,P|307:152|277:125,2,79.9999999999999,0|8|2,0:0|0:1|0:0,0:0:0:0:
431,131,49647,6,0,B|443:176|425:207|425:207|441:245|419:285,1,160,8|2,0:1|0:0,0:0:0:0:
351,342,50594,2,0,P|287:306|195:309,1,160,8|8,0:1|0:3,0:0:0:0:
122,343,51541,2,0,L|112:386,2,40,8|0|4,0:3|0:0|0:3,0:0:0:0:
55,285,52173,6,0,P|45:225|48:188,1,79.9999999999999,4|8,0:0|0:0,0:0:0:0:
82,125,52805,1,8,0:0:0:0:
131,197,53120,1,8,0:0:0:0:
215,172,53436,2,0,P|275:169|309:171,1,79.9999999999999,8|8,0:0|0:0,0:0:0:0:
375,206,54068,1,8,0:0:0:0:
367,118,54384,1,8,0:0:0:0:
294,169,54699,6,0,P|322:277|433:272,1,240,4|10,0:2|0:0,0:0:0:0:
375,206,55962,1,10,0:0:0:0:
240,319,56594,2,0,L|234:376,2,40,8|0|12,3:0|3:0|1:1,0:0:0:0:
316,275,57226,6,0,L|156:288,1,160,4|2,0:0|0:3,0:0:0:0:
90,346,58173,1,2,0:0:0:0:
15,299,58489,2,0,P|6:232|8:137,1,160,2|2,0:0|0:3,0:0:0:0:
43,59,59436,1,10,0:0:0:0:
124,92,59752,6,0,B|207:111|194:61|280:82,1,160,2|2,0:0|0:3,0:0:0:0:
348,138,60699,2,0,P|365:174|276:229,1,160,10|10,0:0|0:0,0:0:0:0:
200,208,61647,2,0,P|144:201|114:216,1,79.9999999999999,2|10,0:0|0:0,0:0:0:0:
68,278,62278,6,0,L|20:283,2,40,2|0|10,0:0|0:0|0:0,0:0:0:0:
127,342,62910,2,0,L|211:332,1,79.9999999999999,2|10,0:3|0:0,0:0:0:0:
293,344,63541,2,0,L|298:392,2,40,2|0|10,0:0|0:0|0:0,0:0:0:0:
357,285,64173,2,0,L|347:201,1,79.9999999999999,2|10,0:3|0:0,0:0:0:0:
421,157,64805,6,0,L|442:323,1,160,2|2,0:0|0:3,0:0:0:0:
375,374,65752,1,10,0:0:0:0:
293,344,66068,2,0,P|232:338|171:335,2,120,4|8|4,0:0|0:0|0:2,0:0:0:0:
375,374,67331,5,4,0:0:0:0:
441,315,67647,2,0,L|429:222,1,79.9999999999999,8|8,0:1|3:3,0:0:0:0:
418,149,68278,2,0,P|357:158|258:185,1,160,8|8,0:1|0:0,0:0:0:0:
193,239,69226,2,0,L|182:287,2,40,8|4|8,0:3|0:3|0:0,0:0:0:0:
123,184,69857,5,4,0:3:0:0:
149,100,70173,2,0,P|188:94|238:87,1,79.9999999999999,8|8,0:0|3:3,0:0:0:0:
310,55,70805,2,0,P|311:125|325:220,1,160,8|8,0:1|0:0,0:0:0:0:
382,279,71752,2,0,L|377:326,2,40,8|4|8,0:3|0:3|0:0,0:0:0:0:
458,238,72384,6,0,P|397:191|323:213,1,160,4|2,0:0|0:0,0:0:0:0:
298,297,73331,1,10,0:0:0:0:
382,279,73647,2,0,L|362:112,1,160,4|0,0:2|0:0,0:0:0:0:
316,45,74594,1,8,0:0:0:0:
236,82,74910,6,0,P|141:88|110:87,2,120,12|8|8,0:0|0:0|0:0,0:0:0:0:
316,45,76173,1,8,0:0:0:0:
362,120,76489,2,0,L|374:207,2,79.9999999999999,8|10|12,0:0|0:0|0:0,0:0:0:0:
316,45,77436,6,0,P|375:30|448:98,1,160,4|2,0:0|0:3,0:0:0:0:
432,176,78384,1,10,0:0:0:0:
350,144,78699,2,0,P|291:129|218:197,1,160,2|2,0:0|0:3,0:0:0:0:
234,275,79647,1,10,0:0:0:0:
317,284,79962,6,0,P|293:210|220:188,1,160,2|2,0:0|0:3,0:0:0:0:
152,245,80910,2,0,P|177:175|165:89,1,160,10|8,0:0|0:0,0:0:0:0:
115,19,81857,2,0,P|90:46|78:95,1,79.9999999999999,2|10,0:3|0:0,0:0:0:0:
90,174,82489,6,0,L|81:219,2,40,2|0|10,0:0|0:0|0:0,0:0:0:0:
177,169,83120,2,0,L|262:163,1,79.9999999999999,2|8,0:3|0:0,0:0:0:0:
319,100,83752,2,0,L|310:55,2,40,2|0|10,0:0|0:0|0:0,0:0:0:0:
392,148,84384,2,0,L|381:235,1,79.9999999999999,2|10,0:3|0:0,0:0:0:0:
299,258,85015,6,0,L|319:96,1,160,2|0,0:0|0:0,0:0:0:0:
372,29,85962,1,10,0:0:0:0:
453,61,86278,2,0,P|484:145|491:179,2,120,14|8|10,0:0|0:0|0:0,0:0:0:0:
372,29,87541,5,4,0:0:0:0:
299,79,87857,2,0,P|257:73|206:64,1,79.9999999999999,2|2,0:2|0:2,0:0:0:0:
136,38,88489,2,0,P|142:127|135:213,1,160,4|8,0:0|0:0,0:0:0:0:
100,277,89436,1,2,0:3:0:0:
19,241,89752,1,10,0:0:0:0:
56,161,90068,6,0,L|54:120,2,40,8|8|2,0:0|0:3|0:0,0:0:0:0:
137,197,90699,1,10,0:0:0:0:
216,158,91015,6,0,L|211:76,2,79.9999999999999,4|0|8,0:0|0:0|0:3,0:0:0:0:
291,203,91962,2,0,L|292:242,2,40,2|2|12,0:3|0:3|0:0,0:0:0:0:
379,195,92594,6,0,L|370:35,1,160,4|0,0:2|0:0,0:0:0:0:
289,71,93541,1,8,0:0:0:0:
207,38,93857,2,0,P|154:40|121:132,1,160,2|2,0:2|0:0,0:0:0:0:
170,201,94805,1,10,0:0:0:0:
250,165,95120,6,0,P|313:155|371:152,2,120,6|10|10,0:0|0:0|0:0,0:0:0:0:
170,201,96384,1,8,0:0:0:0:
112,134,96699,1,8,0:0:0:0:
159,59,97015,2,0,L|147:16,2,40,2|2|4,0:2|0:3|0:2,0:0:0:0:
245,76,97647,5,4,0:0:0:0:
202,329,107765,6,0,P|195:285|192:248,1,79.9999999999999,4|8,0:0|0:0,0:0:0:0:
239,175,108396,2,0,P|277:193|378:137,2,160,0|0|0,0:0|0:0|0:0,0:0:0:0:
212,91,109975,1,8,0:0:0:0:
274,30,110291,6,0,P|293:65|295:104,1,79.9999999999999,2|8,0:2|0:0,0:0:0:0:
239,175,110923,2,0,P|169:168|78:169,2,160,0|2|2,0:0|0:2|0:2,0:0:0:0:
293,244,112501,1,8,0:0:0:0:
362,189,112817,6,0,L|369:150,2,40,2|0|10,0:2|0:0|0:0,0:0:0:0:
377,275,113449,2,0,L|403:311,2,40,2|0|10,0:2|0:0|0:0,0:0:0:0:
293,244,114080,2,0,L|206:263,1,79.9999999999999,2|10,0:2|0:0,0:0:0:0:
161,331,114712,2,0,L|74:315,1,79.9999999999999,2|10,0:2|0:0,0:0:0:0:
18,255,115344,6,0,P|13:197|9:136,2,120,12|8|8,0:0|0:0|0:0,0:0:0:0:
82,316,116607,1,4,0:2:0:0:
161,278,116923,2,0,L|205:273,2,40,8|4|4,0:3|0:3|0:0,0:0:0:0:
101,112,117870,6,0,P|202:120|274:123,2,160,4|2|2,0:0|3:2|3:2,0:0:0:0:
51,279,119765,2,0,P|91:277|123:255,1,79.9999999999999,2|2,3:2|0:2,0:0:0:0:
61,193,120396,5,2,0:2:0:0:
117,359,121028,1,0,3:0:0:0:
283,302,121659,1,2,0:0:0:0:
226,136,122291,1,2,0:0:0:0:
143,164,122607,1,6,3:2:0:0:
170,248,122923,5,4,0:0:0:0:
320,154,123554,1,8,0:1:0:0:
163,75,124186,1,2,0:0:0:0:
163,162,124501,2,0,P|205:152|235:125,2,79.9999999999999,2|8|0,0:0|0:1|0:0,0:0:0:0:
81,131,125449,6,0,B|69:176|87:207|87:207|71:245|93:285,1,160,4|2,0:2|0:0,0:0:0:0:
161,342,126396,2,0,P|225:306|317:309,1,160,8|2,0:1|0:0,0:0:0:0:
390,343,127344,2,0,L|400:386,2,40,2|2|6,0:0|3:0|3:2,0:0:0:0:
458,287,127975,6,0,L|468:203,1,79.9999999999999,4|10,0:0|0:0,0:0:0:0:
383,235,128613,2,0,L|392:155,1,79.9999999999999,10|10,0:0|0:0,0:0:0:0:
395,67,129251,2,0,L|317:83,1,79.9999999999999,8|8,0:0|0:0,0:0:0:0:
302,170,129876,2,0,L|224:186,1,79.9999999999999,8|8,0:0|0:0,0:0:0:0:
177,261,130501,5,8,0:0:0:0:
91,240,130813,1,8,0:0:0:0:
86,152,131126,1,8,0:0:0:0:
166,116,131438,2,0,L|154:69,1,40,8|8,0:0|0:0,0:0:0:0:
77,46,133027,6,0,L|237:58,1,160,4|2,0:0|0:3,0:0:0:0:
313,101,133974,1,10,0:0:0:0:
374,38,134290,2,0,B|399:83|399:83|393:202,1,160,2|2,0:0|0:3,0:0:0:0:
346,266,135237,1,10,0:0:0:0:
269,223,135553,6,0,B|183:199|201:255|113:234,1,160,2|2,0:0|0:3,0:0:0:0:
54,169,136500,2,0,P|29:213|63:311,1,160,10|10,0:0|0:0,0:0:0:0:
149,321,137448,2,0,L|240:332,1,79.9999999999999,2|10,0:0|0:0,0:0:0:0:
302,378,138079,5,2,0:0:0:0:
383,345,138395,2,0,B|388:284|388:284|415:258|415:258|419:188,1,160,10|10,0:0|0:0,0:0:0:0:
446,113,139342,1,2,0:0:0:0:
370,71,139658,2,0,B|365:132|365:132|338:158|338:158|334:228,1,160,10|10,0:0|0:0,0:0:0:0:
255,257,140605,5,2,0:0:0:0:
201,187,140921,1,10,0:0:0:0:
122,226,141237,2,0,L|76:230,2,40,2|2|10,0:3|0:3|0:0,0:0:0:0:
126,138,141869,2,0,B|84:140|45:147|45:147|12:175,2,120,4|8|4,0:0|0:0|0:2,0:0:0:0:
201,187,143132,5,4,0:0:0:0:
287,169,143448,2,0,P|294:206|300:247,1,79.9999999999999,8|8,0:1|0:3,0:0:0:0:
310,335,144079,2,0,B|273:302|273:302|153:311,1,160,8|8,0:0|0:0,0:0:0:0:
79,281,145027,2,0,L|21:287,2,40,8|4|8,0:3|0:3|0:0,0:0:0:0:
147,225,145658,5,4,0:2:0:0:
129,139,145974,2,0,P|88:142|48:147,1,79.9999999999999,8|8,0:0|0:3,0:0:0:0:
2,71,146605,2,0,P|78:58|166:57,1,160,8|8,0:0|0:0,0:0:0:0:
235,102,147553,2,0,L|232:150,2,40,8|4|8,0:3|0:3|0:0,0:0:0:0:
242,13,148184,5,4,0:0:0:0:
315,61,148496,2,0,P|324:105|315:144,2,79.9999999999999,10|2|10,0:0|0:0|0:0,0:0:0:0:
242,13,149434,2,0,L|75:24,1,160,4|2,0:2|0:0,0:0:0:0:
115,105,150381,1,2,0:0:0:0:
27,93,150697,6,0,P|16:179|21:216,2,120,12|10|10,0:0|0:0|0:0,0:0:0:0:
115,105,151960,1,8,0:0:0:0:
82,23,152276,2,0,L|171:17,2,79.9999999999999,8|10|8,0:0|0:0|3:1,0:0:0:0:
27,93,153223,6,0,P|16:179|26:255,1,160,4|2,0:0|0:3,0:0:0:0:
64,330,154170,1,10,0:0:0:0:
145,295,154486,2,0,B|235:284|213:332|303:323,1,160,2|2,0:0|0:3,0:0:0:0:
361,261,155434,1,10,0:0:0:0:
316,183,155749,6,0,P|275:249|299:323,1,160,2|2,0:0|0:3,0:0:0:0:
383,345,156697,2,0,P|440:294|434:217,1,160,10|10,0:0|0:0,0:0:0:0:
392,140,157644,2,0,L|396:57,1,79.9999999999999,2|10,0:0|0:0,0:0:0:0:
477,28,158276,6,0,L|308:19,1,160,2|2,0:0|0:3,0:0:0:0:
246,72,159223,1,10,0:0:0:0:
182,11,159539,2,0,B|161:54|161:54|171:169,1,160,2|2,0:0|0:3,0:0:0:0:
226,234,160486,1,10,0:0:0:0:
307,199,160802,6,0,P|360:194|399:198,2,79.9999999999999,2|10|2,0:0|0:0|0:3,0:0:0:0:
226,234,161759,1,10,0:0:0:0:
170,165,162078,2,0,B|161:87|161:87|180:50,2,120,8|0|12,0:0|0:0|0:2,0:0:0:0:
226,234,163341,5,12,0:0:0:0:
307,199,163656,2,0,P|360:194|399:198,1,79.9999999999999,2|2,0:0|0:0,0:0:0:0:
452,254,164288,2,0,B|435:299|430:331|430:331|397:321|346:331,1,160,4|8,0:0|0:0,0:0:0:0:
269,363,165235,2,0,P|231:351|184:352,1,79.9999999999999,2|10,0:2|0:2,0:0:0:0:
110,315,165867,6,0,L|99:357,2,40,2|8|4,0:0|0:3|0:3,0:0:0:0:
179,260,166499,1,8,0:0:0:0:
149,177,166814,2,0,P|95:170|6:219,2,160,4|8|4,0:0|0:0|0:2,0:0:0:0:
211,238,168393,6,0,P|270:231|301:230,1,79.9999999999999,4|8,0:0|0:0,0:0:0:0:
361,282,169025,2,0,L|369:324,2,40,2|2|8,0:2|0:3|0:0,0:0:0:0:
437,237,169656,2,0,P|443:197|439:157,1,79.9999999999999,2|8,0:2|0:0,0:0:0:0:
357,191,170288,2,0,P|353:151|359:111,1,79.9999999999999,2|8,0:2|0:0,0:0:0:0:
437,70,170920,6,0,P|411:39|331:28,2,120,4|10|10,0:0|0:0|0:0,0:0:0:0:
439,157,172183,1,8,0:0:0:0:
357,191,172492,1,8,0:0:0:0:
290,133,172801,2,0,L|237:129,1,40,8|8,0:3|0:3,0:0:0:0:
170,93,173265,6,0,L|177:219,1,120,4|4,0:0|0:2,0:0:0:0:
123,282,174058,1,2,0:0:0:0:
13,207,174537,2,0,L|6:81,1,120,2|8,0:0|0:0,0:0:0:0:
60,18,175327,1,2,0:0:0:0:
178,76,175801,6,0,P|218:85|299:78,1,120,4|8,0:2|0:0,0:0:0:0:
370,31,176590,2,0,L|450:41,1,79.9999999999999,2|8,0:0|0:0,0:0:0:0:
492,29,177064,2,0,B|501:112|501:112|486:156,1,120,2|8,0:0|0:0,0:0:0:0:
454,227,177853,2,0,L|460:273,2,40,0|2|8,0:0|0:0|0:0,0:0:0:0:
417,202,178327,6,0,L|291:193,1,120,4|8,0:2|0:1,0:0:0:0:
230,250,179117,1,2,0:0:0:0:
303,359,179590,2,0,L|429:368,1,120,4|8,0:2|0:0,0:0:0:0:
490,311,180380,1,2,0:0:0:0:
451,184,180853,6,0,P|394:170|337:210,1,120,4|8,0:2|0:0,0:0:0:0:
293,272,181643,2,0,P|253:259|216:258,1,79.9999999999999,2|10,0:0|3:1,0:0:0:0:
175,276,182117,2,0,B|166:229|166:229|150:201|150:201|166:174|166:174|174:127|174:127,1,160,4|2,0:2|0:2,0:0:0:0:
144,42,183064,1,2,0:2:0:0:
57,57,183380,6,0,P|34:106|49:176,1,120,4|8,0:0|0:0,0:0:0:0:
117,219,184176,2,0,L|204:217,1,79.9999999999999,2|8,0:3|0:0,0:0:0:0:
279,186,184814,1,2,0:3:0:0:
365,202,185133,2,0,P|373:243|367:284,2,79.9999999999999,8|2|8,0:0|0:3|0:0,0:0:0:0:
279,186,186091,6,0,P|249:111|291:47,1,160,2|2,0:0|3:3,0:0:0:0:
338,120,187038,2,0,L|177:110,1,160,8|8,0:0|0:0,0:0:0:0:
107,57,187979,1,2,0:3:0:0:
47,122,188291,2,0,L|32:166,2,40,8|8|4,0:0|0:0|0:0,0:0:0:0:
119,172,188919,5,8,0:0:0:0:
177,110,189235,2,0,L|338:120,2,160,2|2|2,0:3|0:3|0:3,0:0:0:0:
107,57,190814,1,12,0:2:0:0:
47,122,191130,6,0,B|28:165|28:165|40:240,2,120,12|8|4,0:0|0:0|0:2,0:0:0:0:
107,57,192393,2,0,L|94:17,2,40,2|0|0,0:0|0:0|0:0,0:0:0:0:
177,110,193025,2,0,L|306:119,1,120,8|8,0:0|0:0,0:0:0:0:
319,80,193656,6,0,L|336:213,2,120,4|10|10,0:0|0:0|0:0,0:0:0:0:
246,30,194919,2,0,L|126:21,2,120,0|0|4,0:0|0:0|0:3,0:0:0:0:
319,80,196182,6,0,P|358:72|411:68,2,79.9999999999999,12|0|2,0:2|0:0|0:2,0:0:0:0:
239,117,197130,1,12,0:2:0:0:
166,166,197446,2,0,P|127:158|74:154,2,79.9999999999999,2|0|12,0:0|0:0|0:2,0:0:0:0:
246,203,198393,1,8,0:0:0:0:
318,253,198709,6,0,B|372:240|372:240|436:241,2,120,4|2|2,0:0|0:0|0:0,0:0:0:0:
237,289,199972,2,0,B|183:276|183:276|119:277,2,120,2|2|8,0:3|0:2|0:2,0:0:0:0:
314,331,201235,6,0,P|323:292|318:253,1,79.9999999999999,12|2,0:0|0:0,0:0:0:0:
245,203,201867,2,0,P|236:164|241:124,1,79.9999999999999,2|8,0:0|0:0,0:0:0:0:
313,72,202498,1,6,0:0:0:0:
389,117,202814,2,0,P|362:146|325:159,2,79.9999999999999,8|8|8,0:0|0:0|0:0,0:0:0:0:
442,47,203761,6,0,P|471:91|462:169,2,120,4|2|8,0:2|0:0|0:0,0:0:0:0:
359,16,205025,2,0,B|268:7|300:55|205:46,1,160,2|2,0:2|0:3,0:0:0:0:
124,10,205972,1,8,0:0:0:0:
45,49,206288,6,0,P|36:90|39:132,1,79.9999999999999,12|2,0:0|0:3,0:0:0:0:
100,190,206919,2,0,P|101:229|93:268,1,79.9999999999999,4|2,0:2|0:0,0:0:0:0:
27,327,207551,6,0,B|203:261|172:387|348:314,1,320,4|0,0:0|2:0,0:0:0:0:
337,318,217655,6,0,B|168:257|206:381|26:325,1,320,6|6,0:2|0:2,0:0:0:0:
23,238,219230,6,0,L|106:230,1,79.9999999999999,2|2,0:0|3:2,0:0:0:0:
183,195,219855,2,0,B|154:141|154:141|45:150,1,160,2|2,0:0|3:2,0:0:0:0:
86,66,220799,2,0,L|172:57,1,79.9999999999999,2|0,3:2|3:0,0:0:0:0:
250,35,221431,5,6,3:2:0:0:
335,56,221750,2,0,P|342:97|335:140,1,79.9999999999999,2|2,3:2|3:2,0:0:0:0:
276,199,222388,2,0,L|286:242,2,40,0|12|2,3:0|0:2|3:2,0:0:0:0:
195,164,223022,1,2,3:2:0:0:
115,202,223338,2,0,P|108:243|115:286,1,79.9999999999999,2|0,3:2|3:0,0:0:0:0:
166,351,223970,5,4,0:0:0:0:
250,324,224289,2,0,P|292:320|336:322,2,79.9999999999999,2|2|8,3:2|3:2|3:2,0:0:0:0:
193,255,225246,2,0,P|181:186|184:92,1,160,2|2,3:2|0:1,0:0:0:0:
247,35,226193,1,8,0:0:0:0:
323,77,226509,6,0,B|406:84|406:84|446:66,2,120,4|8|4,0:3|0:3|0:3,0:0:0:0:
246,35,227759,1,8,0:0:0:0:
246,35,229009,6,0,L|233:213,1,160,4|2,0:0|0:3,0:0:0:0:
269,275,229956,1,10,0:0:0:0:
343,227,230272,2,0,P|394:208|479:263,1,160,2|2,0:0|0:3,0:0:0:0:
470,348,231219,1,10,0:0:0:0:
399,295,231535,6,0,L|395:132,1,160,2|2,0:0|0:3,0:0:0:0:
404,47,232482,2,0,B|345:54|345:54|321:84|321:84|256:94,1,160,10|10,0:0|0:0,0:0:0:0:
187,42,233430,2,0,B|171:82|171:82|177:130,1,79.9999999999999,2|10,0:0|0:0,0:0:0:0:
237,182,234061,6,0,L|280:177,2,40,2|0|10,0:0|0:0|0:0,0:0:0:0:
152,207,234693,2,0,L|109:202,2,40,2|2|10,0:3|0:3|0:0,0:0:0:0:
222,263,235324,2,0,B|226:299|226:299|210:339,1,79.9999999999999,2|10,0:0|0:0,0:0:0:0:
126,365,235956,2,0,B|121:328|121:328|137:288,1,79.9999999999999,2|10,0:3|0:0,0:0:0:0:
222,263,236587,5,2,0:0:0:0:
306,239,236903,2,0,B|323:162|323:162|302:78,1,160,10|10,0:0|0:0,0:0:0:0:
230,34,237851,2,0,B|212:82|212:82|230:157,2,120,12|8|10,0:2|0:0|0:0,0:0:0:0:
311,0,239141,5,4,0:0:0:0:
388,41,239456,2,0,L|439:37,2,40,4|8|0,0:3|0:3|0:0,0:0:0:0:
312,86,240088,2,0,B|300:140|322:184|322:184|307:242,2,160,12|10|8,0:2|0:0|0:0,0:0:0:0:
388,41,241667,6,0,L|439:37,2,40,6|8|4,0:2|0:3|0:3,0:0:0:0:
311,0,242298,1,10,0:0:0:0:
230,34,242614,2,0,B|205:111|205:111|227:195,1,160,4|10,0:0|0:0,0:0:0:0:
300,232,243562,2,0,L|383:223,1,79.9999999999999,2|12,0:1|0:2,0:0:0:0:
457,181,244193,6,0,L|465:142,2,40,4|0|8,0:0|0:0|0:0,0:0:0:0:
499,258,244825,2,0,P|496:291|478:334,1,79.9999999999999,0|8,0:0|0:0,0:0:0:0:
400,376,245456,1,4,0:2:0:0:
326,326,245768,2,0,B|227:315|270:366|173:356,1,160,10|10,0:0|0:0,0:0:0:0:
96,310,246706,6,0,P|142:273|201:272,2,120,2|10|10,0:0|0:0|0:0,0:0:0:0:
173,356,247969,1,12,0:2:0:0:
260,343,248284,1,2,0:3:0:0:
289,259,248600,2,0,L|283:174,1,79.9999999999999,2|12,0:2|0:2,0:0:0:0:
205,138,249232,6,0,L|383:152,2,160,4|0|4,0:0|0:0|0:2,0:0:0:0:
127,95,250811,2,0,L|110:185,2,79.9999999999999,2|2|10,0:2|0:2|0:2,0:0:0:0:
203,50,251758,6,0,L|336:60,2,120,4|2|10,0:2|0:0|0:0,0:0:0:0:
127,95,253021,2,0,L|-6:105,2,120,4|12|10,0:2|0:2|0:0,0:0:0:0:
203,137,254284,6,0,B|212:179|212:179|203:224,1,79.9999999999999,8|8,0:0|0:0,0:0:0:0:
169,242,254747,2,0,B|160:284|160:284|169:329,1,79.9999999999999,8|0,0:0|0:0,0:0:0:0:
199,350,255211,1,4,0:0:0:0:
256,192,255366,12,0,256811,2:0:0:0:
312,349,259351,6,0,L|227:344,1,79.9999999999999,4|2,0:0|0:3,0:0:0:0:
153,305,259976,2,0,L|109:312,2,40,2|2|8,0:2|0:3|0:0,0:0:0:0:
180,270,260444,2,0,L|181:137,1,120,2|2,0:0|0:0,0:0:0:0:
246,91,261232,2,0,L|241:47,2,40,8|0|8,0:0|0:0|0:0,0:0:0:0:
318,140,261864,6,0,B|383:149|371:111|434:121,2,120,4|8|8,0:2|0:0|0:0,0:0:0:0:
246,91,263127,2,0,L|241:47,2,40,2|10|0,0:3|0:0|0:0,0:0:0:0:
180,150,263758,2,0,L|178:230,1,79.9999999999999,6|8,0:2|0:0,0:0:0:0:
241,291,264390,6,0,B|186:313|186:313|120:301,2,120,4|8|10,0:0|0:0|0:0,0:0:0:0:
323,259,265653,2,0,B|369:295|369:295|392:358,2,120,2|2|8,0:3|0:0|0:0,0:0:0:0:
254,203,266916,6,0,B|263:132|263:132|298:89,1,120,8|2,0:0|1:0,0:0:0:0:
354,30,267706,1,2,1:0:0:0:
434,68,268022,5,4,0:0:0:0:
363,276,268803,2,0,L|324:281,2,40,8|8|4,0:0|0:0|0:3,0:0:0:0:
406,271,269272,6,0,P|353:325|304:38,1,679.999999999999,4|2,0:0|2:0,0:0:0:0:
256,192,272084,12,0,276303,2:0:0:0:
