osu file format v14

[General]
AudioFilename: audio.mp3
AudioLeadIn: 0
PreviewTime: 56199
Countdown: 0
SampleSet: Normal
StackLeniency: 0.7
Mode: 0
LetterboxInBreaks: 0
WidescreenStoryboard: 1

[Editor]
DistanceSpacing: 1.1
BeatDivisor: 4
GridSize: 4
TimelineZoom: 1.4

[Metadata]
Title:Catch the Moment
TitleUnicode:Catch the Moment
Artist:LiSA
ArtistUnicode:LiSA
Creator:Delis
Version:Hard
Source:劇場版 ソードアート・オンライン -オーディナル・スケール-
Tags:sword art online sao movie ordinal scale asuna Dagger-Gazel Satellite
BeatmapID:1214270
BeatmapSetID:572897

[Difficulty]
HPDrainRate:5
CircleSize:4
OverallDifficulty:6
ApproachRate:7.5
SliderMultiplier:1.5
SliderTickRate:1

[Events]
//Background and Video events
0,0,"BG.jpg",0,0
//Break Periods
2,118070,122023
2,208811,216598
2,257011,258451
//Storyboard Layer 0 (Background)
//Storyboard Layer 1 (Fail)
//Storyboard Layer 2 (Pass)
//Storyboard Layer 3 (Foreground)
//Storyboard Sound Samples

[TimingPoints]
390,315.789473684211,4,2,1,50,1,0
390,-133.333333333333,4,2,1,50,0,0
10258,-100,4,1,1,60,0,0
11758,-100,4,1,1,60,0,0
19337,314.13612565445,4,1,1,60,1,0
21858,315.789473684211,4,2,1,60,1,0
21858,-100,4,2,1,60,0,0
30305,-200,4,2,1,60,0,0
30384,-200,4,1,1,60,0,0
30542,-100,4,1,1,60,0,0
31568,-100,4,1,1,70,0,0
41831,-100,4,2,1,70,0,0
44594,322.58064516129,4,2,1,70,1,0
45884,319.148936170213,4,2,1,70,1,0
47160,306.122448979592,4,2,1,70,1,0
48384,315.789473684211,4,2,1,70,1,0
51147,-100,4,1,1,70,0,0
57226,-100,4,1,1,80,0,0
97489,-100,4,1,1,70,0,0
97647,319.148936170213,4,1,1,70,1,0
98923,315.789473684211,4,1,1,70,1,0
117870,-100,4,2,1,70,0,0
127975,319.148936170213,4,1,1,70,1,0
129251,312.5,4,1,1,70,1,0
131671,-100,4,2,1,50,0,0
131751,319.148936170213,4,2,1,50,1,0
131990,-100,4,2,1,60,0,0
132309,-100,4,2,1,70,0,0
132628,-100,4,2,1,80,0,0
133027,315.789473684211,4,1,1,80,1,0
133027,-100,4,1,1,80,0,0
148184,312.5,4,1,1,80,1,0
149434,315.789473684211,4,1,1,80,1,0
160802,319.148936170213,4,1,1,80,1,0
162078,315.789473684211,4,1,1,80,1,0
172183,309.278350515464,4,1,1,70,1,0
173265,-102.040816326531,4,1,1,70,0,0
173420,319.148936170213,4,1,1,70,1,0
174457,-102.564102564103,4,1,1,70,0,0
174696,315.789473684211,4,1,1,70,1,0
183301,-101.010101010101,4,1,1,70,0,0
183538,319.148936170213,4,1,1,70,1,0
186091,315.789473684211,4,1,1,70,1,0
187354,312.5,4,1,1,70,1,0
188604,315.789473684211,4,1,1,70,1,0
193104,-100,4,1,1,60,0,0
193656,-100,4,1,1,70,0,0
207551,319.148936170213,4,2,1,70,1,0
208827,315.789473684211,4,1,1,70,1,0
216405,312.5,4,1,1,60,1,0
217655,315.789473684211,4,1,1,60,1,0
218918,312.5,4,2,1,50,1,0
219230,-100,4,2,1,70,0,0
220168,315.789473684211,4,2,1,50,1,0
221431,319.148936170213,4,2,1,50,1,0
222707,315.789473684211,4,2,1,50,1,0
223970,319.148936170213,4,2,1,70,1,0
225246,315.789473684211,4,2,1,70,1,0
226509,312.5,4,2,1,70,1,0
229009,315.789473684211,4,1,1,80,1,0
229009,-100,4,1,1,80,0,0
237851,322.58064516129,4,1,1,80,1,0
239141,315.789473684211,4,1,1,80,1,0
245456,312.5,4,1,1,80,1,0
246706,315.789473684211,4,1,1,80,1,0
254284,309.278350515464,4,1,1,80,1,0
255521,322.58064516129,4,2,1,50,1,0
256811,-100,4,1,1,40,0,0
258047,319.148936170213,4,2,1,50,1,0
259351,312.5,4,1,1,70,1,0
260601,315.789473684211,4,1,1,70,1,0
268022,312.5,4,1,1,70,1,0
268022,-200,4,1,1,70,0,0
268178,-100,4,1,1,70,0,0
269428,-100,4,1,0,20,0,0
275365,-100,4,1,0,10,0,0

[Colours]
Combo1 : 145,185,130
Combo2 : 65,163,146
Combo3 : 79,158,255
Combo4 : 232,134,45

[HitObjects]
128,308,390,6,0,P|108:216|112:176,1,112.500004291535,2|2,0:0|0:0,0:0:0:0:
256,116,1021,2,0,P|276:184|268:248,1,112.500004291535,2|2,0:0|0:0,0:0:0:0:
400,340,1653,2,0,P|472:332|512:288,1,112.500004291535,2|2,0:0|0:0,0:0:0:0:
416,160,2284,2,0,P|360:156|296:196,1,112.500004291535,2|2,0:0|0:0,0:0:0:0:
168,56,2916,6,0,L|188:176,1,112.500004291535,2|2,0:0|0:0,0:0:0:0:
36,240,3547,2,0,L|160:304,1,112.500004291535,2|2,0:0|0:0,0:0:0:0:
284,208,4179,1,2,0:0:0:0:
396,336,4495,1,2,0:0:0:0:
476,188,4811,1,2,0:0:0:0:
204,80,5442,6,0,P|196:152|208:208,1,112.500004291535,2|2,0:0|0:0,0:0:0:0:
356,264,6074,2,0,P|368:204|352:136,1,112.500004291535,2|2,0:0|0:0,0:0:0:0:
152,284,6705,2,0,P|200:296|280:268,1,112.500004291535,2|2,0:0|0:0,0:0:0:0:
400,88,7337,2,0,P|352:76|272:104,1,112.500004291535,2|2,0:0|0:0,0:0:0:0:
84,192,7968,5,2,0:0:0:0:
200,192,8284,1,2,0:0:0:0:
312,196,8600,1,2,0:0:0:0:
424,200,8916,1,2,0:0:0:0:
424,200,9232,1,2,3:2:0:0:
256,192,9390,12,8,11442,0:0:0:0:
112,288,11758,6,0,P|104:192|112:132,2,150,4|8|2,0:0|0:0|0:3,0:0:0:0:
176,336,12547,2,0,P|224:324|264:324,1,75,2|8,0:3|0:0,0:0:0:0:
304,260,12863,2,0,P|236:212|228:140,1,150,10|0,0:0|0:0,0:0:0:0:
280,84,13337,2,0,P|372:72|440:64,2,150,8|8|8,0:0|0:0|0:0,0:0:0:0:
124,36,14284,6,0,L|100:200,1,150,4|0,0:2|0:0,0:0:0:0:
184,168,14758,2,0,L|168:320,1,150,8|2,0:0|0:3,0:0:0:0:
244,352,15232,2,0,L|332:364,1,75,8|2,0:0|0:0,0:0:0:0:
400,352,15547,2,0,P|416:328|424:280,1,75,8|0,0:0|0:0,0:0:0:0:
436,200,15863,2,0,P|412:184|364:176,1,75,8|0,0:0|0:0,0:0:0:0:
280,172,16179,1,2,0:0:0:0:
204,208,16337,1,2,0:3:0:0:
204,208,16416,1,2,0:3:0:0:
204,208,16495,2,0,P|156:196|116:192,1,75,4|0,0:2|0:0,0:0:0:0:
64,144,16811,6,0,B|56:104|64:68,1,75,4|0,0:0|0:0,0:0:0:0:
136,108,17126,2,0,P|232:84|304:88,1,150,8|2,0:0|0:3,0:0:0:0:
336,148,17600,2,0,P|300:160|256:160,2,75,2|8|0,0:3|0:0|0:0,0:0:0:0:
360,68,18074,2,0,P|408:56|456:60,2,75,2|0|8,0:0|0:0|0:0,0:0:0:0:
440,144,18547,2,0,P|456:212|408:300,1,150,2|0,0:0|0:0,0:0:0:0:
352,320,19021,1,12,0:1:0:0:
204,212,19337,6,0,B|200:160|204:120,1,75,8|0,0:0|1:0,0:0:0:0:
312,136,19651,2,0,B|316:188|312:228,1,75,8|0,0:0|1:0,0:0:0:0:
272,284,19965,1,8,0:0:0:0:
192,296,20122,2,0,P|156:280|104:264,1,75,2|0,0:0|0:0,0:0:0:0:
88,192,20436,1,4,0:0:0:0:
256,192,20593,12,0,21535,1:0:0:0:
212,152,21858,5,4,0:1:0:0:
212,152,22173,2,0,P|164:148|128:148,1,75,2|0,0:0|0:0,0:0:0:0:
56,144,22489,2,0,P|40:213|40:296,1,150,2|0,0:0|0:0,0:0:0:0:
112,332,22963,2,0,P|168:340|196:352,1,75,2|0,0:0|0:0,0:0:0:0:
256,300,23279,1,2,0:0:0:0:
256,300,23436,1,2,0:0:0:0:
288,224,23594,1,2,0:0:0:0:
288,224,23752,2,0,P|332:228|372:240,1,75,2|2,0:3|0:0,0:0:0:0:
232,160,24068,2,0,P|192:156|152:144,1,75,2|2,0:3|0:0,0:0:0:0:
96,224,24384,6,0,B|108:280|108:280|92:324|92:324|104:384,1,150,2|2,1:0|0:3,0:0:0:0:
172,328,24858,2,0,P|244:356|336:348,1,150,2|0,1:0|0:0,0:0:0:0:
360,272,25331,2,0,P|324:264|280:268,1,75,2|0,1:1|0:0,0:0:0:0:
232,204,25647,2,0,P|216:140|252:44,2,150,2|2|2,0:3|0:3|0:0,0:0:0:0:
400,312,26594,1,2,0:0:0:0:
348,120,26910,6,0,P|340:164|336:220,1,75,0|0,1:0|0:0,0:0:0:0:
316,276,27226,2,0,P|308:320|308:372,1,75,2|0,0:3|0:0,0:0:0:0:
220,336,27542,2,0,P|176:352|140:352,1,75,2|0,0:2|0:0,0:0:0:0:
88,296,27858,2,0,P|36:300|-4:312,1,75,0|0,0:0|0:0,0:0:0:0:
36,224,28173,2,0,P|108:196|196:204,1,150,2|2,0:0|0:3,0:0:0:0:
252,236,28647,1,2,0:0:0:0:
284,160,28805,2,0,L|296:72,1,75,2|2,0:0|0:0,0:0:0:0:
252,236,29121,2,0,L|240:324,1,75,2|2,0:3|0:0,0:0:0:0:
364,296,29436,6,0,P|348:224|388:140,1,150,2|2,1:0|1:0,0:0:0:0:
336,80,29910,1,0,0:0:0:0:
336,80,30068,2,0,L|260:96,1,75,10|0,1:0|0:0,0:0:0:0:
180,108,30384,6,0,P|132:220|228:324,1,262.5,8|2,0:0|2:0,0:0:0:0:
276,264,31647,2,0,P|320:268|368:284,1,75,8|2,0:0|2:0,0:0:0:0:
424,312,31963,6,0,P|448:224|416:160,1,150,4|10,0:0|0:0,0:0:0:0:
312,52,32594,2,0,P|288:140|320:204,1,150,2|8,0:1|0:0,0:0:0:0:
228,216,33068,2,0,L|152:236,1,75,2|2,0:0|0:3,0:0:0:0:
104,172,33384,2,0,L|196:148,2,75,2|8|2,0:0|0:0|0:0,0:0:0:0:
48,232,33858,2,0,P|36:276|40:320,1,75,2|2,0:3|0:0,0:0:0:0:
108,348,34173,2,0,P|148:340|192:336,1,75,8|2,0:0|0:0,0:0:0:0:
264,332,34489,6,0,P|344:340|408:284,1,150,2|8,0:0|0:0,0:0:0:0:
384,220,34963,2,0,P|304:212|240:268,1,150,2|0,0:0|0:0,0:0:0:0:
196,188,35436,2,0,P|188:140|191:97,1,75,10|0,0:0|0:0,0:0:0:0:
104,116,35752,2,0,B|120:196|116:272,1,150,2|8,0:3|0:0,0:0:0:0:
308,336,36384,2,0,P|304:296|304:248,1,75,2|0,0:0|2:0,0:0:0:0:
312,180,36700,5,10,0:0:0:0:
312,180,37015,2,0,B|396:200|392:160|484:192,2,150,4|8|2,0:2|0:0|0:3,0:0:0:0:
232,200,37805,1,0,0:0:0:0:
156,168,37963,2,0,P|144:128|148:88,1,75,8|2,0:0|0:0,0:0:0:0:
208,40,38279,2,0,L|296:48,1,75,2|0,0:0|0:0,0:0:0:0:
356,84,38594,1,8,0:0:0:0:
288,128,38752,1,2,0:0:0:0:
356,172,38910,2,0,P|364:224|360:260,1,75,2|2,0:3|0:0,0:0:0:0:
292,288,39226,2,0,P|284:236|288:200,1,75,8|0,0:0|0:0,0:0:0:0:
200,260,39542,6,0,P|212:188|164:120,1,150,4|8,0:2|0:0,0:0:0:0:
116,184,40015,1,0,0:0:0:0:
96,104,40173,2,0,B|88:56|100:12,1,75,2|10,0:3|0:1,0:0:0:0:
172,68,40489,1,2,0:3:0:0:
252,84,40647,2,0,P|332:76|408:88,1,150,6|0,0:0|0:0,0:0:0:0:
456,148,41121,2,0,P|460:196|456:240,1,75,8|0,0:0|0:0,0:0:0:0:
432,300,41436,2,0,P|392:308|340:304,1,75,8|8,0:3|0:3,0:0:0:0:
280,280,41752,1,0,2:0:0:0:
216,332,41910,6,0,P|192:276|224:176,1,150,4|0,0:0|0:0,0:0:0:0:
276,140,42384,2,0,P|340:184|424:176,2,150,0|0|0,3:0|3:0|3:0,0:0:0:0:
220,80,43173,2,0,P|156:72|68:136,1,150,4|0,0:0|0:0,0:0:0:0:
48,188,43647,2,0,L|82:349,1,150,0|0,3:0|3:0,0:0:0:0:
152,288,44121,2,0,P|216:264|256:268,1,75,0|8,0:0|3:0,0:0:0:0:
388,268,44594,6,0,P|332:240|312:88,1,225,4|0,0:0|2:0,0:0:0:0:
376,144,45239,2,0,P|312:168|200:72,1,225,4|0,0:0|2:0,0:0:0:0:
272,36,45884,2,0,P|284:108|172:192,1,225,4|0,0:0|2:0,0:0:0:0:
96,164,46522,2,0,P|92:104|96:64,1,75,4|0,0:0|0:0,0:0:0:0:
152,32,46841,1,4,0:3:0:0:
256,160,47160,6,0,P|320:168|424:140,1,150,4|0,0:0|0:0,0:0:0:0:
402,150,47619,1,0,3:0:0:0:
468,100,47772,1,0,1:0:0:0:
402,150,47925,2,0,L|390:238,1,75,2|2,0:0|0:0,0:0:0:0:
380,308,48231,1,2,0:3:0:0:
308,344,48384,2,0,P|272:340|220:340,1,75,2|8,0:0|0:1,0:0:0:0:
152,344,48699,2,0,P|152:268|128:196,2,150,0|8|2,0:0|0:1|0:0,0:0:0:0:
292,236,49647,5,8,0:1:0:0:
236,176,49805,2,0,L|272:16,1,150,2|2,0:3|0:3,0:0:0:0:
332,80,50278,2,0,L|312:172,1,75,2|2,0:0|0:3,0:0:0:0:
236,176,50594,1,8,0:1:0:0:
156,200,50752,2,0,P|84:188|48:104,1,150,2|0,0:3|0:0,0:0:0:0:
92,56,51226,2,0,P|152:32|184:28,1,75,8|0,0:3|0:0,0:0:0:0:
212,96,51541,2,0,P|264:100|312:120,1,75,8|0,0:3|0:0,0:0:0:0:
356,148,51857,5,4,0:3:0:0:
296,300,52173,2,0,P|256:292|220:264,1,75,4|0,0:0|0:0,0:0:0:0:
160,320,52489,2,2,P|148:272|152:228,1,75,8|0,0:0|0:0,0:0:0:0:
224,160,52805,2,2,P|236:208|232:252,1,75,8|0,0:0|0:0,0:0:0:0:
144,160,53120,2,2,P|136:120|140:72,1,75,8|0,0:0|0:0,0:0:0:0:
204,40,53436,2,2,P|272:32|340:96,1,150,8|8,0:0|0:0,0:0:0:0:
304,156,53910,1,0,0:0:0:0:
328,236,54068,2,2,P|320:272|316:328,1,75,8|0,0:0|0:0,0:0:0:0:
232,320,54384,2,2,P|240:284|244:220,1,75,8|0,0:0|0:0,0:0:0:0:
160,252,54699,6,0,P|120:180|148:100,1,150,4|8,0:2|0:0,0:0:0:0:
184,48,55173,2,0,P|224:120|196:200,1,150,8|0,0:0|0:0,0:0:0:0:
280,224,55647,2,0,P|332:236|372:235,1,75,10|8,0:0|0:0,0:0:0:0:
428,204,55962,1,10,0:0:0:0:
316,84,56278,2,0,P|263:86|224:98,1,75,2|0,2:0|2:0,0:0:0:0:
188,152,56594,2,0,L|184:208,4,37.5,8|4|0|0|12,3:0|3:0|3:0|1:0|1:2,0:0:0:0:
84,280,57226,6,0,L|168:308,1,75,4|0,0:0|0:0,0:0:0:0:
228,264,57541,2,0,L|396:248,1,150,10|2,0:0|0:3,0:0:0:0:
444,300,58015,1,2,0:3:0:0:
492,232,58173,2,0,P|492:188|476:140,1,75,2|0,0:0|0:0,0:0:0:0:
424,100,58489,2,0,L|348:144,1,75,2|0,0:0|0:0,0:0:0:0:
284,172,58805,2,0,P|240:112|260:28,1,150,10|2,0:0|0:3,0:0:0:0:
160,88,59278,1,2,0:3:0:0:
160,88,59436,2,0,P|122:99|68:96,1,75,10|0,0:0|0:0,0:0:0:0:
44,172,59752,6,0,P|92:208|100:300,2,150,2|10|2,0:0|0:0|0:3,0:0:0:0:
168,160,60541,1,0,0:0:0:0:
236,212,60699,2,0,P|312:224|368:168,1,150,10|0,0:0|0:0,0:0:0:0:
288,140,61173,1,0,0:0:0:0:
364,104,61331,2,0,P|372:56|384:16,1,75,10|0,0:0|0:0,0:0:0:0:
440,152,61647,2,0,P|436:192|424:244,1,75,2|2,0:0|0:3,0:0:0:0:
376,288,61962,2,0,P|324:252|236:264,1,150,10|2,0:0|0:0,0:0:0:0:
180,316,62436,5,0,0:0:0:0:
120,260,62594,2,0,P|104:196|112:92,1,150,10|2,0:0|0:3,0:0:0:0:
164,52,63068,1,2,0:3:0:0:
196,128,63226,2,0,P|200:180|196:220,1,75,10|0,0:0|0:0,0:0:0:0:
280,152,63541,2,0,P|324:144|372:152,1,75,2|0,0:0|0:0,0:0:0:0:
432,120,63857,2,0,P|448:196|420:272,1,150,10|2,0:0|0:3,0:0:0:0:
348,288,64331,1,2,0:3:0:0:
268,272,64489,2,0,L|184:284,1,75,10|0,0:0|0:0,0:0:0:0:
156,208,64805,6,0,P|252:168|272:104,2,150,2|10|2,0:0|0:0|0:3,0:0:0:0:
88,164,65594,1,2,0:3:0:0:
160,124,65752,2,0,P|168:84|164:32,1,75,10|0,0:0|0:0,0:0:0:0:
156,208,66068,2,0,P|140:264|144:360,1,150,4|2,0:0|0:0,0:0:0:0:
220,324,66541,2,0,P|292:292|376:304,1,150,8|0,0:0|0:0,0:0:0:0:
432,340,67015,2,0,L|448:256,1,75,4|0,0:2|0:2,0:0:0:0:
408,192,67331,1,4,0:0:0:0:
364,32,67647,6,0,P|368:76|360:120,1,75,8|0,0:1|3:0,0:0:0:0:
312,172,67962,2,0,P|308:224|316:268,1,75,8|4,3:3|0:3,0:0:0:0:
304,328,68278,2,0,P|232:340|160:312,1,150,8|8,0:1|0:3,0:0:0:0:
92,164,68910,2,0,P|132:156|188:160,1,75,8|0,0:0|0:0,0:0:0:0:
248,176,69226,1,8,0:3:0:0:
300,112,69384,1,4,0:3:0:0:
360,168,69541,2,0,P|468:160|504:116,1,150,8|4,0:0|0:3,0:0:0:0:
416,280,70173,6,0,L|388:360,1,75,8|0,0:0|3:3,0:0:0:0:
332,292,70489,2,0,P|292:308|244:304,1,75,8|4,3:3|0:3,0:0:0:0:
184,276,70805,2,0,P|168:200|224:124,1,150,8|8,0:1|0:3,0:0:0:0:
364,176,71436,2,0,P|412:172|444:156,1,75,8|0,0:0|0:0,0:0:0:0:
504,112,71752,2,0,L|480:36,1,75,8|4,0:3|0:3,0:0:0:0:
404,76,72068,2,0,B|328:40|336:88|252:48,1,150,8|4,0:0|0:0,0:0:0:0:
144,168,72699,6,0,P|179:185|228:188,1,75,10|0,0:0|0:0,0:0:0:0:
296,184,73015,2,0,P|248:228|232:256,1,75,2|0,0:0|0:0,0:0:0:0:
280,312,73331,2,0,P|308:288|328:256,1,75,10|0,0:0|0:0,0:0:0:0:
192,308,73647,2,0,P|116:312|36:324,1,150,4|8,0:2|0:0,0:0:0:0:
60,244,74120,1,0,0:0:0:0:
36,164,74278,2,0,P|116:164|192:148,1,150,0|8,0:0|0:0,0:0:0:0:
184,150,74910,6,0,P|236:152|280:164,2,75,12|0|2,0:0|0:0|0:0,0:0:0:0:
212,228,75384,2,0,P|252:280|228:376,1,150,8|2,0:0|0:0,0:0:0:0:
160,368,75857,2,0,P|148:328|152:280,1,75,8|2,0:0|0:0,0:0:0:0:
64,292,76173,2,0,L|84:212,1,75,8|0,0:0|0:0,0:0:0:0:
180,140,76489,2,0,L|160:220,1,75,8|0,0:0|0:0,0:0:0:0:
216,320,76805,2,0,L|236:240,1,75,10|0,0:0|0:0,0:0:0:0:
234,247,77041,1,0,0:0:0:0:
234,247,77120,1,12,0:0:0:0:
348,128,77436,6,0,P|360:168|356:220,1,75,4|0,0:0|0:0,0:0:0:0:
324,276,77752,2,0,P|372:324|464:320,1,150,10|2,0:0|0:3,0:0:0:0:
496,260,78226,1,2,0:3:0:0:
440,200,78384,2,0,L|424:116,1,75,10|0,0:0|0:0,0:0:0:0:
400,48,78699,6,0,P|352:52|308:68,1,75,2|0,0:0|0:0,0:0:0:0:
292,136,79015,2,0,P|248:104|144:92,1,150,10|2,0:0|0:3,0:0:0:0:
92,144,79489,1,2,0:3:0:0:
92,144,79647,2,0,L|72:228,1,75,10|0,0:0|0:0,0:0:0:0:
156,208,79962,2,0,P|152:256|160:288,1,75,2|0,0:0|0:0,0:0:0:0:
232,244,80278,2,0,L|384:272,1,150,10|2,0:0|0:3,0:0:0:0:
452,308,80752,1,2,0:3:0:0:
480,228,80910,2,0,P|468:192|460:140,1,75,10|0,0:0|0:0,0:0:0:0:
380,152,81226,6,0,P|312:112|220:136,1,150,4|8,0:2|0:0,0:0:0:0:
148,252,81857,2,0,P|144:296|144:340,1,75,2|2,0:3|0:3,0:0:0:0:
220,300,82173,2,0,P|224:256|224:212,1,75,10|0,0:0|0:0,0:0:0:0:
156,176,82489,2,0,P|148:136|160:92,1,75,2|0,0:0|0:0,0:0:0:0:
212,44,82805,2,0,P|280:64|308:144,1,150,10|2,0:0|0:3,0:0:0:0:
304,216,83278,1,2,0:3:0:0:
332,292,83436,2,0,B|368:312|404:304,1,75,10|0,0:0|0:0,0:0:0:0:
256,348,83752,6,0,P|220:296|120:260,2,150,2|10|2,0:0|0:0|0:3,0:0:0:0:
256,348,84541,1,2,0:3:0:0:
320,296,84699,2,0,P|324:248|320:204,1,75,10|0,0:0|0:0,0:0:0:0:
244,188,85015,2,0,P|236:276|240:348,1,150,2|10,0:0|0:0,0:0:0:0:
148,200,85647,2,0,P|144:248|148:292,2,75,0|2|10,0:0|0:3|0:0,0:0:0:0:
68,56,86278,6,0,L|232:40,1,150,14|2,0:0|0:0,0:0:0:0:
216,124,86752,2,0,L|380:108,1,150,8|0,0:0|0:0,0:0:0:0:
440,144,87226,2,0,P|432:192|404:232,1,75,10|0,0:0|0:0,0:0:0:0:
348,256,87541,1,4,0:0:0:0:
348,256,87857,2,0,L|264:268,1,75,2|8,0:2|0:3,0:0:0:0:
196,240,88173,2,0,L|108:252,1,75,2|0,0:2|0:0,0:0:0:0:
44,216,88489,6,0,P|92:76|168:56,1,225,4|0,0:0|0:0,0:0:0:0:
228,92,89120,2,0,P|276:92|324:76,1,75,8|0,0:0|0:0,0:0:0:0:
384,64,89436,2,0,P|375:104|372:152,1,75,2|2,0:3|0:3,0:0:0:0:
376,220,89752,2,0,L|396:308,1,75,10|0,0:0|0:0,0:0:0:0:
312,276,90068,5,8,0:0:0:0:
256,336,90226,1,8,0:3:0:0:
196,280,90384,1,2,0:0:0:0:
252,220,90541,1,2,0:2:0:0:
312,276,90699,2,0,P|320:320|320:364,1,75,10|0,0:0|0:0,0:0:0:0:
404,364,91015,2,0,P|480:344|504:272,1,150,4|0,0:0|0:0,0:0:0:0:
424,280,91489,1,2,0:3:0:0:
388,208,91647,2,0,P|384:164|388:120,1,75,8|0,0:3|0:0,0:0:0:0:
300,192,91962,2,0,P|304:236|300:280,1,75,2|2,0:3|0:3,0:0:0:0:
212,236,92278,2,0,P|184:196|184:144,1,75,12|0,0:0|0:0,0:0:0:0:
196,88,92594,6,0,P|144:140|60:136,2,150,4|8|0,0:2|0:0|0:0,0:0:0:0:
260,140,93384,1,0,0:0:0:0:
260,140,93541,2,0,P|316:156|344:168,1,75,8|0,0:0|0:0,0:0:0:0:
416,156,93857,2,0,P|460:104|436:24,1,150,2|10,0:2|0:0,0:0:0:0:
304,216,94489,2,0,P|304:264|312:300,1,75,2|0,0:0|0:3,0:0:0:0:
244,340,94805,1,10,0:0:0:0:
244,340,94962,1,0,0:0:0:0:
212,264,95120,6,0,P|224:196|164:108,1,150,6|0,0:0|0:0,0:0:0:0:
136,188,95594,2,0,P|128:276|164:340,1,150,10|0,0:0|0:0,0:0:0:0:
76,360,96068,2,0,L|24:220,1,150,10|8,0:0|0:0,0:0:0:0:
68,148,96541,1,0,0:0:0:0:
36,72,96699,2,0,P|80:60|120:64,1,75,8|0,0:0|0:0,0:0:0:0:
184,100,97015,1,2,0:2:0:0:
256,163,97173,1,2,0:3:0:0:
256,163,97252,1,0,0:0:0:0:
256,163,97331,2,0,P|320:171|400:99,1,150,4|4,0:2|0:0,0:0:0:0:
387,124,97966,6,0,P|376:163|372:207,1,75,8|0,0:0|0:0,0:0:0:0:
386,278,98285,1,0,0:0:0:0:
428,348,98444,1,0,0:0:0:0:
352,360,98604,1,8,0:0:0:0:
352,360,98764,2,0,L|260:344,1,75,12|0,0:0|0:0,0:0:0:0:
200,332,99080,1,0,0:0:0:0:
128,292,99238,2,0,P|108:252|104:200,1,75,2|0,0:2|0:0,0:0:0:0:
188,224,99554,2,0,P|180:172|192:120,1,75,8|0,0:0|0:0,0:0:0:0:
260,180,99870,2,0,P|301:180|344:173,1,75,4|0,0:2|0:0,0:0:0:0:
304,96,100186,6,0,P|232:80|140:76,1,150,12|2,0:0|0:3,0:0:0:0:
100,136,100659,2,0,P|144:152|188:156,1,75,8|2,0:0|0:2,0:0:0:0:
200,232,100975,2,0,P|200:288|192:312,1,75,0|8,0:0|0:0,0:0:0:0:
264,348,101291,1,2,0:0:0:0:
292,272,101449,2,0,P|344:284|376:296,1,75,12|2,0:2|0:3,0:0:0:0:
436,248,101765,2,0,P|444:208|460:172,1,75,8|2,0:0|0:3,0:0:0:0:
404,112,102080,2,0,P|360:124|320:128,1,75,8|2,0:0|0:3,0:0:0:0:
252,96,102396,2,0,B|191:107|157:125,1,75,8|0,0:0|2:0,0:0:0:0:
144,192,102712,6,0,P|144:236|160:280,1,75,4|2,0:0|0:2,0:0:0:0:
208,328,103028,2,0,P|288:268|360:280,1,150,8|2,0:0|0:2,0:0:0:0:
408,308,103501,2,0,P|420:264|424:220,1,75,2|8,0:3|0:0,0:0:0:0:
416,152,103817,1,2,0:2:0:0:
336,176,103975,2,0,P|292:172|248:168,1,75,2|2,0:0|0:2,0:0:0:0:
224,96,104291,1,8,0:0:0:0:
144,84,104449,2,0,P|128:144|180:232,1,150,2|0,0:0|3:0,0:0:0:0:
240,256,104923,2,0,P|264:288|276:336,1,75,4|0,0:2|0:0,0:0:0:0:
196,340,105238,6,0,L|36:320,1,150,12|8,0:0|0:0,0:0:0:0:
92,252,105712,1,0,0:0:0:0:
92,252,105791,1,0,0:0:0:0:
92,252,105870,2,0,B|108:212|88:168,2,75,8|2|0,0:0|0:0|0:0,0:0:0:0:
16,216,106344,1,4,0:0:0:0:
256,192,106501,12,4,107765,0:0:0:0:
160,300,108080,6,0,P|156:256|160:200,1,75,8|0,0:0|0:0,0:0:0:0:
232,188,108396,2,0,P|232:104|224:32,1,150,0|8,0:0|0:0,0:0:0:0:
144,60,108870,2,0,P|142:108|148:148,1,75,0|0,0:0|0:0,0:0:0:0:
64,152,109186,2,0,P|68:196|64:248,1,75,0|8,0:0|0:0,0:0:0:0:
56,308,109501,1,0,0:0:0:0:
128,348,109659,2,0,L|208:340,1,75,0|0,0:0|0:0,0:0:0:0:
268,288,109975,2,0,L|356:280,1,75,8|0,0:0|0:0,0:0:0:0:
400,220,110291,6,0,P|352:168|276:160,1,150,2|8,0:2|0:0,0:0:0:0:
212,212,110765,2,0,P|144:248|64:232,1,150,2|0,0:2|0:0,0:0:0:0:
32,164,111238,2,0,L|48:80,1,75,8|0,0:0|0:0,0:0:0:0:
112,40,111554,1,2,0:2:0:0:
164,104,111712,1,0,0:0:0:0:
244,76,111870,2,0,P|292:68|336:68,1,75,8|0,0:0|0:0,0:0:0:0:
372,128,112186,2,0,P|376:168|368:204,1,75,2|0,0:2|0:0,0:0:0:0:
320,268,112501,2,0,P|284:259|240:256,1,75,8|0,0:0|0:0,0:0:0:0:
164,264,112817,6,0,L|136:184,1,75,2|0,0:2|0:0,0:0:0:0:
216,168,113133,2,0,P|260:140|272:32,1,150,10|2,0:0|0:2,0:0:0:0:
204,84,113607,1,0,0:0:0:0:
128,112,113765,2,0,P|76:124|32:144,1,75,10|0,0:0|0:0,0:0:0:0:
44,216,114080,2,0,P|100:256|188:232,1,150,2|10,0:2|0:0,0:0:0:0:
212,316,114554,2,0,P|252:296|296:280,1,75,0|2,0:0|0:2,0:0:0:0:
352,324,114870,1,0,0:0:0:0:
352,324,115028,2,0,P|400:320|440:296,1,75,10|0,0:0|0:0,0:0:0:0:
472,220,115344,6,0,P|460:168|472:68,1,150,12|0,0:0|0:0,0:0:0:0:
470,72,115817,1,8,0:0:0:0:
392,96,115975,2,0,P|352:104|308:100,1,75,2|0,0:2|0:0,0:0:0:0:
240,76,116291,1,8,0:0:0:0:
140,204,116607,2,0,P|208:168|304:180,1,150,4|8,0:2|0:3,0:0:0:0:
348,216,117080,1,4,0:3:0:0:
348,216,117238,2,0,L|360:308,1,75,4|0,0:0|0:0,0:0:0:0:
284,328,117554,2,0,L|272:236,1,75,0|0,0:0|0:0,0:0:0:0:
279,170,117870,1,4,0:0:0:0:
84,184,122923,6,0,L|244:212,1,150,4|0,0:0|0:0,0:0:0:0:
308,248,123396,1,0,0:0:0:0:
388,224,123554,1,8,0:1:0:0:
424,148,123712,2,0,P|428:100|424:68,2,75,2|0|0,0:0|0:0|0:0,0:0:0:0:
348,112,124186,2,0,P|292:120|248:136,1,75,2|8,0:0|0:1,0:0:0:0:
200,88,124501,2,0,B|192:140|196:187,1,75,2|0,0:0|0:0,0:0:0:0:
204,244,124817,2,0,P|280:256|340:216,2,150,8|0|4,0:1|0:0|0:2,0:0:0:0:
144,304,125607,6,0,B|136:348|144:400,2,75,0|2|0,0:0|0:0|0:0,0:0:0:0:
84,244,126080,2,0,P|92:196|88:156,1,75,2|0,0:0|0:0,0:0:0:0:
108,88,126396,2,0,P|184:128|264:120,1,150,8|8,0:1|0:3,0:0:0:0:
324,100,126870,1,2,0:3:0:0:
332,184,127028,2,0,L|308:268,1,75,2|0,0:0|0:0,0:0:0:0:
272,332,127344,1,2,0:0:0:0:
188,332,127501,1,2,3:0:0:0:
188,332,127580,1,2,3:0:0:0:
188,332,127659,1,6,3:2:0:0:
72,216,127975,6,0,P|48:144|72:52,2,150,4|10|10,0:0|0:0|0:0,0:0:0:0:
148,184,128772,1,0,0:0:0:0:
216,228,128932,2,0,P|224:268|224:312,1,75,10|0,0:0|0:0,0:0:0:0:
296,236,129251,2,0,P|312:304|296:404,2,150,10|8|2,0:0|0:0|0:0,0:0:0:0:
408,148,130032,1,0,0:0:0:0:
436,232,130188,2,0,P|388:224|348:208,1,75,10|0,0:0|0:0,0:0:0:0:
364,300,130501,6,2,L|344:384,1,75,8|0,0:0|0:0,0:1:0:0:
284,316,130813,2,2,L|264:216,1,75,8|0,0:0|0:0,0:1:0:0:
204,296,131126,2,2,L|184:376,1,75,8|0,0:0|0:0,0:1:0:0:
124,308,131438,1,8,0:0:0:0:
96,192,131594,1,8,0:0:0:0:
44,256,131751,6,0,L|36:336,1,75,2|2,2:0|2:0,0:0:0:0:
168,232,132070,2,0,L|176:152,1,75,2|2,2:0|2:0,0:0:0:0:
260,280,132389,2,0,L|252:376,1,75,2|2,2:0|2:0,0:0:0:0:
360,224,132708,2,0,L|368:124,1,75,2|2,2:0|2:0,0:0:0:0:
300,56,133027,6,0,P|260:52|216:64,1,75,4|0,0:0|0:0,0:0:0:0:
172,124,133342,2,0,P|92:128|32:60,1,150,2|2,0:0|0:3,0:0:0:0:
120,56,133816,1,2,0:3:0:0:
200,48,133974,2,0,B|240:48|284:36,1,75,10|0,0:0|0:0,0:0:0:0:
276,120,134290,2,0,P|292:164|284:212,1,75,2|0,0:0|0:0,0:0:0:0:
252,264,134605,2,0,P|200:220|208:132,1,150,10|2,0:0|0:3,0:0:0:0:
201,143,135079,1,2,0:3:0:0:
120,156,135237,2,0,P|112:200|116:240,1,75,10|0,0:0|0:0,0:0:0:0:
144,308,135553,6,0,B|292:328,2,150,2|10|2,0:0|0:0|0:3,0:0:0:0:
68,340,136342,1,2,0:3:0:0:
28,268,136500,2,0,P|24:228|32:180,1,75,10|0,0:0|0:0,0:0:0:0:
104,136,136816,2,0,P|116:220|108:284,1,150,2|10,0:3|0:0,0:0:0:0:
188,300,137290,1,0,0:0:0:0:
208,220,137448,2,0,P|296:228|376:196,1,150,2|10,0:0|0:0,0:0:0:0:
464,84,138079,6,0,P|432:60|384:44,1,75,2|0,0:0|0:0,0:0:0:0:
328,88,138395,2,0,P|260:104|180:68,1,150,10|2,0:0|0:3,0:0:0:0:
112,40,138869,1,2,0:3:0:0:
116,124,139027,2,0,P|124:180|120:216,1,75,10|0,0:0|0:0,0:0:0:0:
48,168,139342,2,0,P|48:248|60:324,1,150,2|10,0:0|0:0,0:0:0:0:
136,352,139816,1,0,0:0:0:0:
220,356,139974,2,0,P|264:360|300:360,1,75,2|2,0:3|0:3,0:0:0:0:
364,312,140290,5,10,0:0:0:0:
364,312,140605,2,0,P|340:264|352:164,1,150,2|10,0:0|0:0,0:0:0:0:
396,100,141079,1,0,0:0:0:0:
324,60,141237,2,0,P|300:100|284:144,1,75,2|2,0:3|0:3,0:0:0:0:
228,68,141553,2,0,P|168:88|72:88,1,150,10|4,0:0|0:0,0:0:0:0:
28,152,142027,1,0,0:0:0:0:
52,232,142184,2,0,L|72:312,1,75,2|8,0:0|0:0,0:0:0:0:
140,260,142500,2,0,L|304:284,1,150,2|4,0:2|0:2,0:0:0:0:
452,308,143132,6,0,P|464:232|428:156,1,150,4|8,0:0|0:1,0:0:0:0:
356,192,143605,1,0,0:0:0:0:
296,136,143763,2,0,P|252:120|204:116,2,75,8|4|8,0:3|0:3|0:0,0:0:0:0:
184,256,144395,2,0,P|171:221|161:176,2,75,8|2|8,0:3|0:3|0:0,0:0:0:0:
336,216,145027,2,0,P|311:244|278:272,2,75,8|4|8,0:3|0:3|0:0,0:0:0:0:
464,328,145658,6,0,P|480:240|460:152,1,150,4|8,0:2|0:0,0:0:0:0:
384,40,146290,1,8,0:3:0:0:
384,40,146448,1,4,0:3:0:0:
308,72,146605,1,8,0:0:0:0:
148,120,146921,1,8,0:3:0:0:
148,120,147079,1,2,0:3:0:0:
224,148,147237,1,8,0:0:0:0:
372,220,147553,1,8,0:3:0:0:
372,220,147711,1,4,0:3:0:0:
292,248,147869,1,8,0:0:0:0:
88,216,148184,6,0,P|60:148|76:60,2,150,4|10|2,0:0|0:0|0:0,0:0:0:0:
164,188,148965,1,0,0:0:0:0:
248,192,149121,2,0,B|292:180|336:184,1,75,10|0,0:0|0:0,0:0:0:0:
396,144,149434,2,0,P|320:80|260:88,1,150,4|8,0:2|0:0,0:0:0:0:
192,264,150065,2,0,P|192:316|200:348,1,75,2|0,0:0|0:0,0:0:0:0:
272,300,150381,2,0,P|272:248|264:216,1,75,2|0,0:0|0:0,0:0:0:0:
200,176,150697,5,12,0:0:0:0:
120,188,150855,2,0,P|76:260|96:344,2,150,2|10|0,0:0|0:0|0:0,0:0:0:0:
152,112,151644,2,0,P|164:76|160:32,1,75,10|0,0:0|0:0,0:0:0:0:
240,100,151960,2,0,L|328:88,1,75,8|0,0:0|0:0,0:0:0:0:
312,172,152276,2,0,L|416:160,1,75,8|0,0:0|0:0,0:0:0:0:
444,224,152591,1,10,0:0:0:0:
403,301,152749,1,2,3:0:0:0:
403,301,152828,1,2,3:3:0:0:
403,301,152907,2,0,L|315:317,1,75,8|0,3:1|0:0,0:0:0:0:
248,280,153223,6,0,P|176:292|108:236,2,150,4|10|2,0:0|0:0|0:3,0:0:0:0:
312,224,154012,1,2,0:3:0:0:
264,156,154170,2,0,L|272:72,1,75,10|0,0:0|0:0,0:0:0:0:
200,40,154486,2,0,P|172:108|196:188,2,150,2|10|2,0:0|0:0|0:3,0:0:0:0:
120,28,155276,1,2,0:3:0:0:
80,100,155434,2,0,P|92:144|96:192,1,75,10|0,0:0|0:0,0:0:0:0:
84,256,155749,6,0,P|160:280|236:240,1,150,2|10,0:0|0:0,0:0:0:0:
284,200,156223,1,0,0:0:0:0:
352,248,156381,2,0,P|352:296|344:336,1,75,2|2,0:3|0:3,0:0:0:0:
440,288,156697,2,0,P|436:232|444:188,1,75,10|0,0:0|0:0,0:0:0:0:
376,160,157012,2,0,P|388:88|332:24,1,150,2|10,0:0|0:0,0:0:0:0:
212,132,157644,2,0,P|208:176|216:224,1,75,2|0,0:0|0:3,0:0:0:0:
228,288,157960,1,10,0:0:0:0:
412,324,158276,6,0,P|416:284|408:232,1,75,2|0,0:0|0:0,0:0:0:0:
352,192,158591,2,0,P|348:80|364:24,1,150,10|2,0:0|0:3,0:0:0:0:
276,68,159065,1,2,0:3:0:0:
276,68,159223,2,0,P|232:76|188:80,1,75,10|0,0:0|0:0,0:0:0:0:
120,80,159539,2,0,P|124:128|124:168,1,75,2|0,0:0|0:0,0:0:0:0:
108,236,159855,2,0,P|172:196|268:204,1,150,10|2,0:0|0:3,0:0:0:0:
316,240,160328,1,2,0:3:0:0:
360,172,160486,2,0,P|408:168|448:160,1,75,10|0,0:0|0:0,0:0:0:0:
484,232,160802,6,0,P|436:264|424:360,1,150,2|10,0:0|0:0,0:0:0:0:
260,312,161440,2,0,P|224:320|180:324,1,75,2|2,0:3|0:3,0:0:0:0:
144,252,161759,2,0,P|180:244|224:240,1,75,10|0,0:0|0:0,0:0:0:0:
292,200,162078,2,0,P|304:160|296:108,1,75,4|0,0:2|0:0,0:0:0:0:
344,272,162393,2,0,P|384:264|428:228,1,75,10|0,0:0|0:0,0:0:0:0:
296,352,162709,2,0,P|248:356|212:368,1,75,10|0,0:0|0:0,0:0:0:0:
200,280,163025,2,0,P|148:296|40:292,1,150,12|12,0:2|0:0,0:0:0:0:
53,295,163656,6,0,L|36:204,1,75,2|8,0:0|0:0,0:0:0:0:
112,180,163972,1,2,0:0:0:0:
88,100,164130,1,0,2:0:0:0:
152,48,164288,2,0,L|376:72,1,225,4|0,0:0|0:0,0:0:0:0:
456,60,164920,2,0,P|454:108|446:149,1,75,8|0,0:0|0:0,0:0:0:0:
396,200,165235,2,0,P|368:224|328:240,1,75,2|2,0:2|0:3,0:0:0:0:
280,176,165551,2,0,P|240:180|196:168,1,75,10|0,0:2|0:0,0:0:0:0:
132,136,165867,6,0,L|140:224,1,75,2|8,0:0|0:3,0:0:0:0:
152,292,166183,1,4,0:3:0:0:
208,352,166341,1,2,0:3:0:0:
292,344,166499,2,0,P|340:336|384:340,1,75,8|0,0:0|0:0,0:0:0:0:
448,352,166814,2,0,P|496:296|472:204,1,150,4|0,0:0|0:0,0:0:0:0:
412,192,167288,1,0,0:0:0:0:
404,108,167446,2,0,L|484:136,1,75,8|0,0:0|0:0,0:0:0:0:
332,156,167762,2,0,L|244:168,1,75,2|0,0:2|0:0,0:0:0:0:
216,96,168078,2,0,L|320:84,1,75,4|0,0:2|0:0,0:0:0:0:
176,176,168393,6,0,P|96:160|56:80,1,150,4|8,0:0|0:0,0:0:0:0:
20,196,168867,1,0,0:0:0:0:
64,268,169025,2,0,L|72:352,1,75,2|2,0:2|0:3,0:0:0:0:
152,332,169341,2,0,L|160:244,1,75,8|0,0:0|0:0,0:0:0:0:
256,288,169656,2,0,P|352:292|420:240,1,150,2|8,0:2|0:0,0:0:0:0:
352,196,170130,1,0,0:0:0:0:
396,124,170288,2,0,P|404:84|396:40,1,75,2|2,0:2|0:3,0:0:0:0:
320,68,170604,2,0,P|272:84|240:104,1,75,8|0,0:0|0:0,0:0:0:0:
168,84,170920,6,0,P|144:140|160:248,1,150,4|0,0:0|0:0,0:0:0:0:
236,320,171393,2,0,P|260:264|244:156,1,150,10|0,0:0|0:0,0:0:0:0:
344,228,171867,2,0,P|420:240|496:188,1,150,10|8,0:0|0:0,0:0:0:0:
440,136,172337,1,2,0:3:0:0:
360,116,172492,2,0,L|264:136,1,75,8|0,0:0|0:0,0:0:0:0:
200,84,172801,1,8,0:3:0:0:
212,164,172956,2,0,P|221:217|217:256,1,75,8|0,0:3|0:0,0:0:0:0:
144,344,173265,6,0,P|128:264|132:176,1,150,4|0,0:0|0:0,0:0:0:0:
132,184,173659,1,0,0:0:0:0:
136,172,173739,2,0,P|144:128|140:80,1,75,4|0,0:2|0:0,0:0:0:0:
228,140,174058,2,0,P|276:132|312:128,2,75,2|2|8,0:0|0:3|0:0,0:0:0:0:
216,220,174537,2,0,L|376:192,1,145.500003441239,2|0,0:0|0:0,0:0:0:0:
412,264,175011,2,0,L|324:280,1,75,8|0,0:0|0:0,0:0:0:0:
268,324,175327,1,2,0:0:0:0:
188,308,175485,2,0,L|96:292,1,75,2|8,0:3|0:0,0:0:0:0:
48,248,175801,6,0,P|36:192|84:96,1,150,4|0,0:2|0:0,0:0:0:0:
80,104,176196,1,0,0:0:0:0:
92,100,176274,2,0,P|140:72|168:40,1,75,8|0,0:0|0:0,0:0:0:0:
220,128,176590,2,0,P|240:100|248:48,2,75,2|2|8,0:0|0:3|0:0,0:0:0:0:
168,196,177064,2,0,P|152:272|172:344,1,150,2|2,0:0|0:0,0:0:0:0:
248,312,177538,1,8,0:0:0:0:
320,352,177696,2,0,L|408:336,1,75,2|0,0:0|0:0,0:0:0:0:
412,256,178011,2,0,L|324:272,1,75,2|8,0:0|0:0,0:0:0:0:
284,204,178327,6,0,L|264:52,1,150,4|0,0:2|0:0,0:0:0:0:
256,64,178722,1,0,0:0:0:0:
248,72,178801,2,0,P|208:76|160:48,1,75,8|0,0:1|0:0,0:0:0:0:
108,108,179117,1,2,0:0:0:0:
68,180,179274,2,0,L|88:272,1,75,2|8,0:3|0:0,0:0:0:0:
160,192,179590,2,0,P|216:160|316:168,1,150,4|0,0:2|0:0,0:0:0:0:
376,196,180064,1,8,0:0:0:0:
384,280,180222,1,0,0:0:0:0:
312,324,180380,2,0,P|304:280|308:232,2,75,2|2|8,0:0|0:3|0:0,0:0:0:0:
452,356,180853,6,0,P|488:280|472:208,1,150,4|0,0:2|0:0,0:0:0:0:
472,208,181248,1,0,0:0:0:0:
468,196,181327,2,0,P|464:152|484:100,1,75,8|0,0:0|0:0,0:0:0:0:
384,160,181643,2,0,P|344:164|292:168,1,75,2|0,0:0|3:0,0:0:0:0:
248,224,181959,1,10,3:1:0:0:
192,164,182117,2,0,P|184:112|192:76,1,75,4|0,0:2|0:0,0:0:0:0:
164,248,182432,2,0,L|64:260,1,75,8|0,0:3|0:0,0:0:0:0:
28,184,182748,2,0,L|128:172,1,75,2|0,0:2|0:0,0:0:0:0:
248,224,183064,2,0,P|256:276|248:312,1,75,2|0,0:2|0:0,0:0:0:0:
324,336,183380,6,0,P|336:256|320:176,1,150,4|0,0:0|0:0,0:0:0:0:
276,120,183857,2,0,P|212:120|96:112,1,150,8|2,0:0|0:3,0:0:0:0:
128,200,184335,2,0,B|84:192|44:168,2,75,2|8|0,0:3|0:0|0:3,0:0:0:0:
184,284,184814,2,0,P|224:268|280:264,1,75,2|0,0:3|0:0,0:0:0:0:
340,312,185133,2,0,P|432:296|472:232,1,150,8|2,0:0|0:3,0:0:0:0:
488,176,185612,1,2,0:3:0:0:
416,140,185772,2,0,P|408:96|404:52,1,75,8|0,0:0|0:0,0:0:0:0:
328,36,186091,6,0,L|300:196,2,150,2|8|2,0:0|0:0|3:3,0:0:0:0:
240,84,186880,1,2,3:0:0:0:
160,100,187038,2,0,P|116:96|76:76,1,75,8|0,0:0|0:0,0:0:0:0:
52,160,187354,2,0,L|68:248,2,75,2|2|8,0:3|0:3|0:0,0:0:0:0:
204,228,187979,2,0,L|184:304,2,75,2|2|8,0:3|0:3|0:0,0:0:0:0:
232,148,188447,1,8,0:0:0:0:
304,104,188604,6,0,B|339:117|352:132|352:132|388:100|456:104,2,150,4|8|2,0:0|0:0|0:3,0:0:0:0:
240,52,189393,2,0,B|204:68|160:60,1,75,2|8,0:3|0:0,0:0:0:0:
64,192,189867,2,0,P|60:236|64:280,1,75,2|2,0:3|0:3,0:0:0:0:
136,232,190182,2,0,P|236:228|296:240,1,150,8|2,0:0|0:3,0:0:0:0:
360,268,190656,1,2,0:3:0:0:
400,196,190814,2,0,L|392:112,1,75,12|0,0:2|0:0,0:0:0:0:
312,144,191130,6,0,P|260:136|176:64,1,150,12|2,0:0|0:3,0:0:0:0:
164,172,191604,2,0,P|84:176|4:224,1,150,8|2,0:0|0:3,0:0:0:0:
44,288,192077,2,0,P|88:280|124:259,1,75,4|0,0:2|0:0,0:0:0:0:
192,240,192393,1,2,0:0:0:0:
256,292,192551,2,0,L|256:348,6,37.5,0|0|0|0|8|8|8,0:0|0:0|0:0|0:0|0:0|0:0|0:0,0:0:0:0:
320,240,193182,1,8,0:0:0:0:
320,240,193261,1,8,0:0:0:0:
320,240,193340,2,0,L|320:148,1,75,8|8,0:0|0:0,0:0:0:0:
316,80,193656,6,0,P|248:32|164:64,1,150,4|0,0:0|0:0,0:0:0:0:
216,120,194130,2,0,P|176:160|68:152,1,150,10|0,0:0|0:0,0:0:0:0:
12,132,194604,2,0,L|8:52,2,75,10|0|0,0:0|0:0|0:0,0:0:0:0:
28,212,195077,2,0,P|48:272|32:364,1,150,10|0,0:0|0:0,0:0:0:0:
116,348,195551,2,0,L|204:328,1,75,2|0,0:0|0:0,0:0:0:0:
248,272,195867,2,0,P|256:232|252:192,1,75,4|0,0:3|0:0,0:0:0:0:
228,120,196182,5,12,0:2:0:0:
148,140,196340,1,2,0:2:0:0:
76,104,196498,2,0,L|0:88,1,75,0|12,0:0|0:2,0:0:0:0:
80,188,196814,2,0,L|8:236,1,75,2|2,0:2|0:3,0:0:0:0:
160,232,197130,2,0,L|168:328,1,75,12|0,0:2|0:0,0:0:0:0:
244,272,197446,1,2,0:0:0:0:
304,328,197604,2,0,P|348:344|396:340,2,75,8|0|2,0:0|0:0|0:2,0:0:0:0:
328,248,198077,2,0,L|312:152,1,75,12|2,0:2|0:2,0:0:0:0:
236,148,198393,2,0,L|252:256,1,75,8|2,0:0|0:2,0:0:0:0:
400,196,198709,6,0,P|428:128|412:40,1,150,4|2,0:0|0:3,0:0:0:0:
336,68,199182,2,0,B|260:88|260:88|180:56,1,150,2|2,0:0|0:3,0:0:0:0:
140,124,199656,2,0,L|236:164,1,75,2|0,0:0|0:0,0:0:0:0:
368,136,199972,2,0,L|268:164,1,75,2|8,0:3|0:3,0:0:0:0:
248,224,200288,1,0,0:0:0:0:
284,300,200446,2,0,P|336:304|388:288,2,75,2|12|2,0:2|0:2|0:2,0:0:0:0:
200,296,200919,2,0,B|156:292|112:300,1,75,8|2,0:2|0:2,0:0:0:0:
52,260,201235,5,12,0:0:0:0:
104,196,201393,1,2,0:2:0:0:
80,116,201551,2,0,P|120:84|152:64,1,75,2|0,0:0|0:0,0:0:0:0:
228,40,201867,1,2,0:0:0:0:
196,116,202025,1,2,0:3:0:0:
232,188,202182,1,8,0:0:0:0:
312,204,202340,2,0,P|388:184|464:192,1,150,4|0,0:2|0:0,0:0:0:0:
440,280,202814,2,0,L|416:368,1,75,8|0,0:0|0:0,0:0:0:0:
352,292,203130,2,0,L|264:304,1,75,8|2,0:0|0:3,0:0:0:0:
266,304,203367,1,0,0:0:0:0:
253,306,203446,2,0,P|215:315|171:315,1,75,8|0,0:0|0:0,0:0:0:0:
120,256,203761,6,0,P|112:164|116:96,1,150,4|8,0:2|0:0,0:0:0:0:
188,64,204235,1,2,0:0:0:0:
216,140,204393,2,0,P|220:196|220:232,1,75,2|2,0:3|0:3,0:0:0:0:
300,232,204709,2,0,P|296:192|292:136,1,75,8|0,0:0|0:0,0:0:0:0:
372,184,205025,2,0,P|380:232|376:276,1,75,2|2,0:2|0:3,0:0:0:0:
356,340,205340,2,0,P|300:304|208:316,1,150,8|2,0:0|0:3,0:0:0:0:
148,348,205814,1,2,0:3:0:0:
104,280,205972,2,0,L|80:192,1,75,8|2,0:0|0:2,0:0:0:0:
120,132,206288,6,0,P|176:136|204:148,1,75,12|2,0:0|0:2,0:0:0:0:
256,196,206604,1,2,0:3:0:0:
304,128,206761,1,8,0:0:0:0:
352,196,206919,2,0,L|368:272,1,75,4|2,0:2|0:3,0:0:0:0:
320,336,207235,2,0,P|276:352|216:316,1,112.5,2|0,0:0|2:0,0:0:0:0:
216,312,207551,1,4,0:0:0:0:
184,240,217498,5,0,0:0:0:0:
184,240,217576,1,0,0:0:0:0:
184,240,217655,2,0,L|168:148,2,75,6|2|4,0:2|0:2|0:3,0:0:0:0:
264,252,218128,2,0,L|280:344,2,75,2|8|2,0:2|0:3|0:2,0:0:0:0:
324,196,218602,2,0,L|348:36,1,150,4|6,0:1|0:2,0:0:0:0:
212,144,219230,6,0,P|148:168|60:152,2,150,2|2|2,0:0|3:2|0:0,0:0:0:0:
328,260,220168,2,0,P|392:236|480:252,2,150,2|2|2,3:2|3:2|3:2,0:0:0:0:
188,344,221115,1,0,3:0:0:0:
212,264,221273,1,0,3:0:0:0:
212,264,221352,1,0,3:0:0:0:
212,264,221431,1,6,3:2:0:0:
252,104,221750,6,0,P|268:140|376:204,2,150,2|2|0,3:2|3:2|3:0,0:0:0:0:
192,160,222548,1,12,0:2:0:0:
144,92,222707,2,0,P|68:64|-12:84,1,150,2|2,3:2|3:2,0:0:0:0:
72,228,223338,2,0,P|148:256|228:236,1,150,2|0,3:2|3:0,0:0:0:0:
288,204,223812,1,0,3:0:0:0:
288,204,223891,1,0,3:0:0:0:
288,204,223970,1,4,0:0:0:0:
412,312,224289,6,0,L|400:228,1,75,2|8,3:2|0:0,0:0:0:0:
464,180,224608,2,0,P|488:120|472:28,1,150,2|8,3:2|3:2,0:0:0:0:
320,96,225246,6,0,B|252:128|244:72|172:120,1,150,2|0,3:2|0:0,0:0:0:0:
104,160,225719,1,8,0:0:0:0:
116,240,225877,2,0,P|120:284|116:340,1,75,2|0,0:1|0:0,0:0:0:0:
232,264,226193,2,0,P|228:224|232:176,1,75,8|0,0:0|0:0,0:0:0:0:
336,228,226509,6,0,P|340:152|328:68,1,150,4|0,0:3|0:0,0:0:0:0:
224,40,226977,2,0,P|220:116|232:200,1,150,8|2,0:3|0:2,0:0:0:0:
136,172,227446,2,0,L|160:268,1,75,4|0,0:3|0:0,0:0:0:0:
154,244,227680,1,0,0:0:0:0:
154,244,227759,1,8,0:0:0:0:
256,192,227915,12,4,229009,0:0:0:0:
228,284,229324,6,0,P|172:296|84:232,1,150,10|2,0:0|0:3,0:0:0:0:
60,176,229798,1,2,0:3:0:0:
136,148,229956,2,0,P|144:96|144:56,1,75,10|0,0:0|0:0,0:0:0:0:
216,192,230272,2,0,P|256:201|300:202,1,75,2|0,0:0|0:0,0:0:0:0:
372,192,230587,2,0,P|340:132|252:116,1,150,10|2,0:0|0:3,0:0:0:0:
232,36,231061,1,2,0:3:0:0:
152,56,231219,2,0,P|108:60|60:44,1,75,10|0,0:0|0:0,0:0:0:0:
48,128,231535,6,0,P|64:192|48:280,2,150,2|10|2,0:0|0:0|0:3,0:0:0:0:
140,188,232324,1,2,0:3:0:0:
208,236,232482,2,0,P|256:244|300:240,1,75,10|0,0:0|0:0,0:0:0:0:
324,172,232798,2,0,P|400:156|476:168,1,150,6|10,0:2|0:0,0:0:0:0:
432,328,233430,2,0,P|396:336|344:332,1,75,2|2,0:0|0:3,0:0:0:0:
280,308,233745,1,10,0:0:0:0:
132,232,234061,6,0,P|172:220|224:224,1,75,2|0,0:0|0:0,0:0:0:0:
288,212,234377,2,0,P|360:196|400:112,1,150,10|2,0:0|0:3,0:0:0:0:
360,60,234851,1,2,0:3:0:0:
280,32,235009,2,0,P|276:80|280:120,1,75,10|0,0:0|0:0,0:0:0:0:
200,140,235324,2,0,P|160:148|116:144,1,75,2|0,0:0|0:0,0:0:0:0:
56,76,235640,2,0,P|136:64|216:68,1,150,10|2,0:0|0:3,0:0:0:0:
277,106,236114,1,2,0:3:0:0:
300,184,236272,2,0,P|292:228|280:280,1,75,10|0,0:0|0:0,0:0:0:0:
256,336,236587,6,0,B|204:336|204:336|160:348|160:348|88:348,2,150,2|10|2,0:0|0:0|0:3,0:0:0:0:
336,308,237377,1,2,0:3:0:0:
416,300,237535,2,0,B|464:304|504:300,1,75,10|0,0:0|0:0,0:0:0:0:
440,220,237851,2,0,P|448:144|388:80,1,150,12|2,0:2|0:0,0:0:0:0:
356,156,238334,2,0,P|308:172|212:144,1,150,8|2,0:0|0:3,0:0:0:0:
176,72,238818,1,10,0:0:0:0:
72,200,239141,5,4,0:0:0:0:
176,328,239456,2,0,L|268:308,1,75,4|8,0:3|0:3,0:0:0:0:
328,288,239772,2,0,L|264:220,1,75,0|2,0:0|0:3,0:0:0:0:
216,180,240088,2,0,P|189:233|96:260,1,150,12|0,0:2|0:0,0:0:0:0:
32,232,240562,1,2,0:3:0:0:
100,184,240719,2,0,P|108:112|104:28,1,150,10|2,0:0|0:2,0:0:0:0:
184,64,241193,1,0,0:0:0:0:
184,64,241351,2,0,B|220:68|272:56,1,75,8|0,0:0|0:0,0:0:0:0:
340,44,241667,5,6,0:2:0:0:
352,124,241825,1,8,0:3:0:0:
272,140,241983,1,4,0:3:0:0:
284,220,242141,1,2,0:3:0:0:
364,208,242298,1,10,0:0:0:0:
220,328,242614,6,0,P|144:300|112:152,1,225,4|2,0:0|0:3,0:0:0:0:
148,100,243246,2,0,P|192:88|240:88,1,75,10|0,0:0|0:0,0:0:0:0:
272,152,243562,2,0,P|232:164|180:164,1,75,2|2,0:1|0:3,0:0:0:0:
276,236,243877,2,0,P|328:224|368:224,1,75,12|0,0:2|0:0,0:0:0:0:
312,316,244193,2,0,P|256:332|168:280,1,150,4|8,0:0|0:0,0:0:0:0:
140,132,244825,2,0,P|152:84|168:36,1,75,0|2,0:0|0:3,0:0:0:0:
220,116,245141,2,0,P|208:172|196:208,1,75,8|0,0:0|0:0,0:0:0:0:
120,208,245456,6,0,P|76:216|28:240,2,75,4|2|10,0:2|0:3|0:0,0:0:0:0:
252,308,246081,2,0,P|316:312|356:300,1,75,2|0,0:0|0:0,0:0:0:0:
404,276,246393,1,10,0:0:0:0:
348,216,246549,1,0,0:0:0:0:
348,216,246627,1,0,0:0:0:0:
348,216,246706,2,0,P|320:156|328:68,1,150,2|2,0:0|0:3,0:0:0:0:
244,88,247179,2,0,P|184:52|84:56,1,150,10|2,0:0|0:3,0:0:0:0:
36,96,247653,2,0,P|96:132|196:128,1,150,10|12,0:0|0:2,0:0:0:0:
244,264,248284,6,0,L|232:352,1,75,2|8,0:3|0:0,0:0:0:0:
324,320,248600,1,2,0:2:0:0:
328,244,248758,1,0,0:0:0:0:
328,244,248837,1,0,0:0:0:0:
328,244,248916,2,0,P|304:172|320:92,1,150,12|4,0:2|0:0,0:0:0:0:
316,100,249548,6,0,P|276:112|236:112,1,75,0|8,0:0|0:0,0:0:0:0:
160,96,249863,1,0,0:0:0:0:
108,160,250021,1,0,0:0:0:0:
184,188,250179,2,0,L|192:272,1,75,8|0,0:0|0:0,0:0:0:0:
152,336,250495,2,0,P|116:336|72:312,2,75,4|0|2,0:2|0:0|0:2,0:0:0:0:
232,352,250969,1,0,0:0:0:0:
288,292,251127,2,0,L|308:200,1,75,2|0,0:2|0:0,0:0:0:0:
376,280,251442,1,10,0:2:0:0:
344,104,251758,6,0,L|176:128,1,150,4|8,0:2|0:0,0:0:0:0:
128,212,252232,2,0,L|296:188,1,150,2|0,0:0|0:0,0:0:0:0:
332,280,252706,2,0,L|248:268,1,75,10|0,0:0|0:0,0:0:0:0:
356,200,253021,2,0,P|404:212|448:312,1,150,4|2,0:2|0:0,0:0:0:0:
392,356,253495,2,0,P|348:368|304:364,1,75,12|2,0:2|0:0,0:0:0:0:
240,340,253811,2,0,L|224:304,2,37.5,0|0|10,0:0|0:0|0:0,0:0:0:0:
284,180,254284,6,0,P|288:140|280:96,2,75,8|8|8,0:0|0:0|0:0,0:0:0:0:
348,236,254747,2,0,P|344:276|352:320,2,75,8|4|0,0:0|0:3|0:0,0:0:0:0:
404,176,255211,1,4,0:0:0:0:
256,192,255289,12,0,256811,2:0:0:0:
148,140,259351,6,0,P|176:212|160:304,1,150,4|2,0:0|0:3,0:0:0:0:
236,332,259819,2,0,L|308:352,1,75,8|2,0:0|0:2,0:0:0:0:
308,268,260132,2,0,L|284:176,1,75,2|8,0:3|0:0,0:0:0:0:
372,208,260444,2,0,B|372:164|352:120,1,75,2|2,0:0|0:3,0:0:0:0:
336,52,260758,1,8,0:0:0:0:
260,96,260916,2,0,P|184:104|104:72,1,150,2|8,0:0|0:0,0:0:0:0:
52,136,261390,1,0,0:0:0:0:
80,212,261548,2,0,L|64:292,1,75,8|0,0:0|0:0,0:0:0:0:
132,336,261864,6,0,L|296:324,1,150,4|2,0:2|0:3,0:0:0:0:
352,244,262337,2,0,L|188:256,1,150,8|2,0:0|0:3,0:0:0:0:
164,176,262811,1,8,0:0:0:0:
240,96,262969,2,0,P|308:104|368:184,1,150,2|10,0:2|0:0,0:0:0:0:
444,160,263443,2,0,P|436:208|440:252,1,75,0|0,0:0|0:0,0:0:0:0:
444,316,263758,2,0,P|392:344|300:312,1,150,6|8,0:2|0:0,0:0:0:0:
260,252,264232,5,2,0:3:0:0:
260,252,264311,1,0,0:0:0:0:
260,252,264390,2,0,P|221:249|173:253,1,75,4|2,0:0|0:3,0:0:0:0:
131,327,264706,2,0,P|175:331|231:327,1,75,2|8,0:3|0:0,0:0:0:0:
84,236,265022,2,0,P|40:232|0:236,1,75,2|2,0:0|0:3,0:0:0:0:
96,152,265337,2,0,P|140:148|188:148,1,75,10|2,0:0|0:3,0:0:0:0:
252,160,265653,5,2,0:3:0:0:
324,200,265811,1,2,0:0:0:0:
400,176,265969,1,2,0:2:0:0:
428,100,266127,1,2,0:0:0:0:
428,100,266285,2,0,P|424:48|428:8,1,75,8|0,0:0|0:0,0:0:0:0:
508,120,266601,2,0,P|512:172|508:212,1,75,8|0,0:0|0:0,0:0:0:0:
468,264,266916,5,8,0:0:0:0:
396,308,267074,1,0,0:0:0:0:
396,308,267153,1,0,0:0:0:0:
396,308,267232,2,0,P|352:300|308:300,1,75,8|0,0:0|0:0,0:0:0:0:
212,320,267548,1,8,0:0:0:0:
252,248,267706,2,0,L|268:144,1,75,2|0,0:0|0:0,0:0:0:0:
172,208,268022,6,0,B|104:144|68:232|-8:164,1,187.5,4|8,0:0|0:0,0:0:0:0:
56,104,268959,2,0,P|100:96|136:96,1,75,8|4,0:0|0:3,0:0:0:0:
216,112,269272,1,4,0:0:0:0:
256,192,269428,12,0,276303,2:0:0:0:
