osu file format v14

[General]
AudioFilename: audio.mp3
AudioLeadIn: 0
PreviewTime: 56199
Countdown: 0
SampleSet: Normal
StackLeniency: 0.7
Mode: 0
LetterboxInBreaks: 0
WidescreenStoryboard: 1

[Editor]
DistanceSpacing: 0.9
BeatDivisor: 4
GridSize: 4
TimelineZoom: 1

[Metadata]
Title:Catch the Moment
TitleUnicode:Catch the Moment
Artist:LiSA
ArtistUnicode:LiSA
Creator:Delis
Version:Normal
Source:劇場版 ソードアート・オンライン -オーディナル・スケール-
Tags:sword art online sao movie ordinal scale asuna Dagger-Gazel Satellite
BeatmapID:1215136
BeatmapSetID:572897

[Difficulty]
HPDrainRate:4
CircleSize:3.5
OverallDifficulty:5
ApproachRate:5
SliderMultiplier:1
SliderTickRate:1

[Events]
//Background and Video events
0,0,"BG.jpg",0,0
//Break Periods
2,118070,121723
2,208811,216455
2,257011,258151
//Storyboard Layer 0 (Background)
//Storyboard Layer 1 (Fail)
//Storyboard Layer 2 (Pass)
//Storyboard Layer 3 (Foreground)
//Storyboard Sound Samples

[TimingPoints]
390,315.789473684211,4,2,1,50,1,0
10337,-100,4,1,1,60,0,0
19337,314.13612565445,4,1,1,60,1,0
21858,315.789473684211,4,2,1,60,1,0
21858,-100,4,2,1,60,0,0
30384,-100,4,1,1,60,0,0
31568,-100,4,1,1,70,0,0
41831,-100,4,2,1,70,0,0
44594,322.58064516129,4,2,1,70,1,0
45884,319.148936170213,4,2,1,70,1,0
47160,306.122448979592,4,2,1,70,1,0
48384,315.789473684211,4,2,1,70,1,0
51147,-100,4,1,1,70,0,0
57226,-100,4,1,1,80,0,0
97489,-100,4,1,1,70,0,0
97647,319.148936170213,4,1,1,70,1,0
98684,-99.009900990099,4,1,1,70,0,0
98923,315.789473684211,4,1,1,70,1,0
117870,-100,4,2,1,70,0,0
127975,319.148936170213,4,1,1,70,1,0
127975,-100,4,1,1,70,0,0
129251,312.5,4,1,1,70,1,0
131672,-100,4,2,1,50,0,0
131751,319.148936170213,4,2,1,50,1,0
131990,-100,4,2,1,60,0,0
132309,-100,4,2,1,70,0,0
132628,-100,4,2,1,80,0,0
133027,315.789473684211,4,1,1,80,1,0
133027,-100,4,1,1,80,0,0
148184,312.5,4,1,1,80,1,0
149434,315.789473684211,4,1,1,80,1,0
160802,319.148936170213,4,1,1,80,1,0
162078,315.789473684211,4,1,1,80,1,0
163262,-100,4,1,1,70,0,0
172183,309.278350515464,4,1,1,70,1,0
173188,-101.83299389002,4,1,1,70,0,0
173420,319.148936170213,4,1,1,70,1,0
174537,-99.009900990099,4,1,1,70,0,0
174696,315.789473684211,4,1,1,70,1,0
183301,-101.010101010101,4,1,1,70,0,0
183538,319.148936170213,4,1,1,70,1,0
186091,315.789473684211,4,1,1,70,1,0
187354,312.5,4,1,1,70,1,0
188604,315.789473684211,4,1,1,70,1,0
193104,-100,4,1,1,60,0,0
193656,-100,4,1,1,70,0,0
207551,319.148936170213,4,2,1,70,1,0
208827,315.789473684211,4,1,1,70,1,0
216405,312.5,4,1,1,60,1,0
217655,315.789473684211,4,1,1,60,1,0
218918,312.5,4,2,1,50,1,0
219232,-100,4,2,1,70,0,0
220168,315.789473684211,4,2,1,50,1,0
221431,319.148936170213,4,2,1,50,1,0
222707,315.789473684211,4,2,1,50,1,0
223970,319.148936170213,4,2,1,70,1,0
225246,315.789473684211,4,2,1,70,1,0
226509,312.5,4,2,1,70,1,0
229009,315.789473684211,4,1,1,80,1,0
229009,-100,4,1,1,80,0,0
237851,322.58064516129,4,1,1,80,1,0
239141,315.789473684211,4,1,1,80,1,0
245456,312.5,4,1,1,80,1,0
246706,315.789473684211,4,1,1,80,1,0
254284,309.278350515464,4,1,1,80,1,0
255521,322.58064516129,4,2,1,50,1,0
256811,-100,4,1,1,40,0,0
258047,319.148936170213,4,2,1,50,1,0
259351,312.5,4,1,1,70,1,0
259351,-100,4,1,1,70,0,0
260366,-101.010101010101,4,1,1,70,0,0
260601,315.789473684211,4,1,1,70,1,0
268022,312.5,4,1,1,70,1,0
269427,-100,4,1,0,20,0,0
275365,-100,4,1,0,10,0,0

[Colours]
Combo1 : 145,185,130
Combo2 : 65,163,146
Combo3 : 79,158,255
Combo4 : 232,134,45

[HitObjects]
56,264,390,6,0,B|104:236|164:252,1,100,2|2,0:0|0:0,0:0:0:0:
240,268,1021,2,0,B|296:280|348:244,1,100,2|2,0:0|0:0,0:0:0:0:
400,188,1653,2,0,L|416:76,1,100,2|2,0:0|0:0,0:0:0:0:
328,112,2284,2,0,B|264:108|224:92,1,100,2|2,0:0|0:0,0:0:0:0:
144,64,2916,6,0,B|112:112|128:164,1,100,2|2,0:0|0:0,0:0:0:0:
208,200,3547,2,0,B|220:256|196:300,1,100,2|2,0:0|0:0,0:0:0:0:
116,336,4179,2,0,L|0:356,2,100,2|2|2,0:0|0:0|0:0,0:0:0:0:
288,284,5442,6,0,L|304:180,1,100,2|2,0:0|0:0,0:0:0:0:
232,128,6074,2,0,L|216:232,1,100,2|2,0:0|0:0,0:0:0:0:
144,276,6705,2,0,L|128:168,1,100,2|2,0:0|0:0,0:0:0:0:
56,228,7337,2,0,L|72:336,1,100,2|2,0:0|0:0,0:0:0:0:
156,356,7968,6,0,L|256:348,1,100,2|2,0:0|0:0,0:0:0:0:
328,296,8600,2,0,L|432:284,1,100,2|2,0:0|0:0,0:0:0:0:
476,208,9232,1,2,3:2:0:0:
128,108,10495,6,0,B|120:148|128:192,2,75,8|8|8,0:0|0:0|0:0,0:0:0:0:
152,68,11126,2,0,P|208:100|264:92,1,100,8|8,3:1|0:0,0:0:0:0:
324,64,11758,6,0,L|340:176,1,100,4|8,0:0|0:0,0:0:0:0:
352,252,12390,2,0,L|308:308,2,50,2|2|8,0:3|0:3|0:0,0:0:0:0:
396,256,12863,2,0,P|440:208|424:116,1,150,10|8,0:0|0:0,0:0:0:0:
368,64,13653,2,0,L|312:68,1,50,8|0,0:0|0:0,0:0:0:0:
276,56,13968,2,0,L|208:60,1,50,8|0,0:0|0:0,0:0:0:0:
180,68,14284,6,0,B|168:152|192:232,1,150,4|8,0:2|0:0,0:0:0:0:
220,248,14916,2,0,B|236:296|224:364,1,100,0|8,0:0|0:0,0:0:0:0:
136,332,15547,1,8,0:0:0:0:
60,280,15863,1,8,0:0:0:0:
112,208,16179,1,2,0:0:0:0:
72,128,16495,1,4,0:2:0:0:
124,56,16811,6,0,B|144:48|192:40,1,50,4|0,0:0|0:0,0:0:0:0:
208,68,17126,2,0,P|264:48|312:52,1,100,8|2,0:0|0:3,0:0:0:0:
348,64,17600,1,2,0:3:0:0:
348,64,17758,1,8,0:0:0:0:
408,132,18074,2,0,L|392:248,2,100,2|8|8,0:0|0:0|3:0,0:0:0:0:
432,92,18863,2,0,B|428:56|436:24,1,50,0|12,0:0|0:1,0:0:0:0:
348,64,19337,6,0,P|300:128|304:168,1,100,8|8,0:0|0:0,0:0:0:0:
308,188,19808,1,0,1:0:0:0:
308,188,19965,2,0,L|296:248,1,50,8|2,0:0|0:0,0:0:0:0:
248,312,20436,2,0,P|176:292|240:72,1,350,4|12,0:0|0:2,0:0:0:0:
256,156,21858,5,4,1:0:0:0:
324,100,22173,2,0,P|376:92|428:96,2,100,2|2|0,0:0|0:0|0:0,0:0:0:0:
284,80,22963,2,0,B|232:92|172:80,1,100,2|2,0:0|0:0,0:0:0:0:
140,84,23436,2,0,L|68:104,1,50,2|2,0:0|0:0,0:0:0:0:
64,132,23752,2,0,P|56:188|84:248,1,100,2|2,0:3|0:3,0:0:0:0:
148,272,24384,6,0,L|316:264,2,150,2|2|2,1:0|1:0|1:1,0:0:0:0:
168,184,25647,1,2,0:3:0:0:
256,180,25963,1,2,0:3:0:0:
348,180,26279,2,0,B|408:176|464:180,1,100,2|2,0:0|0:0,0:0:0:0:
476,92,26910,6,0,P|416:96|360:92,1,100,0|2,1:0|0:3,0:0:0:0:
296,52,27542,1,2,0:2:0:0:
208,60,27858,2,0,P|172:68|144:72,1,50,0|0,0:0|0:0,0:0:0:0:
112,68,28173,2,0,P|128:128|112:184,1,100,2|2,0:0|0:3,0:0:0:0:
100,204,28647,1,2,0:0:0:0:
100,204,28805,2,0,B|88:256|112:304,1,100,2|2,0:0|0:3,0:0:0:0:
188,348,29436,6,0,L|328:332,1,100,2|2,1:0|1:0,0:0:0:0:
376,316,30068,2,0,P|408:328|436:348,1,50,10|0,1:0|0:0,0:0:0:0:
460,356,30384,2,0,P|496:220|408:96,1,300,8|0,0:0|0:0,0:0:0:0:
368,84,31489,1,2,2:0:0:0:
368,84,31647,2,0,B|328:120|264:104,1,100,8|4,0:0|0:0,0:0:0:0:
188,84,32279,6,0,P|180:120|176:156,1,50,10|0,0:0|0:0,0:0:0:0:
144,164,32594,2,0,P|160:232|152:272,1,100,2|8,0:1|0:0,0:0:0:0:
136,304,33068,2,0,L|28:328,2,100,2|2|2,0:0|0:0|0:0,0:0:0:0:
160,340,33858,2,0,B|208:324|232:324,1,50,2|2,0:3|0:0,0:0:0:0:
248,308,34173,2,0,B|300:300|320:284,1,50,8|2,0:0|0:0,0:0:0:0:
332,268,34489,6,0,B|396:208|340:100,2,150,2|2|10,0:0|0:0|0:0,0:0:0:0:
264,208,35752,2,0,B|216:192|216:192|160:208,1,100,2|8,0:3|0:0,0:0:0:0:
88,244,36384,1,2,0:0:0:0:
36,172,36700,1,10,0:0:0:0:
72,92,37015,5,4,0:2:0:0:
160,76,37331,2,0,B|212:80|260:68,1,100,8|2,0:0|0:3,0:0:0:0:
348,48,37963,1,8,0:0:0:0:
348,48,38121,2,0,L|400:80,1,50,2|2,0:0|0:0,0:0:0:0:
444,148,38594,1,8,0:0:0:0:
444,148,38752,2,0,P|432:196|440:260,2,100,2|2|0,0:0|0:0|0:0,0:0:0:0:
404,168,39542,6,0,B|344:220|248:188,1,150,4|0,0:2|0:0,0:0:0:0:
220,172,40173,2,0,L|208:88,1,50,2|10,0:3|0:1,0:0:0:0:
152,56,40647,2,0,P|88:68|52:100,1,100,6|0,0:0|0:0,0:0:0:0:
68,132,41121,2,0,P|84:180|68:236,1,100,8|8,0:0|0:3,0:0:0:0:
44,260,41594,1,8,0:3:0:0:
104,328,41910,6,0,L|296:308,1,150,4|0,0:0|3:0,0:0:0:0:
340,288,42700,2,0,B|400:292|444:268,1,100,0|0,3:0|3:0,0:0:0:0:
476,248,43173,2,0,P|432:188|448:100,1,150,4|0,0:0|3:0,0:0:0:0:
360,76,43963,2,0,P|348:124|344:188,1,100,0|8,3:0|3:0,0:0:0:0:
304,256,44594,6,0,L|196:264,1,100,4|0,0:0|0:0,0:0:0:0:
160,184,45239,2,0,L|272:176,1,100,4|0,0:0|0:0,0:0:0:0:
348,164,45884,2,0,P|408:168|456:148,1,100,4|0,0:0|0:0,0:0:0:0:
388,84,46522,2,0,P|336:80|284:96,1,100,4|4,0:0|0:3,0:0:0:0:
259,176,47160,6,0,P|176:188|96:96,1,200,4|0,0:0|1:0,0:0:0:0:
60,92,47925,2,0,B|68:148|44:200,1,100,2|2,0:0|0:3,0:0:0:0:
32,232,48384,2,0,P|80:256|136:252,1,100,2|0,0:0|0:0,0:0:0:0:
200,204,49015,2,0,P|252:188|300:192,1,100,8|2,0:1|0:0,0:0:0:0:
360,256,49647,6,0,P|436:228|460:104,1,200,8|2,0:1|0:0,0:0:0:0:
392,72,50594,2,0,B|288:40|300:112|188:64,1,200,8|8,0:1|0:3,0:0:0:0:
112,36,51541,1,8,0:3:0:0:
36,88,51857,1,4,0:3:0:0:
52,176,52173,6,0,L|36:292,1,100,4|8,0:0|0:0,0:0:0:0:
116,324,52805,2,0,L|132:208,1,100,8|8,0:0|0:0,0:0:0:0:
220,212,53436,2,0,L|204:328,1,100,8|8,0:0|0:0,0:0:0:0:
288,348,54068,2,0,L|304:232,1,100,8|8,0:0|0:0,0:0:0:0:
320,160,54699,6,0,P|276:128|216:120,1,100,4|8,0:2|0:0,0:0:0:0:
188,132,55173,2,0,P|132:152|64:148,1,100,8|0,0:0|0:0,0:0:0:0:
96,200,55647,2,0,L|120:304,1,100,10|10,0:0|0:0,0:0:0:0:
304,288,56594,2,0,B|296:240|296:220,2,50,8|0|12,3:0|3:2|1:2,0:0:0:0:
392,268,57226,6,0,P|436:280|460:292,1,50,4|0,0:0|0:0,0:0:0:0:
482,297,57541,2,0,P|462:241|470:181,1,100,10|2,0:0|0:3,0:0:0:0:
492,116,58173,1,2,0:0:0:0:
408,80,58489,2,0,L|340:96,1,50,2|0,0:0|0:0,0:0:0:0:
316,92,58805,2,0,P|264:84|200:92,1,100,10|2,0:0|0:3,0:0:0:0:
136,124,59436,1,10,0:0:0:0:
52,88,59752,6,0,P|48:144|80:200,1,100,2|10,0:0|0:0,0:0:0:0:
136,240,60384,2,0,P|172:252|200:268,1,50,2|2,0:3|0:3,0:0:0:0:
220,280,60699,2,0,P|296:256|352:268,1,100,10|0,0:0|0:0,0:0:0:0:
360,272,61173,1,0,0:0:0:0:
360,272,61331,2,0,L|376:160,1,100,10|2,0:0|0:0,0:0:0:0:
320,100,61962,1,10,0:0:0:0:
236,68,62278,6,0,P|200:80|172:104,1,50,2|0,0:0|0:0,0:0:0:0:
152,108,62594,2,0,P|88:104|52:80,1,100,10|2,0:0|0:3,0:0:0:0:
4,160,63226,1,10,0:0:0:0:
80,208,63541,2,0,P|88:244|84:280,1,50,2|0,0:0|0:0,0:0:0:0:
92,304,63857,2,0,P|148:284|216:296,1,100,10|2,0:0|0:3,0:0:0:0:
272,316,64489,1,10,0:0:0:0:
360,336,64805,6,0,P|420:336|472:316,1,100,2|10,0:0|0:0,0:0:0:0:
448,236,65436,2,0,P|444:208|448:168,1,50,2|2,0:3|0:3,0:0:0:0:
448,140,65752,2,0,P|400:144|352:120,1,100,10|4,0:0|0:0,0:0:0:0:
284,64,66384,2,0,P|264:44|232:28,2,50,2|8|2,0:0|0:0|0:2,0:0:0:0:
256,152,67015,2,0,P|240:212|248:260,1,100,4|4,0:2|0:0,0:0:0:0:
264,336,67647,5,8,0:1:0:0:
352,328,67962,1,8,3:3:0:0:
440,316,68278,1,8,0:1:0:0:
468,232,68594,2,0,L|484:164,2,50,8|2|8,0:3|0:3|0:0,0:0:0:0:
384,200,69226,2,0,L|352:152,2,50,8|4|8,0:3|0:3|0:0,0:0:0:0:
296,224,69857,5,4,0:3:0:0:
240,152,70173,1,8,0:0:0:0:
164,196,70489,1,8,3:3:0:0:
100,132,70805,1,8,0:1:0:0:
176,88,71120,2,0,L|164:32,2,50,8|2|8,0:3|0:3|0:0,0:0:0:0:
240,152,71752,2,0,L|252:208,2,50,8|4|8,0:3|0:3|0:0,0:0:0:0:
264,64,72384,6,0,P|316:48|380:56,1,100,4|10,0:0|0:0,0:0:0:0:
448,84,73015,2,0,B|424:136|436:196,1,100,2|10,0:0|0:0,0:0:0:0:
444,272,73647,2,0,P|344:256|312:200,1,150,4|0,0:2|0:0,0:0:0:0:
316,176,74278,2,0,L|332:112,2,50,0|0|8,0:0|0:0|0:0,0:0:0:0:
232,208,74910,6,0,B|180:204|180:204|132:216|132:216|56:212,2,150,12|8|8,0:0|0:0|0:0,0:0:0:0:
296,268,76173,2,0,L|308:368,2,100,8|8|10,0:0|0:0|0:0,0:0:0:0:
340,188,77120,1,12,0:0:0:0:
324,100,77436,6,0,P|300:80|268:68,1,50,4|0,0:0|0:0,0:0:0:0:
240,88,77752,2,0,P|192:112|120:104,1,100,10|2,0:0|0:3,0:0:0:0:
56,100,78384,1,10,0:0:0:0:
20,184,78699,2,0,P|20:248|32:296,1,100,2|10,0:0|0:0,0:0:0:0:
100,336,79331,1,2,0:3:0:0:
176,288,79647,1,10,0:0:0:0:
252,336,79962,6,0,L|320:348,1,50,2|0,0:0|0:0,0:0:0:0:
340,320,80278,2,0,P|336:228|332:200,1,100,10|2,0:0|0:3,0:0:0:0:
324,132,80910,2,0,P|280:96|228:88,1,100,10|4,0:0|0:2,0:0:0:0:
156,128,81541,2,0,P|140:72|160:12,2,100,8|2|10,0:0|0:3|0:0,0:0:0:0:
208,204,82489,6,0,P|216:247|212:283,1,50,2|0,0:0|0:0,0:0:0:0:
208,296,82805,2,0,P|152:324|96:308,1,100,10|2,0:0|0:3,0:0:0:0:
52,256,83436,1,10,0:0:0:0:
112,188,83752,2,0,P|120:164|124:128,1,50,2|0,0:0|0:0,0:0:0:0:
116,96,84068,2,0,P|168:100|220:72,1,100,10|2,0:0|0:3,0:0:0:0:
288,36,84699,1,10,0:0:0:0:
288,128,85015,6,0,L|244:228,2,100,2|10|0,0:0|0:0|0:0,0:0:0:0:
328,108,85805,1,2,0:3:0:0:
328,108,85962,2,0,P|388:112|432:136,1,100,10|14,0:0|0:0,0:0:0:0:
436,220,86594,2,0,B|420:252|396:264,1,50,2|8,0:0|0:0,0:0:0:0:
368,284,86910,2,0,P|348:232|360:176,1,100,2|10,0:2|0:0,0:0:0:0:
268,212,87541,6,0,P|220:236|152:228,1,100,4|2,0:0|0:2,0:0:0:0:
88,208,88173,1,2,0:2:0:0:
72,120,88489,2,0,P|156:84|268:104,1,200,4|8,0:0|0:0,0:0:0:0:
336,152,89436,2,0,P|368:144|388:136,2,50,2|2|10,0:3|0:3|0:0,0:0:0:0:
256,196,90068,5,8,0:0:0:0:
200,264,90384,1,2,0:0:0:0:
268,324,90699,1,10,0:0:0:0:
328,256,91015,2,0,B|358:259|384:272|384:272|416:228|484:224,1,150,4|2,0:0|0:3,0:0:0:0:
504,236,91647,2,0,P|496:164|500:112,2,100,8|2|12,0:3|0:3|0:0,0:0:0:0:
480,324,92594,6,0,P|416:348|380:344,1,100,4|8,0:2|0:0,0:0:0:0:
304,304,93226,2,0,P|252:288|188:296,1,100,0|8,0:0|0:0,0:0:0:0:
164,308,93699,1,0,0:0:0:0:
164,308,93857,1,2,0:2:0:0:
100,244,94173,2,0,P|96:188|100:136,1,100,10|2,0:0|0:0,0:0:0:0:
124,104,94647,2,0,B|128:64|124:36,1,50,0|10,0:3|0:0,0:0:0:0:
212,80,95120,6,0,P|276:96|336:72,1,100,6|0,0:0|0:0,0:0:0:0:
352,72,95594,2,0,P|420:52|476:64,1,100,10|0,0:0|0:0,0:0:0:0:
488,72,96068,2,0,L|504:184,1,100,10|8,0:0|0:0,0:0:0:0:
460,252,96699,2,0,P|404:260|356:296,1,100,8|2,0:0|0:2,0:0:0:0:
348,324,97173,2,0,P|316:324|280:312,1,50,2|4,0:3|0:2,0:0:0:0:
216,284,97647,6,0,P|232:240|224:172,2,100,4|8|0,0:0|0:0|0:0,0:0:0:0:
172,300,98444,2,0,P|144:308|104:328,1,50,0|8,0:0|0:0,0:0:0:0:
84,332,98764,2,0,P|40:272|52:188,1,150,12|2,0:0|0:2,0:0:0:0:
116,144,99554,2,0,P|124:92|120:72,2,50,8|0|4,0:0|0:0|0:2,0:0:0:0:
180,208,100186,6,0,B|260:184|252:236|344:208,2,150,12|8|8,0:0|0:0|0:0,0:0:0:0:
144,236,101291,2,0,P|138:273|140:304,1,50,2|12,0:0|0:2,0:0:0:0:
200,352,101765,1,8,0:0:0:0:
268,296,102080,1,8,0:0:0:0:
348,340,102396,1,8,0:0:0:0:
412,276,102712,6,0,L|400:164,1,100,4|8,0:0|0:0,0:0:0:0:
492,188,103344,2,0,P|483:132|440:96,1,100,2|8,0:0|0:0,0:0:0:0:
364,96,103975,2,0,P|372:64|388:36,2,50,2|2|8,0:0|0:2|0:0,0:0:0:0:
336,132,104449,2,0,P|272:148|184:88,1,150,2|4,0:0|0:2,0:0:0:0:
152,188,105238,6,0,L|176:308,1,100,12|8,0:0|0:0,0:0:0:0:
244,340,105870,2,0,P|272:352|312:356,1,50,8|2,0:0|0:0,0:0:0:0:
380,356,106344,2,0,L|356:192,1,150,4|0,0:0|0:0,0:0:0:0:
340,120,107133,1,8,0:0:0:0:
252,136,107449,2,0,P|220:132|180:112,2,50,8|8|4,0:0|0:0|0:0,0:0:0:0:
288,52,108080,5,8,0:0:0:0:
200,40,108396,2,0,P|96:64|64:120,1,150,0|0,0:0|0:0,0:0:0:0:
100,132,109028,1,0,0:0:0:0:
84,220,109344,1,8,0:0:0:0:
108,308,109659,2,0,L|232:316,1,100,0|8,0:0|0:0,0:0:0:0:
252,324,110133,5,0,0:0:0:0:
252,324,110291,2,0,P|280:264|264:196,1,100,2|8,0:2|0:0,0:0:0:0:
260,192,110765,2,0,P|256:136|280:72,1,100,2|0,0:2|0:0,0:0:0:0:
296,60,111238,1,8,0:0:0:0:
356,124,111554,2,0,P|416:136|480:152,1,100,2|8,0:2|0:0,0:0:0:0:
488,228,112186,2,0,P|486:261|478:293,2,50,2|0|8,0:2|0:0|0:0,0:0:0:0:
400,244,112817,6,0,L|280:264,1,100,2|10,0:2|0:0,0:0:0:0:
216,284,113449,2,0,P|200:256|192:216,1,50,2|0,0:2|0:0,0:0:0:0:
200,196,113765,2,0,P|216:148|212:96,1,100,10|2,0:0|0:2,0:0:0:0:
140,44,114396,1,10,0:0:0:0:
60,88,114712,1,2,0:2:0:0:
60,88,114870,2,0,B|48:136|60:192,1,100,0|0,0:0|0:0,0:0:0:0:
92,220,115344,6,0,P|96:296|44:356,2,150,12|8|8,0:0|0:0|0:0,0:0:0:0:
152,152,116607,2,0,P|220:136|272:144,1,100,4|8,0:2|0:3,0:0:0:0:
288,160,117080,1,4,0:3:0:0:
288,160,117238,2,0,P|340:164|408:136,1,100,4|0,0:0|0:0,0:0:0:0:
444,80,117870,1,4,0:0:0:0:
344,300,122923,6,0,P|296:288|228:300,1,100,4|0,0:0|0:0,0:0:0:0:
204,312,123396,1,0,0:0:0:0:
204,312,123554,2,0,L|124:344,1,50,8|2,0:1|0:0,0:0:0:0:
140,244,124028,2,0,L|72:224,1,50,0|2,0:0|0:0,0:0:0:0:
140,152,124501,2,0,L|120:84,1,50,2|0,0:0|0:0,0:0:0:0:
116,60,124817,2,0,P|196:84|252:72,1,100,8|0,0:1|0:0,0:0:0:0:
292,44,125449,6,0,L|280:152,2,100,4|2|2,0:2|0:0|0:0,0:0:0:0:
384,40,126396,2,0,P|408:112|356:228,1,200,8|2,0:1|0:0,0:0:0:0:
284,268,127344,1,2,0:0:0:0:
192,268,127659,1,6,3:2:0:0:
112,228,127975,5,4,0:0:0:0:
96,140,128294,2,0,P|97:88|104:28,2,100,10|10|10,0:0|0:0|0:0,0:0:0:0:
180,176,129251,2,0,P|232:180|288:152,1,100,8|8,0:0|0:0,0:0:0:0:
340,96,129876,1,8,0:0:0:0:
416,148,130188,1,8,0:0:0:0:
412,236,130501,6,0,P|364:260|308:252,1,100,8|8,0:0|0:0,0:0:0:0:
240,300,131126,2,0,P|192:284|120:296,1,100,8|8,0:0|0:0,0:0:0:0:
100,304,131594,1,8,0:0:0:0:
256,192,131751,12,4,133027,0:0:0:0:
92,136,133658,6,0,L|116:72,2,50,2|2|10,0:3|0:3|0:0,0:0:0:0:
52,216,134290,2,0,L|72:324,2,100,2|10|2,0:0|0:0|0:3,0:0:0:0:
140,232,135237,1,10,0:0:0:0:
216,180,135553,6,0,P|224:128|200:64,1,100,2|10,0:0|0:0,0:0:0:0:
128,48,136184,1,2,0:3:0:0:
56,104,136500,2,0,B|20:208|88:196|44:320,1,200,10|10,0:0|0:0,0:0:0:0:
124,352,137448,2,0,P|176:356|232:336,1,100,2|10,0:0|0:0,0:0:0:0:
272,268,138079,6,0,L|260:200,1,50,2|0,0:0|0:0,0:0:0:0:
252,176,138395,2,0,P|272:124|260:68,1,100,10|2,0:0|0:3,0:0:0:0:
184,116,139027,2,0,P|152:124|116:120,1,50,10|0,0:0|0:0,0:0:0:0:
88,120,139342,2,0,P|96:184|84:236,1,100,2|10,0:0|0:0,0:0:0:0:
68,304,139974,2,0,L|48:360,2,50,2|2|10,0:3|0:3|0:0,0:0:0:0:
156,284,140605,6,0,P|212:292|272:268,1,100,2|10,0:0|0:0,0:0:0:0:
328,232,141237,2,0,P|364:220|404:216,1,50,2|2,0:3|0:3,0:0:0:0:
420,224,141553,2,0,P|400:176|408:112,1,100,10|4,0:0|0:0,0:0:0:0:
320,88,142184,6,0,P|292:92|256:104,1,50,2|8,0:0|0:0,0:0:0:0:
228,116,142500,2,0,P|168:112|120:80,2,100,2|4|4,0:2|0:2|0:0,0:0:0:0:
260,200,143448,5,8,0:1:0:0:
236,288,143763,1,8,0:3:0:0:
156,332,144079,1,8,0:0:0:0:
76,288,144395,2,0,L|64:228,2,50,8|2|8,0:3|0:3|0:0,0:0:0:0:
148,232,145027,2,0,L|160:156,2,50,8|4|8,0:3|0:3|0:0,0:0:0:0:
228,276,145658,5,4,0:2:0:0:
312,308,145974,1,8,0:0:0:0:
400,284,146290,1,8,0:3:0:0:
444,204,146605,1,8,0:0:0:0:
416,120,146921,2,0,P|410:89|413:52,2,50,8|2|8,0:3|0:3|0:0,0:0:0:0:
344,172,147553,2,0,P|348:212|344:244,2,50,8|4|8,0:3|0:3|0:0,0:0:0:0:
292,100,148184,6,0,L|176:112,1,100,4|10,0:0|0:0,0:0:0:0:
152,132,148652,1,0,0:0:0:0:
116,156,148809,2,0,L|-4:168,1,100,2|10,0:0|0:0,0:0:0:0:
52,248,149434,2,0,P|128:272|164:364,1,150,4|0,0:2|0:0,0:0:0:0:
207,322,150065,1,2,0:0:0:0:
296,333,150381,1,2,0:0:0:0:
376,288,150697,6,0,P|404:216|380:140,2,150,12|10|10,0:0|0:0|0:0,0:0:0:0:
316,220,151960,2,0,B|280:220|252:232,1,50,8|0,0:0|0:0,0:0:0:0:
224,244,152276,1,8,0:0:0:0:
152,192,152591,1,10,0:0:0:0:
152,100,152907,1,8,3:1:0:0:
224,48,153223,6,0,B|236:80|232:104,1,50,4|0,0:0|0:0,0:0:0:0:
244,140,153539,2,0,P|240:192|256:248,1,100,10|0,0:0|0:0,0:0:0:0:
164,212,154170,2,0,P|124:220|88:216,1,50,10|0,0:0|0:0,0:0:0:0:
68,224,154486,2,0,P|64:276|68:324,1,100,2|10,0:0|0:0,0:0:0:0:
156,320,155118,2,0,B|180:336|236:332,2,50,2|2|10,0:3|0:3|0:0,0:0:0:0:
172,232,155749,6,0,B|180:180|172:176,1,50,2|0,0:0|0:0,0:0:0:0:
196,144,156065,2,0,B|192:96|188:40,1,100,10|0,0:0|0:0,0:0:0:0:
280,48,156697,2,0,B|260:96|284:156,1,100,10|2,0:0|0:0,0:0:0:0:
372,136,157328,2,0,B|392:184|368:244,1,100,10|2,0:0|0:0,0:0:0:0:
356,276,157802,2,0,P|340:304|332:340,1,50,0|10,0:3|0:0,0:0:0:0:
248,348,158276,6,0,B|220:340|184:336,1,50,2|0,0:0|0:0,0:0:0:0:
152,332,158591,2,0,P|136:264|148:212,1,100,10|2,0:0|0:3,0:0:0:0:
224,204,159223,1,10,0:0:0:0:
200,116,159539,2,0,B|252:128|312:116,1,100,2|10,0:0|0:0,0:0:0:0:
384,84,160170,1,2,0:3:0:0:
408,172,160486,2,0,B|416:216|404:244,1,50,10|0,0:0|0:0,0:0:0:0:
404,268,160802,6,0,B|352:284|284:272,1,100,2|10,0:0|0:0,0:0:0:0:
228,232,161440,2,0,B|200:216|156:224,1,50,2|2,0:3|0:3,0:0:0:0:
136,236,161759,2,0,P|120:180|136:124,1,100,10|8,0:0|0:0,0:0:0:0:
184,68,162393,2,0,L|240:80,1,50,2|0,0:0|0:0,0:0:0:0:
276,88,162709,2,0,P|360:96|392:76,1,100,2|12,0:0|0:2,0:0:0:0:
448,44,163341,5,12,0:0:0:0:
496,120,163656,2,0,L|512:184,2,50,2|8|2,0:0|0:0|0:0,0:0:0:0:
412,156,164288,2,0,P|352:208|364:340,1,200,4|8,0:0|0:0,0:0:0:0:
264,300,165235,2,0,P|212:284|156:288,1,100,2|10,0:2|0:2,0:0:0:0:
80,312,165867,5,2,0:0:0:0:
60,224,166183,1,4,0:3:0:0:
144,196,166499,1,8,0:0:0:0:
164,108,166814,2,0,P|264:88|368:148,1,200,4|8,0:0|0:0,0:0:0:0:
408,196,167762,2,0,L|392:296,1,100,2|4,0:2|0:2,0:0:0:0:
308,268,168393,6,0,P|256:248|204:252,1,100,4|8,0:0|0:0,0:0:0:0:
144,308,169025,2,0,P|92:316|44:300,1,100,2|8,0:2|0:0,0:0:0:0:
28,216,169656,2,0,L|52:100,1,100,2|8,0:2|0:0,0:0:0:0:
136,100,170288,2,0,B|124:68|132:28,2,50,2|2|8,0:2|0:3|0:0,0:0:0:0:
164,184,170920,6,0,P|216:160|288:168,1,100,4|0,0:0|0:0,0:0:0:0:
300,180,171393,2,0,P|348:200|412:196,1,100,10|0,0:0|0:0,0:0:0:0:
436,184,171867,2,0,L|464:80,1,100,10|8,0:0|0:0,0:0:0:0:
472,44,172337,2,0,L|396:60,1,50,2|8,0:3|0:0,0:0:0:0:
336,72,172801,2,0,B|324:116|324:144,1,50,8|8,0:3|0:3,0:0:0:0:
304,208,173265,6,0,P|252:228|192:220,1,100,4|0,0:0|0:0,0:0:0:0:
164,212,173739,2,0,B|136:208|108:220,1,50,4|0,0:2|0:0,0:0:0:0:
76,236,174058,2,0,B|44:288|68:344,1,100,2|8,0:0|0:0,0:0:0:0:
104,348,174537,2,0,P|159:339|212:332,1,100,2|0,0:0|0:0,0:0:0:0:
248,320,175011,2,0,B|292:312|312:315,2,50,8|0|2,0:0|0:0|0:0,0:0:0:0:
208,240,175643,5,8,0:0:0:0:
208,240,175801,2,0,B|192:188|220:132,1,100,4|0,0:2|0:0,0:0:0:0:
228,100,176274,2,0,B|284:112|328:80,2,100,8|2|8,0:0|0:0|0:0,0:0:0:0:
192,72,177064,2,0,P|124:100|96:140,1,100,2|2,0:0|0:0,0:0:0:0:
108,208,177696,2,0,P|148:244|212:252,1,100,2|2,0:0|0:0,0:0:0:0:
232,236,178169,5,8,0:0:0:0:
232,236,178327,2,0,B|288:216|344:228,1,100,4|0,0:2|0:0,0:0:0:0:
372,244,178801,2,0,B|396:264|436:260,1,50,8|0,0:1|0:0,0:0:0:0:
464,260,179117,2,0,L|452:156,1,100,2|8,0:0|0:0,0:0:0:0:
444,116,179590,2,0,P|396:128|336:100,1,100,4|0,0:2|0:0,0:0:0:0:
316,80,180064,1,8,0:0:0:0:
260,148,180380,2,0,L|264:212,2,50,2|2|8,0:0|0:3|0:0,0:0:0:0:
240,108,180853,6,0,L|124:120,1,100,4|0,0:2|0:0,0:0:0:0:
96,124,181327,2,0,P|92:184|104:232,1,100,8|2,0:0|0:0,0:0:0:0:
144,304,181959,1,10,3:1:0:0:
144,304,182117,2,0,P|196:284|256:288,1,100,4|8,0:2|0:3,0:0:0:0:
284,300,182590,2,0,L|324:336,1,50,0|2,0:2|0:2,0:2:0:0:
356,252,183064,1,2,0:2:0:0:
296,184,183380,6,0,B|280:84|268:24,1,150,4|8,0:0|0:0,0:0:0:0:
196,88,184176,2,0,B|184:120|180:156,2,50,2|2|8,0:3|0:3|0:0,0:0:0:0:
108,96,184814,2,0,B|84:144|96:204,1,100,2|8,0:3|0:0,0:0:0:0:
128,276,185452,2,0,P|132:312|128:340,2,50,2|2|8,0:3|0:3|0:0,0:0:0:0:
180,204,186091,6,0,P|232:192|292:204,1,100,2|8,0:0|0:0,0:0:0:0:
364,220,186722,2,0,B|400:228|428:256,1,50,2|2,3:3|3:0,0:0:0:0:
448,268,187038,2,0,P|468:200|448:132,1,100,8|2,0:0|0:3,0:0:0:0:
440,84,187666,1,8,0:0:0:0:
352,64,187979,2,0,B|320:60|292:40,1,50,2|2,0:3|0:3,0:0:0:0:
264,72,188291,2,0,B|232:68|200:80,1,50,8|8,0:0|0:0,0:0:0:0:
172,84,188604,6,0,B|160:136|152:184,1,100,4|8,0:0|0:0,0:0:0:0:
188,264,189235,2,0,P|240:268|284:244,1,100,2|8,0:3|0:0,0:0:0:0:
352,196,189867,2,0,P|400:192|456:216,1,100,2|8,0:3|0:0,0:0:0:0:
476,296,190498,2,0,L|484:352,2,50,2|2|12,0:3|0:3|0:2,0:0:0:0:
392,328,191130,6,0,L|276:340,1,100,12|2,0:0|0:3,0:0:0:0:
248,344,191604,2,0,P|232:300|240:244,1,100,8|2,0:0|0:3,0:0:0:0:
268,212,192077,2,0,P|288:152|276:100,1,100,4|2,0:2|0:0,0:0:0:0:
216,56,192709,2,0,L|112:84,2,100,0|8|8,0:0|0:0|0:0,0:0:0:0:
284,116,193656,6,0,P|344:120|388:96,1,100,4|0,0:0|0:0,0:0:0:0:
416,76,194130,2,0,P|392:140|404:188,1,100,10|0,0:0|0:0,0:0:0:0:
416,212,194604,2,0,L|392:272,1,50,10|0,0:0|0:0,0:0:0:0:
360,288,194919,1,0,0:0:0:0:
360,288,195077,2,0,P|288:296|220:304,1,100,10|0,0:0|0:0,0:0:0:0:
215,295,195551,1,2,0:0:0:0:
189,208,195867,1,4,0:3:0:0:
252,128,196182,6,0,P|224:80|160:52,1,100,12|0,0:2|0:0,0:0:0:0:
152,84,196656,2,0,P|92:96|44:136,1,100,12|2,0:2|0:3,0:0:0:0:
68,160,197130,2,0,P|76:192|73:229,1,50,12|0,0:2|0:0,0:0:0:0:
64,252,197446,1,2,0:0:0:0:
64,252,197604,2,0,L|200:272,1,100,8|2,0:0|0:2,0:0:0:0:
208,272,198077,1,12,0:2:0:0:
280,220,198393,1,8,0:0:0:0:
240,140,198709,6,0,P|228:88|240:24,1,100,4|2,0:0|0:3,0:0:0:0:
280,48,199182,2,0,L|388:32,1,100,2|2,0:0|0:3,0:0:0:0:
412,64,199656,1,2,0:0:0:0:
376,148,199972,1,2,0:3:0:0:
376,148,200130,2,0,P|364:200|368:256,1,100,8|2,0:3|0:2,0:0:0:0:
380,288,200604,1,12,0:2:0:0:
292,308,200919,1,8,0:2:0:0:
204,328,201235,6,0,B|192:276|200:212,1,100,12|2,0:0|0:0,0:0:0:0:
256,160,201867,2,0,P|264:108|260:52,1,100,2|8,0:0|0:0,0:0:0:0:
224,36,202340,1,4,0:2:0:0:
224,36,202498,1,6,0:0:0:0:
144,76,202814,1,8,0:0:0:0:
144,164,203130,2,0,L|152:228,2,50,8|2|8,0:0|0:3|0:0,0:0:0:0:
52,156,203761,6,0,L|72:280,1,100,4|8,0:2|0:0,0:0:0:0:
84,296,204235,2,0,L|148:324,1,50,2|2,0:0|0:3,0:0:0:0:
216,336,204709,2,0,B|244:324|288:328,1,50,8|0,0:0|0:0,0:0:0:0:
308,332,205025,2,0,B|368:344|408:300,1,100,2|8,0:2|0:0,0:0:0:0:
444,228,205656,2,0,L|456:156,2,50,2|2|8,0:3|0:3|0:0,0:0:0:0:
368,180,206288,6,0,B|320:156|268:172,1,100,12|2,0:0|0:3,0:0:0:0:
184,200,206919,2,0,L|176:140,1,50,4|2,0:2|0:3,0:0:0:0:
176,104,207235,2,0,P|120:96|68:40,1,100,2|4,0:0|0:0,0:0:0:0:
112,248,217655,6,0,L|200:236,1,50,6|2,0:2|0:2,0:0:0:0:
248,260,218128,2,0,P|320:248|360:248,1,100,2|2,0:2|0:2,0:0:0:0:
388,232,218602,2,0,P|444:256|512:248,1,100,4|6,0:1|0:2,0:0:0:0:
448,172,219230,6,0,P|432:124|444:56,1,100,2|2,0:0|3:2,0:0:0:0:
352,108,219855,2,0,P|296:96|240:48,1,100,2|2,0:0|3:2,0:0:0:0:
188,124,220483,2,0,P|128:136|76:160,2,100,2|2|0,3:2|3:2|3:0,0:0:0:0:
256,184,221431,6,0,P|264:236|252:292,1,100,6|2,3:2|3:2,0:0:0:0:
176,328,222069,2,0,P|168:276|180:220,1,100,2|0,3:2|3:0,0:0:0:0:
140,200,222548,1,12,0:2:0:0:
140,200,222707,2,0,P|152:152|140:92,1,100,2|2,3:2|3:2,0:0:0:0:
208,36,223338,2,0,P|260:48|316:36,1,100,2|0,3:2|3:0,0:0:0:0:
396,36,223970,6,0,L|408:144,1,100,4|2,0:0|3:2,0:0:0:0:
416,180,224448,2,0,B|424:216|416:248,1,50,8|2,0:0|3:2,0:0:0:0:
364,300,224927,1,8,3:2:0:0:
280,332,225246,2,0,P|220:288|232:184,1,150,2|8,3:2|0:0,0:0:0:0:
252,192,225877,2,0,P|268:144|252:80,1,100,2|8,0:1|0:0,0:0:0:0:
180,56,226509,6,0,L|56:68,1,100,4|0,0:3|0:0,0:0:0:0:
36,72,226977,2,0,L|48:196,1,100,8|2,0:3|0:2,0:0:0:0:
52,216,227446,2,0,P|120:240|144:284,1,100,4|8,0:3|0:0,0:0:0:0:
256,192,227915,12,4,229009,0:0:0:0:
320,312,229640,6,0,L|408:304,2,50,2|2|10,0:3|0:3|0:0,0:0:0:0:
256,248,230272,2,0,L|148:260,1,100,2|10,0:0|0:0,0:0:0:0:
96,192,230903,2,0,L|28:200,2,50,2|2|10,0:3|0:3|0:0,0:0:0:0:
164,132,231535,6,0,P|212:152|280:136,1,100,2|10,0:0|0:0,0:0:0:0:
300,128,232009,1,0,0:0:0:0:
300,128,232166,2,0,P|360:124|416:156,1,100,2|10,0:3|0:0,0:0:0:0:
452,208,232798,2,0,L|432:324,1,100,6|10,0:2|0:0,0:0:0:0:
400,336,233272,1,0,0:0:0:0:
400,336,233430,2,0,P|352:356|288:348,1,100,2|10,0:0|0:0,0:0:0:0:
228,304,234061,6,0,B|216:276|224:240,1,50,2|0,0:0|0:0,0:0:0:0:
244,216,234377,2,0,P|233:150|192:104,2,100,10|2|10,0:0|0:3|0:0,0:0:0:0:
328,252,235324,2,0,P|368:256|404:248,1,50,2|0,0:0|0:0,0:0:0:0:
420,248,235640,2,0,P|444:200|440:140,1,100,10|2,0:0|0:3,0:0:0:0:
412,124,236114,2,0,P|406:88|408:64,1,50,2|10,0:3|0:0,0:0:0:0:
320,52,236587,6,0,B|268:60|212:56,2,100,2|10|2,0:0|0:0|0:3,0:0:0:0:
328,96,237377,2,0,B|328:136|332:168,1,50,2|10,0:3|0:0,0:0:0:0:
316,236,237851,2,0,B|324:292|312:352,1,100,12|2,0:2|0:0,0:0:0:0:
236,296,238496,2,0,B|228:240|240:180,1,100,2|10,0:2|0:0,0:0:0:0:
192,116,239141,6,0,P|108:160|100:272,1,200,4|0,0:0|0:0,0:0:0:0:
144,332,240088,2,0,B|256:368|236:288|352:324,1,200,12|10,0:2|0:0,0:0:0:0:
424,344,241035,1,2,0:2:0:0:
456,260,241351,1,8,0:0:0:0:
392,196,241667,6,0,L|380:144,1,50,6|8,0:2|0:3,0:0:0:0:
340,132,241983,2,0,L|356:72,2,50,4|2|10,0:3|0:3|0:0,0:0:0:0:
268,188,242614,2,0,P|140:164|112:88,1,200,4|10,0:0|0:0,0:0:0:0:
172,44,243562,2,0,B|200:32|228:36,2,50,2|2|12,0:1|0:3|0:2,0:0:0:0:
232,112,244193,6,0,B|292:124|336:92,1,100,4|8,0:0|0:0,0:0:0:0:
408,56,244825,2,0,B|428:112|396:156,1,100,0|8,0:0|0:0,0:0:0:0:
328,208,245456,2,0,B|316:240|320:276,1,50,4|2,0:2|0:3,0:0:0:0:
332,300,245768,2,0,P|280:272|220:268,1,100,10|2,0:0|0:0,0:0:0:0:
196,284,246237,1,0,0:0:0:0:
196,284,246393,1,10,0:0:0:0:
124,232,246706,6,0,P|100:184|112:120,1,100,2|2,0:0|0:3,0:0:0:0:
128,100,247179,2,0,P|176:76|236:60,1,100,10|2,0:0|0:3,0:0:0:0:
264,64,247653,2,0,P|344:88|388:72,1,100,10|12,0:0|0:2,0:0:0:0:
444,64,248284,1,2,0:3:0:0:
464,152,248600,2,0,L|448:224,1,50,2|0,0:2|0:0,0:0:0:0:
408,204,248916,2,0,P|364:228|296:220,1,100,12|4,0:2|0:0,0:0:0:0:
232,192,249548,6,0,B|200:200|172:216,2,50,0|8|0,0:0|0:0|0:0,0:0:0:0:
288,120,250179,2,0,B|296:92|292:52,2,50,8|0|4,0:0|0:0|0:2,0:0:0:0:
316,204,250811,2,0,B|340:240|368:248,1,50,2|0,0:2|0:0,0:0:0:0:
392,256,251127,2,0,P|440:236|504:244,1,100,2|10,0:2|0:2,0:0:0:0:
464,152,251758,6,0,L|424:48,1,100,4|8,0:2|0:0,0:0:0:0:
388,80,252232,2,0,P|324:84|264:40,1,100,2|0,0:0|0:0,0:0:0:0:
256,44,252706,1,10,0:0:0:0:
184,100,253021,1,4,0:2:0:0:
248,160,253337,1,2,0:0:0:0:
248,160,253495,2,0,B|272:212|248:272,1,100,12|0,0:2|0:0,0:0:0:0:
228,296,253969,1,10,0:0:0:0:
140,276,254284,6,0,B|132:248|136:220,2,50,8|8|8,0:0|0:0|0:0,0:0:0:0:
136,320,254747,2,0,B|111:344|81:354,2,50,8|4|0,0:0|0:3|0:0,0:0:0:0:
176,299,255211,1,4,0:0:0:0:
256,192,255366,12,0,256811,2:0:0:0:
120,276,259351,6,0,L|184:268,1,50,4|2,0:0|0:3,0:0:0:0:
212,280,259663,2,0,B|232:168,1,100,2|2,0:3|0:2,0:0:0:0:
236,136,260132,2,0,B|268:136|300:116,1,50,2|8,0:3|0:0,0:0:0:0:
324,108,260444,2,0,P|400:116|460:152,1,100,2|8,0:0|0:0,0:0:0:0:
460,144,260916,1,2,0:0:0:0:
460,236,261232,1,8,0:0:0:0:
380,272,261548,1,8,0:0:0:0:
292,248,261864,6,0,B|248:228|192:236,1,100,4|2,0:2|0:3,0:0:0:0:
152,248,262337,2,0,B|96:272|32:256,1,100,8|2,0:0|0:3,0:0:0:0:
24,224,262811,2,0,P|19:195|24:156,1,50,8|2,0:0|0:2,0:0:0:0:
72,100,263285,1,10,0:0:0:0:
72,100,263443,2,0,L|172:88,1,100,0|6,0:0|0:2,0:0:0:0:
256,120,264074,1,8,0:0:0:0:
344,144,264390,6,0,P|400:148|456:132,1,100,4|2,0:0|0:3,0:0:0:0:
484,120,264864,1,8,0:0:0:0:
484,120,265022,2,0,L|472:224,1,100,2|10,0:0|0:0,0:0:0:0:
416,292,265653,2,0,P|421:323|428:346,2,50,2|2|2,0:3|0:0|0:2,0:0:0:0:
380,268,266127,2,0,P|316:272|260:240,1,100,2|0,0:0|0:0,0:0:0:0:
260,220,266601,1,8,0:0:0:0:
232,136,266916,6,0,B|180:148|120:128,2,100,8|8|8,0:0|0:0|0:0,0:0:0:0:
272,120,267706,1,2,0:0:0:0:
344,64,268022,2,0,B|436:80|460:200|380:272,1,250,4|8,0:0|0:0,0:0:0:0:
352,284,268959,2,0,P|320:288|288:296,2,50,8|4|4,0:0|0:3|0:0,0:0:0:0:
256,192,269428,12,0,276303,2:0:0:0:
