osu file format v14

[General]
AudioFilename: audio.mp3
AudioLeadIn: 0
PreviewTime: 56199
Countdown: 0
SampleSet: Normal
StackLeniency: 0.7
Mode: 0
LetterboxInBreaks: 0
WidescreenStoryboard: 1

[Editor]
DistanceSpacing: 1.1
BeatDivisor: 4
GridSize: 4
TimelineZoom: 1.400006

[Metadata]
Title:Catch the Moment
TitleUnicode:Catch the Moment
Artist:LiSA
ArtistUnicode:LiSA
Creator:Delis
Version:Extra
Source:劇場版 ソードアート・オンライン -オーディナル・スケール-
Tags:sword art online sao movie ordinal scale asuna Dagger-Gazel Satellite
BeatmapID:1214269
BeatmapSetID:572897

[Difficulty]
HPDrainRate:8
CircleSize:4
OverallDifficulty:9
ApproachRate:9.2
SliderMultiplier:1.9
SliderTickRate:1

[Events]
//Background and Video events
0,0,"BG.jpg",0,0
//Break Periods
2,208827,216928
2,257011,258781
//Storyboard Layer 0 (Background)
//Storyboard Layer 1 (Fail)
//Storyboard Layer 2 (Pass)
//Storyboard Layer 3 (Foreground)
//Storyboard Sound Samples

[TimingPoints]
390,315.789473684211,4,2,1,50,1,0
390,-133.333333333333,4,2,1,50,0,0
10258,-100,4,1,1,60,0,0
19337,314.13612565445,4,1,1,50,1,0
21858,315.789473684211,4,1,1,60,1,0
21858,-125,4,1,1,60,0,0
30384,-200,4,1,1,60,0,0
31568,-83.3333333333333,4,1,1,70,0,0
31884,-100,4,1,1,70,0,0
41831,-125,4,2,1,70,0,0
44594,322.58064516129,4,2,1,70,1,0
44594,-125,4,2,1,70,0,0
45884,319.148936170213,4,2,1,70,1,0
45884,-125,4,2,1,70,0,0
47160,306.122448979592,4,2,1,70,1,0
47160,-125,4,2,1,70,0,0
48384,315.789473684211,4,2,1,70,1,0
48384,-125,4,2,1,70,0,0
51147,-111.111111111111,4,1,1,70,0,0
51541,-100,4,1,1,70,0,0
51857,-90.9090909090909,4,1,1,70,0,0
52173,-100,4,1,1,70,0,0
57226,-100,4,1,1,80,0,0
88411,-125,4,1,1,80,0,0
88569,-100,4,1,1,80,0,0
90937,-125,4,1,1,80,0,0
91095,-100,4,1,1,80,0,0
97252,-133.333333333333,4,1,1,80,0,0
97489,-100,4,1,1,70,0,0
97647,319.148936170213,4,1,1,70,1,0
98764,-101.010101010101,4,1,1,70,0,0
98923,315.789473684211,4,1,1,70,1,0
106265,-133.333333333333,4,1,1,70,0,0
106738,-100,4,1,1,70,0,0
107054,-80,4,1,1,70,0,0
107212,-66.6666666666667,4,1,1,70,0,0
107449,-62.5,4,1,1,70,0,0
107607,-58.8235294117647,4,1,1,70,0,0
107765,-100,4,1,1,70,0,0
117870,-133.333333333333,4,2,1,70,0,0
127975,319.148936170213,4,1,1,70,1,0
129251,312.5,4,1,1,70,1,0
131751,319.148936170213,4,2,1,50,1,0
131751,-100,4,2,1,50,0,0
131990,-100,4,2,1,60,0,0
132309,-100,4,2,1,70,0,0
132628,-100,4,2,1,80,0,0
133027,315.789473684211,4,1,1,80,1,0
133027,-100,4,1,1,80,0,0
148184,312.5,4,1,1,80,1,0
149434,315.789473684211,4,1,1,80,1,0
160802,319.148936170213,4,1,1,80,1,0
162078,315.789473684211,4,1,1,80,1,0
163262,-100,4,1,1,70,0,0
164288,-125,4,1,1,70,0,0
164446,-100,4,1,1,70,0,0
166814,-125,4,1,1,70,0,0
166893,-100,4,1,1,70,0,0
172183,309.278350515464,4,1,1,70,1,0
173420,319.148936170213,4,1,1,70,1,0
174696,315.789473684211,4,1,1,70,1,0
183538,319.148936170213,4,1,1,70,1,0
186091,315.789473684211,4,1,1,70,1,0
187354,312.5,4,1,1,70,1,0
188604,315.789473684211,4,1,1,70,1,0
193104,-100,4,1,1,60,0,0
193656,-100,4,1,1,70,0,0
207551,319.148936170213,4,2,1,70,1,0
208827,315.789473684211,4,1,1,70,1,0
216405,312.5,4,1,1,60,1,0
217655,315.789473684211,4,1,1,60,1,0
218918,312.5,4,2,1,50,1,0
219230,-133.333333333333,4,2,1,50,0,0
220168,315.789473684211,4,2,1,50,1,0
220168,-133.333333333333,4,2,1,50,0,0
221431,319.148936170213,4,2,1,50,1,0
221431,-133.333333333333,4,2,1,50,0,0
222548,-134.228187919463,4,2,1,50,0,0
222707,315.789473684211,4,2,1,50,1,0
222707,-133.333333333333,4,2,1,50,0,0
223970,319.148936170213,4,2,1,60,1,0
223970,-133.333333333333,4,2,1,60,0,0
225246,315.789473684211,4,2,1,70,1,0
225246,-133.333333333333,4,2,1,70,0,0
226509,312.5,4,2,1,70,1,0
226509,-133.333333333333,4,2,1,70,0,0
229009,315.789473684211,4,1,1,80,1,0
229009,-100,4,1,1,80,0,0
237851,322.58064516129,4,1,1,80,1,0
239141,315.789473684211,4,1,1,80,1,0
240009,-125,4,1,1,80,0,0
240167,-100,4,1,1,80,0,0
242535,-125,4,1,1,80,0,0
242693,-100,4,1,1,80,0,0
245456,312.5,4,1,1,80,1,0
246706,315.789473684211,4,1,1,80,1,0
254284,309.278350515464,4,1,1,80,1,0
255521,322.58064516129,4,2,1,50,1,0
256811,-100,4,1,1,40,0,0
258047,319.148936170213,4,2,1,50,1,0
259351,312.5,4,1,1,70,1,0
259351,-100,4,1,1,70,0,0
260444,-101.010101010101,4,1,1,70,0,0
260601,315.789473684211,4,1,1,70,1,0
268022,312.5,4,1,1,70,1,0
268022,-200,4,1,1,70,0,0
269428,-100,4,1,0,20,0,0
275365,-100,4,1,0,10,0,0

[Colours]
Combo1 : 145,185,130
Combo2 : 65,163,146
Combo3 : 79,158,255
Combo4 : 232,134,45

[HitObjects]
392,228,390,6,0,L|404:308,1,71.2500027179719,2|0,0:0|0:0,0:0:0:0:
484,236,705,2,0,L|472:156,1,71.2500027179719,2|0,0:0|0:0,0:0:0:0:
300,204,1021,2,0,L|312:292,1,71.2500027179719,2|0,0:0|0:0,0:0:0:0:
392,228,1337,2,0,L|380:140,1,71.2500027179719,2|0,0:0|0:0,0:0:0:0:
224,152,1653,6,0,L|208:240,1,71.2500027179719,2|0,0:0|0:0,0:0:0:0:
300,204,1968,2,0,L|316:116,1,71.2500027179719,2|0,0:0|0:0,0:0:0:0:
152,100,2284,2,0,L|128:184,1,71.2500027179719,2|0,0:0|0:0,0:0:0:0:
224,152,2600,2,0,L|244:68,1,71.2500027179719,2|0,0:0|0:0,0:0:0:0:
196,268,2916,6,0,L|52:304,1,142.500005435944,2|2,0:0|0:0,0:0:0:0:
324,348,3547,2,0,L|468:312,1,142.500005435944,2|2,0:0|0:0,0:0:0:0:
432,128,4179,2,0,B|396:124|352:136,1,71.2500027179719,2|0,0:0|0:0,0:0:0:0:
292,96,4495,2,0,B|244:104|212:96,1,71.2500027179719,2|0,0:0|0:0,0:0:0:0:
180,172,4811,2,0,B|116:136|40:168,1,142.500005435944,2|0,0:0|3:0,0:0:0:0:
272,328,5442,6,0,L|368:300,1,71.2500027179719,2|0,0:0|0:0,0:0:0:0:
272,328,5758,2,0,L|176:356,1,71.2500027179719,2|0,0:0|0:0,0:0:0:0:
292,224,6074,2,0,L|392:240,1,71.2500027179719,2|0,0:0|0:0,0:0:0:0:
292,224,6390,2,0,L|192:208,1,71.2500027179719,2|0,0:0|0:0,0:0:0:0:
304,120,6705,6,0,L|388:104,1,71.2500027179719,2|0,0:0|0:0,0:0:0:0:
304,120,7021,2,0,L|220:136,1,71.2500027179719,2|0,0:0|0:0,0:0:0:0:
128,104,7337,2,0,L|208:60,1,71.2500027179719,2|0,0:0|0:0,0:0:0:0:
128,104,7653,2,0,L|40:156,1,71.2500027179719,2|0,0:0|0:0,0:0:0:0:
96,348,7968,6,0,B|40:292|64:208,1,142.500005435944,2|2,0:0|0:0,0:0:0:0:
61,216,8442,1,0,0:0:0:0:
152,272,8600,2,0,B|232:284|288:232,1,142.500005435944,2|2,0:0|0:0,0:0:0:0:
340,172,9074,2,0,L|352:132,2,35.625001358986,0|0|2,3:0|3:0|3:2,0:0:0:0:
124,96,10337,5,0,0:0:0:0:
124,96,10416,1,0,0:0:0:0:
124,96,10495,2,0,B|136:248,2,142.5,8|8|8,0:0|0:0|0:0,0:0:0:0:
244,44,11126,5,8,3:1:0:0:
267,85,11205,1,8,3:0:0:0:
304,114,11284,1,8,3:0:0:0:
350,125,11363,1,4,1:3:0:0:
397,120,11442,1,8,0:0:0:0:
397,120,11758,2,0,B|448:172|428:256|356:272,1,190,4|8,0:0|0:0,0:0:0:0:
359,271,12390,1,2,0:3:0:0:
267,232,12547,2,0,B|222:213|156:219,1,95,2|8,0:3|0:0,0:0:0:0:
36,132,12863,6,0,B|108:48|224:92,1,190,10|0,0:0|0:0,0:0:0:0:
356,200,13337,2,0,L|372:300,1,95,8|0,0:0|0:0,0:0:0:0:
176,164,13653,2,2,L|160:264,1,95,8|0,0:0|0:0,0:0:0:0:
352,96,13968,2,2,L|456:68,1,95,8|0,0:0|0:0,0:0:0:0:
244,36,14284,6,0,L|48:92,1,190,4|0,0:2|0:0,0:0:0:0:
136,300,14758,2,0,B|160:256|148:208,1,95,8|0,0:0|0:0,0:0:0:0:
56,244,15074,1,2,0:3:0:0:
248,344,15232,1,8,0:0:0:0:
412,264,15390,1,2,0:0:0:0:
324,280,15547,6,0,L|356:160,1,95,8|0,0:0|0:0,0:0:0:0:
188,104,15863,2,0,L|156:224,1,95,8|0,0:0|0:0,0:0:0:0:
308,96,16179,1,2,0:0:0:0:
404,64,16337,1,2,0:3:0:0:
404,64,16416,1,2,0:3:0:0:
404,64,16495,2,0,B|456:84|468:148|420:212,1,142.5,4|0,0:2|0:0,0:0:0:0:
424,204,16811,5,4,0:0:0:0:
308,128,16968,1,0,0:0:0:0:
368,272,17126,1,8,0:0:0:0:
380,144,17284,1,0,0:0:0:0:
272,224,17442,1,2,0:3:0:0:
196,68,17600,1,2,0:3:0:0:
308,128,17758,1,8,0:0:0:0:
160,216,17916,1,0,0:0:0:0:
312,328,18074,6,0,B|320:280|308:228,1,95,2|0,0:0|0:0,0:0:0:0:
52,76,18390,2,0,B|44:124|56:176,1,95,8|2,0:0|0:0,0:0:0:0:
120,304,18705,1,8,3:0:0:0:
120,304,18784,1,4,3:0:0:0:
120,304,18863,1,0,0:0:0:0:
120,304,18942,1,0,1:0:0:0:
120,304,19021,2,0,B|168:312|224:296,1,95,12|0,0:0|0:0,0:0:0:0:
332,176,19337,6,0,B|340:128|336:68,1,95,8|0,0:0|1:0,0:0:0:0:
260,124,19572,1,0,0:0:0:0:
260,124,19651,2,0,B|252:172|256:232,1,95,8|0,0:0|1:0,0:0:0:0:
372,256,19886,1,0,0:0:0:0:
384,264,19965,2,0,B|436:264|492:256,1,95,8|2,0:0|0:0,0:0:0:0:
248,36,20436,1,4,0:0:0:0:
256,192,20515,12,12,21535,0:2:0:0:
164,220,21858,5,4,1:0:0:0:
164,220,22173,2,0,B|152:176|168:120,1,76,2|0,0:0|0:0,0:0:0:0:
180,60,22489,2,0,B|248:108|328:80,1,152,2|0,0:0|0:0,0:0:0:0:
412,48,22963,6,0,L|432:168,1,114,2|0,0:0|0:0,0:0:0:0:
430,160,23279,1,2,0:0:0:0:
388,240,23436,1,2,0:0:0:0:
340,156,23594,1,2,0:0:0:0:
224,232,23752,1,2,0:3:0:0:
220,136,23910,1,2,0:0:0:0:
304,272,24068,1,2,0:3:0:0:
164,316,24226,1,2,0:0:0:0:
104,244,24384,6,0,L|80:80,1,152,2|2,1:0|0:3,0:0:0:0:
160,48,24858,2,0,L|184:212,1,152,2|0,1:0|0:0,0:0:0:0:
268,224,25331,2,0,B|260:172|260:172|268:132|268:132|256:72,2,152,2|2|2,1:1|0:3|0:3,0:0:0:0:
336,184,26121,1,0,0:0:0:0:
412,156,26279,2,0,B|416:200|412:240,1,76,2|0,0:0|0:0,0:0:0:0:
340,336,26594,2,0,B|336:292|340:252,1,76,2|0,0:0|0:0,0:0:0:0:
252,304,26910,6,0,B|176:288|80:320,2,152,0|2|2,1:0|0:3|0:2,0:0:0:0:
224,220,27700,1,0,0:0:0:0:
300,176,27858,2,0,B|308:136|300:84,1,76
148,128,28173,5,2,0:0:0:0:
184,44,28331,1,0,0:0:0:0:
216,188,28489,1,2,0:3:0:0:
148,128,28647,1,2,0:0:0:0:
136,232,28805,1,2,0:0:0:0:
64,168,28963,2,0,B|60:108|48:72,1,76,2|2,0:0|0:3,0:0:0:0:
48,256,29279,1,2,0:0:0:0:
144,320,29436,6,0,B|184:308|232:316,1,76,2|0,1:0|0:0,0:0:0:0:
408,340,29752,2,0,B|372:328|328:332,1,76,2|0,1:0|0:0,0:0:0:0:
184,216,30068,2,0,B|236:208|284:232,1,76,10|0,1:0|0:0,0:0:0:0:
384,244,30384,6,2,B|392:192|344:164|344:164|384:132|368:76|368:76|412:112|459:102|459:102|480:116|476:140,1,332.5,8|2,0:0|2:0,0:0:0:0:
476,136,31647,6,0,L|352:145,1,113.999996520996,8|2,0:0|2:0,0:0:0:0:
148,92,31963,5,4,0:0:0:0:
148,92,32121,1,0,0:0:0:0:
232,228,32279,2,0,B|240:280|220:324,1,95,10|0,0:0|0:0,0:0:0:0:
124,252,32594,1,2,0:1:0:0:
272,144,32752,1,0,0:0:0:0:
148,92,32910,1,8,0:0:0:0:
232,228,33068,6,0,L|324:264,1,95,2|2,0:0|0:3,0:0:0:0:
440,208,33384,2,0,L|348:172,1,95,2|8,0:0|0:0,0:0:0:0:
276,44,33700,1,2,0:0:0:0:
232,228,33858,1,2,0:3:0:0:
196,88,34015,1,2,0:0:0:0:
351,173,34173,1,8,0:0:0:0:
200,260,34331,1,2,0:0:0:0:
340,328,34489,6,0,B|404:356|480:296|460:220,1,190,2|8,0:0|0:0,0:0:0:0:
473,75,34963,2,0,B|409:47|333:107|353:183,1,190,2|0,0:0|0:0,0:0:0:0:
268,80,35436,2,0,B|216:88|168:84,1,95,10|0,0:0|0:0,0:0:0:0:
112,152,35752,5,2,0:3:0:0:
208,260,35910,1,0,0:0:0:0:
256,160,36068,1,8,0:0:0:0:
336,288,36226,1,0,0:0:0:0:
232,352,36384,2,0,B|184:360|132:340,1,95,2|0,0:0|2:0,0:0:0:0:
24,228,36700,2,0,B|72:220|124:240,1,95,10|0,0:0|2:0,0:0:0:0:
244,188,37015,6,0,B|312:164|332:80|280:24,2,190,4|8|2,0:2|0:0|0:3,0:0:0:0:
160,128,37805,1,0,0:0:0:0:
200,288,37963,1,8,0:0:0:0:
100,228,38121,1,2,0:0:0:0:
244,188,38279,6,0,B|288:208|344:224,1,95,2|0,0:0|0:0,0:0:0:0:
424,164,38594,1,8,0:0:0:0:
344,116,38752,1,2,0:0:0:0:
360,336,38910,1,2,0:3:0:0:
432,280,39068,2,0,B|468:248|512:216,1,95,2|8,0:0|0:0,0:0:0:0:
272,248,39384,5,0,0:0:0:0:
272,248,39463,1,0,0:0:0:0:
272,248,39542,2,0,B|180:260|64:276,1,190,4|8,0:2|0:0,0:0:0:0:
128,188,40015,1,0,0:0:0:0:
272,340,40173,2,0,B|316:372|368:356,1,95,2|10,0:3|0:1,0:0:0:0:
448,216,40489,1,2,0:3:0:0:
480,132,40647,6,2,B|416:168|344:124|336:40,1,190,6|0,0:0|0:0,0:0:0:0:
196,48,41121,2,0,B|140:44|92:72,1,95,8|0,0:0|0:0,0:0:0:0:
244,172,41436,1,8,0:3:0:0:
196,244,41594,2,0,B|180:292|192:348,1,95,8|0,0:3|2:0,0:0:0:0:
352,264,41910,6,0,B|380:184|344:108,1,152,4|0,0:0|0:0,0:0:0:0:
292,52,42384,1,0,3:0:0:0:
212,68,42700,1,0,3:0:0:0:
132,84,43015,1,0,3:0:0:0:
76,148,43173,6,0,L|120:300,1,152,4|0,0:0|0:0,0:0:0:0:
192,240,43647,2,0,L|216:164,1,76,0|0,3:0|0:0,0:0:0:0:
248,296,43963,2,0,L|256:380,1,76,0|0,3:0|0:0,0:0:0:0:
320,256,44279,2,0,B|352:196|416:188,1,114,8|0,3:0|0:0,0:0:0:0:
456,224,44594,6,0,B|380:220|312:136|364:36,1,228,4|0,0:0|2:0,0:0:0:0:
320,256,45239,2,0,B|260:320|156:284|144:196,1,228,4|0,0:0|2:0,0:3:0:0:
56,68,45884,2,0,B|176:12|168:112|296:36,1,228,4|0,0:0|2:0,0:0:0:0:
336,172,46522,2,0,B|432:152|480:236,1,152,4|4,0:0|0:3,0:0:0:0:
470,220,47160,6,0,L|452:376,1,152,4|0,0:0|0:0,0:0:0:0:
376,328,47619,1,0,3:0:0:0:
376,328,47772,2,0,B|336:340|292:336,1,76,0|2,1:0|0:0,0:0:0:0:
220,312,48078,2,0,B|176:308|120:320,1,76,2|2,0:0|0:3,0:0:0:0:
72,272,48384,1,2,0:0:0:0:
152,224,48541,2,0,B|180:176|156:104|84:96,1,152,8|2,0:1|0:3,0:0:0:0:
72,184,49015,1,8,0:1:0:0:
72,184,49331,1,2,0:0:0:0:
384,184,49647,5,8,0:1:0:0:
384,184,49805,2,0,B|388:228|376:272,1,76,2|0,0:3|0:0,0:0:0:0:
300,208,50120,1,2,0:3:0:0:
300,208,50278,2,0,B|292:256|296:296,1,76,2|2,0:0|0:3,0:0:0:0:
224,336,50594,2,0,L|144:352,1,76,8|2,0:1|0:3,0:0:0:0:
84,256,50910,2,0,L|168:272,1,76,8|0,3:3|0:0,0:0:0:0:
208,196,51226,6,2,L|192:96,1,85.4999973907472,8|0,0:3|0:0,0:0:0:0:
320,256,51541,2,2,B|296:304|232:300,1,95,8|0,0:3|0:0,0:0:0:0:
300,104,51857,2,2,L|448:132,1,104.500003189087,4|0,0:3|0:0,0:0:0:0:
492,208,52173,5,4,0:0:0:0:
492,208,52489,2,2,B|460:252|476:316,1,95,8|0,0:0|0:0,0:0:0:0:
280,152,52805,2,2,B|288:100|264:56,1,95,8|0,0:0|0:0,0:0:0:0:
120,252,53120,2,2,B|132:304|176:332,1,95,8|0,0:0|0:0,0:0:0:0:
368,228,53436,6,2,B|372:176|368:120,1,95,8|0,0:0|0:0,0:0:0:0:
144,156,53752,2,2,B|140:208|144:264,1,95,8|0,0:0|0:0,0:0:0:0:
312,368,54068,2,2,B|316:320|308:264,1,95,8|0,0:0|0:0,0:0:0:0:
208,32,54384,2,2,B|204:80|212:136,1,95,8|0,0:0|0:0,0:0:0:0:
332,168,54699,6,0,L|184:208,1,142.5,4|0,0:2|2:0,0:0:0:0:
180,210,55015,1,8,0:0:0:0:
328,80,55173,1,8,0:0:0:0:
167,214,55331,1,8,0:0:0:0:
244,40,55489,1,0,0:0:0:0:
256,296,55647,5,10,0:0:0:0:
140,104,55805,1,8,0:0:0:0:
380,144,55962,1,10,0:0:0:0:
380,144,56278,2,0,B|408:256,1,95,2|0,2:0|2:0,0:0:0:0:
424,336,56594,5,8,3:0:0:0:
377,328,56673,1,4,3:0:0:0:
330,320,56752,1,0,3:0:0:0:
283,312,56831,1,0,1:0:0:0:
236,304,56910,2,0,B|187:242|225:160,1,142.5,12|0,1:2|2:0,0:0:0:0:
268,72,57226,6,0,B|224:108|168:92,1,95,4|0,0:0|0:0,0:0:0:0:
88,56,57541,1,10,0:0:0:0:
148,208,57699,1,0,0:0:0:0:
72,152,57857,1,2,0:3:0:0:
60,284,58015,1,2,0:3:0:0:
192,232,58173,6,0,B|240:232|300:252,1,95,2|0,0:0|0:0,0:0:0:0:
448,120,58489,2,0,B|400:120|340:100,1,95,2|0,0:0|0:0,0:0:0:0:
248,360,58805,2,0,B|336:292|460:336,1,190,10|2,0:0|0:3,0:0:0:0:
232,164,59278,1,2,0:3:0:0:
232,164,59357,1,0,0:0:0:0:
232,164,59436,2,0,L|264:48,1,95,10|0,0:0|0:0,0:0:0:0:
324,228,59752,5,2,0:0:0:0:
228,280,59910,1,0,0:0:0:0:
140,104,60068,1,10,0:0:0:0:
232,164,60226,1,0,0:0:0:0:
324,228,60384,2,0,B|348:180|384:148,1,95,2|2,0:3|0:3,0:0:0:0:
288,344,60699,2,0,B|240:368|188:360,1,95,10|0,0:0|0:0,0:0:0:0:
48,144,61015,5,0,0:0:0:0:
32,276,61173,1,0,0:0:0:0:
52,120,61331,1,10,0:0:0:0:
123,209,61489,1,0,0:0:0:0:
180,72,61647,2,0,B|236:64|288:48,1,95,2|2,0:0|0:3,0:0:0:0:
268,328,61962,2,0,B|212:336|160:352,1,95,10|0,0:0|0:0,0:0:0:0:
300,156,62278,6,0,B|348:136|408:164|416:208,1,142.5,2|0,0:0|2:0,0:0:0:0:
364,264,62594,2,0,B|360:324|368:364,1,95,10|0,0:0|0:0,0:0:0:0:
156,148,62910,2,0,B|160:88|152:48,1,95,2|2,0:3|0:3,0:0:0:0:
40,232,63226,2,0,L|144:256,1,95,10|0,0:0|0:0,0:0:0:0:
248,356,63541,2,0,B|228:300|264:252,1,95,2|0,0:0|0:0,0:0:0:0:
336,60,63857,5,10,0:0:0:0:
448,196,64015,1,0,0:0:0:0:
448,196,64094,1,0,0:0:0:0:
448,196,64173,1,2,0:3:0:0:
328,272,64331,1,2,0:3:0:0:
416,108,64489,2,0,B|356:116|316:128,1,95,10|0,0:0|0:0,0:0:0:0:
72,80,64805,6,0,B|128:60|176:92|180:156,1,142.5,2|0,0:0|2:0,0:0:0:0:
140,216,65120,2,0,B|132:272|172:324,1,95,10|0,0:0|0:0,0:0:0:0:
260,324,65436,1,2,0:3:0:0:
216,48,65594,1,2,0:3:0:0:
316,152,65752,2,0,B|380:192|452:156|460:80,1,190,10|4,0:0|0:0,0:0:0:0:
316,152,66226,5,0,0:0:0:0:
360,40,66384,1,2,0:0:0:0:
220,136,66541,1,8,0:0:0:0:
352,316,66699,2,0,B|356:264|348:220,1,95,2|0,0:2|0:0,0:0:0:0:
168,224,67015,2,0,B|164:276|172:320,1,95,4|0,0:2|0:2,0:0:0:0:
260,272,67331,6,0,B|256:196|268:176|260:76,1,190,4|8,0:0|0:1,0:0:0:0:
92,60,67805,1,0,3:0:0:0:
92,60,67884,1,0,3:0:0:0:
92,60,67962,1,8,3:3:0:0:
104,148,68120,1,4,0:3:0:0:
56,224,68278,2,0,B|48:272|56:324,1,95,8|0,0:1|0:0,0:0:0:0:
364,344,68594,6,0,B|372:296|364:244,1,95,8|2,0:3|0:3,0:0:0:0:
340,160,68910,1,8,0:0:0:0:
368,76,69068,1,0,0:0:0:0:
292,32,69226,2,0,B|192:36,1,95,8|4,0:3|0:3,0:0:0:0:
160,328,69541,2,0,B|260:324,1,95,8|0,0:0|0:0,0:0:0:0:
424,192,69857,6,0,L|224:192,1,190,4|8,0:3|0:0,0:0:0:0:
132,140,70331,1,0,3:3:0:0:
132,140,70410,1,0,3:3:0:0:
132,140,70489,1,8,3:3:0:0:
88,264,70647,1,4,0:3:0:0:
28,184,70805,2,0,B|12:136|20:88,1,95,8|0,0:1|0:0,0:0:0:0:
264,252,71120,6,0,B|280:300|272:348,1,95,8|2,0:3|0:3,0:0:0:0:
188,368,71436,1,8,0:0:0:0:
136,196,71594,1,0,0:0:0:0:
352,252,71752,2,0,B|336:204|308:168,1,95,8|4,0:3|0:3,0:0:0:0:
192,40,72068,5,8,0:0:0:0:
40,140,72226,1,0,0:0:0:0:
40,140,72305,1,0,0:0:0:0:
40,140,72384,2,0,B|144:176|228:112,1,190,4|10,0:0|0:0,0:0:0:0:
220,117,73015,2,0,L|240:229,1,95,2|0,0:0|0:0,0:0:0:0:
456,156,73331,2,0,L|436:44,1,95,10|0,0:0|0:0,0:0:0:0:
352,188,73647,6,0,L|324:376,1,190,4|8,0:2|0:0,0:0:0:0:
148,368,74120,1,0,0:0:0:0:
112,292,74278,2,2,L|140:104,1,190,0|8,0:0|0:0,0:0:0:0:
256,208,74752,1,0,0:0:0:0:
252,124,74910,5,12,0:0:0:0:
300,268,75068,1,0,0:0:0:0:
184,184,75226,1,2,0:0:0:0:
320,160,75384,5,8,0:0:0:0:
192,260,75541,1,0,0:0:0:0:
176,104,75699,1,2,0:0:0:0:
256,208,75857,1,8,0:0:0:0:
324,40,76015,1,2,0:0:0:0:
144,192,76173,6,0,B|96:188|40:192,1,95,8|0,0:0|0:0,0:0:0:0:
364,232,76489,2,2,B|412:236|468:232,1,95,8|0,0:0|0:0,0:0:0:0:
192,32,76805,2,0,B|188:80|192:136,1,95,10|0,0:0|0:0,0:0:0:0:
288,352,77120,2,2,B|292:304|288:248,1,95,12|0,0:0|0:0,0:0:0:0:
80,256,77436,6,0,B|112:304|176:292,1,95,4|0,0:0|0:0,0:0:0:0:
412,216,77752,2,0,B|360:152|268:188,1,142.5,10|0,0:0|0:0,0:0:0:0:
209,220,78068,2,0,L|185:96,1,95,2|2,0:3|0:3,0:0:0:0:
248,56,78384,1,10,0:0:0:0:
108,192,78541,1,0,0:0:0:0:
280,256,78699,6,0,B|304:304|288:356|288:356,1,95,2|0,0:0|0:0,0:0:0:0:
16,172,79015,2,0,B|32:100|112:76|176:120,1,190,10|2,0:0|0:3,0:0:0:0:
256,184,79489,1,2,0:3:0:0:
256,184,79568,1,0,0:0:0:0:
256,184,79647,2,0,B|304:200|368:192,1,95,10|0,0:0|0:0,0:0:0:0:
456,104,79962,5,2,0:0:0:0:
349,193,80120,1,0,0:0:0:0:
316,52,80278,1,10,0:0:0:0:
416,132,80436,1,0,0:0:0:0:
256,204,80594,1,2,0:3:0:0:
316,52,80752,1,2,0:3:0:0:
256,204,80910,2,0,B|240:252|243:307,1,95,10|0,0:0|0:0,0:0:0:0:
2,294,81226,6,0,B|64:336|144:296|156:224,1,190,4|8,0:2|0:0,0:0:0:0:
100,148,81699,1,0,0:0:0:0:
242,297,81857,2,0,L|352:292,1,95,2|2,0:3|0:3,0:0:0:0:
400,228,82173,1,10,0:0:0:0:
248,68,82331,5,0,0:0:0:0:
248,68,82410,1,0,0:0:0:0:
248,68,82489,2,0,B|228:120|240:168,1,95,2|0,0:0|0:0,0:0:0:0:
400,228,82805,2,0,B|440:168|420:88|336:72,1,190,10|2,0:0|0:3,0:0:0:0:
264,256,83278,1,2,0:3:0:0:
132,204,83436,6,0,B|124:156|136:108,1,95,10|0,0:0|0:0,0:0:0:0:
192,272,83752,2,0,B|200:320|188:368,1,95,2|0,0:0|0:0,0:0:0:0:
36,264,84068,2,0,B|12:192|44:108,1,142.5,10|0,0:0|2:0,0:0:0:0:
38,123,84384,1,2,0:3:0:0:
116,48,84541,1,2,0:3:0:0:
192,128,84699,1,10,0:0:0:0:
114,203,84857,1,0,0:0:0:0:
276,68,85015,6,0,P|371:73|472:80,2,190,2|10|0,0:0|0:0|0:0,0:0:0:0:
260,228,85805,1,2,0:3:0:0:
252,324,85962,2,0,B|308:336|356:336,1,95,10|0,0:0|0:0,0:0:0:0:
428,200,86278,5,14,0:0:0:0:
336,240,86436,1,0,0:0:0:0:
428,200,86594,1,2,0:0:0:0:
276,120,86752,1,8,0:0:0:0:
372,32,86910,2,0,B|376:80|368:136,1,95,2|0,0:2|0:0,0:0:0:0:
140,352,87226,2,0,B|136:304|144:248,1,95,10|0,0:0|0:0,0:0:0:0:
276,120,87541,5,4,0:0:0:0:
276,120,87857,1,2,0:2:0:0:
320,208,88015,1,8,0:3:0:0:
228,204,88173,1,2,0:2:0:0:
192,120,88331,1,0,0:0:0:0:
272,280,88489,6,0,B|248:368|148:388|92:324,1,228,4|0,0:0|0:0,0:0:0:0:
100,216,89120,2,0,B|92:164|76:116,1,95,8|0,0:0|0:0,0:0:0:0:
284,204,89436,2,0,B|340:228|392:244,1,95,2|2,0:3|0:3,0:0:0:0:
476,156,89752,2,0,B|420:132|368:116,1,95,10|0,0:0|0:0,0:0:0:0:
256,68,90068,5,8,0:0:0:0:
196,236,90226,1,8,0:3:0:0:
312,136,90384,2,0,B|256:140|212:152,1,95,2|2,0:0|0:2,0:0:0:0:
180,328,90699,2,0,B|236:324|280:312,1,95,10|0,0:0|0:0,0:0:0:0:
112,128,91015,6,0,B|32:156|8:260|88:320,1,228,4|2,0:0|0:3,0:0:0:0:
78,312,91647,2,0,L|172:304,1,95,8|0,0:3|0:0,0:0:0:0:
328,172,91962,2,0,L|220:152,1,95,2|2,0:3|0:3,0:0:0:0:
352,324,92278,2,0,B|400:356|460:336|472:272,1,142.5,12|0,0:0|2:0,0:0:0:0:
468,287,92594,6,0,B|456:240|464:176,1,95,4|0,0:2|0:0,0:0:0:0:
336,64,92910,1,8,0:0:0:0:
336,64,93068,1,0,0:0:0:0:
276,140,93226,2,0,B|284:196|280:244,1,95
144,328,93541,1,8,0:0:0:0:
144,328,93699,1,0,0:0:0:0:
96,248,93857,6,0,B|88:200|96:148,1,95,2|0,0:2|0:0,0:0:0:0:
392,232,94173,2,0,B|400:280|392:332,1,95,10|0,0:0|0:0,0:0:0:0:
196,84,94489,1,2,0:0:0:0:
360,108,94647,1,0,0:3:0:0:
216,200,94805,1,10,0:0:0:0:
312,260,94962,1,0,0:0:0:0:
204,348,95120,6,0,B|132:396|60:360|56:284,1,190,6|0,0:0|0:0,0:0:0:0:
384,192,95594,2,0,B|452:220|468:304|408:368,1,190,10|0,0:0|0:0,0:0:0:0:
216,216,96068,2,0,B|152:136|208:36,1,190,10|8,0:0|0:0,0:0:0:0:
206,38,96541,1,0,0:0:0:0:
440,128,96699,5,8,0:0:0:0:
304,216,96857,1,0,0:0:0:0:
288,128,97015,1,2,0:2:0:0:
328,300,97173,1,2,0:3:0:0:
288,128,97331,2,0,L|176:148,1,106.875004076958,4|0,0:2|2:0,0:0:0:0:
152,160,97647,6,0,B|197:197|256:180,1,95,4|0,0:0|0:0,0:0:0:0:
376,148,97966,1,8,0:0:0:0:
408,60,98125,1,0,0:0:0:0:
408,60,98205,1,0,0:0:0:0:
408,60,98285,1,0,0:0:0:0:
432,208,98444,1,0,0:0:0:0:
304,96,98604,1,8,0:0:0:0:
220,296,98764,6,2,B|284:332|356:304|364:232,1,186.25606439409,12|0,0:0|0:0,0:0:0:0:
204,108,99238,2,2,L|88:80,1,95,2|0,0:2|0:0,0:0:0:0:
132,184,99554,1,8,0:0:0:0:
40,212,99712,1,0,0:0:0:0:
40,212,99791,1,0,0:0:0:0:
40,212,99870,1,4,0:2:0:0:
12,116,100028,1,0,0:0:0:0:
168,224,100186,6,0,L|364:244,1,190,12|2,0:0|0:3,0:0:0:0:
420,164,100659,2,0,B|372:156|324:152,1,95,8|2,0:0|0:2,0:0:0:0:
112,312,100975,2,0,B|160:320|208:324,1,95,0|8,0:0|0:0,0:0:0:0:
172,128,101291,1,2,0:0:0:0:
104,72,101449,5,12,0:2:0:0:
204,208,101607,1,2,0:3:0:0:
72,148,101765,1,8,0:0:0:0:
248,72,101923,1,2,0:3:0:0:
316,248,102080,1,8,0:0:0:0:
136,324,102238,1,2,0:3:0:0:
204,208,102396,2,0,B|244:168|304:164,1,95,8|0,0:0|2:0,0:0:0:0:
404,184,102712,5,4,0:0:0:0:
472,104,102870,1,2,0:2:0:0:
404,184,103028,1,8,0:0:0:0:
356,68,103186,1,2,0:2:0:0:
404,184,103344,5,2,0:2:0:0:
216,112,103501,1,2,0:3:0:0:
264,296,103659,1,8,0:0:0:0:
292,200,103817,1,2,0:2:0:0:
264,296,103975,5,2,0:0:0:0:
184,212,104133,1,2,0:2:0:0:
212,376,104291,1,8,0:0:0:0:
352,280,104449,1,2,0:0:0:0:
184,212,104607,1,8,3:0:0:0:
178,204,104686,1,4,3:0:0:0:
173,195,104765,1,0,3:0:0:0:
168,186,104844,1,0,0:0:0:0:
164,177,104923,2,0,B|140:105|164:17,1,142.5,4|0,0:2|2:0,0:0:0:0:
159,36,105238,6,0,L|28:57,1,95,12|0,0:0|0:0,0:0:0:0:
65,51,105475,1,0,0:0:0:0:
65,51,105554,1,8,0:0:0:0:
304,240,105712,1,0,0:0:0:0:
304,240,105791,1,0,0:0:0:0:
304,240,105870,1,8,0:0:0:0:
352,164,106028,2,0,B|368:112|336:60,1,95,2|0,0:0|0:0,0:0:0:0:
116,280,106344,6,2,B|168:336|248:300,1,142.5,4|0,0:0|0:0,0:0:0:0:
324,372,106817,2,2,B|380:324|472:356,1,142.5,0|0,0:0|0:0,0:0:0:0:
448,268,107133,6,2,B|452:196,1,59.375,8|0,0:0|0:0,0:0:0:0:
388,160,107291,2,2,L|392:68,1,71.2500027179719,0|0,0:0|0:0,0:0:0:0:
312,244,107449,6,0,P|318:203|308:140,1,76,8|0,0:0|0:0,0:0:0:0:
168,160,107607,2,0,P|161:206|168:260,1,80.750001540184,8|0,0:0|0:0,0:0:0:0:
244,200,107765,5,4,0:0:0:0:
244,200,108080,2,0,B|256:256|244:304,1,95,8|0,0:0|0:0,0:0:0:0:
120,336,108396,1,0,0:0:0:0:
140,248,108554,1,0,0:0:0:0:
40,268,108712,1,8,0:0:0:0:
84,104,108870,1,0,0:0:0:0:
212,172,109028,5,0,0:0:0:0:
199,48,109186,1,0,0:0:0:0:
212,172,109344,1,8,0:0:0:0:
347,153,109501,1,0,0:0:0:0:
212,172,109659,5,0,0:0:0:0:
288,224,109817,1,0,0:0:0:0:
204,264,109975,1,8,0:0:0:0:
268,328,110133,1,0,0:0:0:0:
172,360,110291,6,0,B|104:400|31:348|35:268,1,190,2|8,0:2|0:0,0:0:0:0:
184,88,110765,2,0,B|252:48|324:100|320:180,1,190,2|0,0:2|0:0,0:0:0:0:
88,180,111238,2,0,B|68:136|76:88,1,95,8|0,0:0|0:0,0:0:0:0:
248,224,111554,5,2,0:2:0:0:
332,264,111712,2,0,L|432:240,1,95,0|8,0:0|0:0,0:0:0:0:
200,296,112028,1,0,0:0:0:0:
276,352,112186,2,0,B|380:328,1,95,2|0,0:2|0:0,0:0:0:0:
120,240,112501,5,8,0:0:0:0:
120,240,112817,2,0,B|104:112,1,95,2|0,0:2|0:0,0:0:0:0:
280,252,113133,2,0,B|348:204|424:232,1,142.5,10|0,0:0|2:0,0:0:0:0:
428,236,113449,1,2,0:2:0:0:
364,312,113607,1,0,0:0:0:0:
328,144,113765,2,0,B|268:88|192:120,1,142.5,10|0,0:0|2:0,0:0:0:0:
184,124,114080,1,2,0:2:0:0:
140,228,114238,5,0,0:0:0:0:
240,200,114396,1,10,0:0:0:0:
160,100,114554,1,0,0:0:0:0:
40,220,114712,1,2,0:2:0:0:
144,312,114870,2,0,B|196:316|244:332,1,95,0|10,0:0|0:0,0:0:0:0:
388,328,115186,5,0,0:0:0:0:
388,328,115265,1,0,0:0:0:0:
388,328,115344,2,0,B|336:316|300:228|360:160,1,190,12|0,0:0|0:0,0:0:0:0:
228,96,115817,1,8,0:0:0:0:
172,168,115975,2,0,B|164:216|172:264,1,95,2|0,0:2|0:0,0:0:0:0:
256,308,116291,2,0,B|264:260|256:212,1,95,8|0,0:0|0:0,0:0:0:0:
88,108,116607,6,0,B|40:200|96:296,1,190,4|8,0:2|0:3,0:0:0:0:
160,348,117080,1,4,0:3:0:0:
252,328,117238,2,0,B|336:260|432:296,1,190,4|0,0:0|0:0,0:0:0:0:
496,360,117712,1,0,0:0:0:0:
376,200,117870,6,0,L|328:132,1,71.2500027179719,4|0,0:0|0:0,0:0:0:0:
496,140,118186,2,0,L|460:212,1,71.2500027179719,2|0,3:2|0:0,0:0:0:0:
380,80,118501,2,0,L|460:72,1,71.2500027179719,2|0,3:2|0:0,0:0:0:0:
284,216,118817,2,0,L|200:228,1,71.2500027179719,0|0,3:0|0:0,0:0:0:0:
96,168,119133,2,0,B|164:124|244:148,1,142.500005435944,2|2,3:2|3:2,0:0:0:0:
408,304,119765,2,0,B|340:348|260:324,1,142.500005435944,2|2,3:2|0:2,0:0:0:0:
400,112,120396,5,2,0:2:0:0:
452,352,120712,1,2,3:2:0:0:
316,68,121028,5,0,3:0:0:0:
336,348,121344,1,2,3:2:0:0:
204,72,121659,5,2,0:2:0:0:
184,352,121975,1,2,3:2:0:0:
120,116,122291,5,2,0:0:0:0:
68,356,122607,1,6,3:2:0:0:
252,220,122923,6,0,B|316:176|396:204,1,142.500005435944,4|0,0:0|0:0,0:0:0:0:
464,240,123396,1,0,0:0:0:0:
464,156,123554,1,8,0:1:0:0:
380,120,123712,2,0,L|300:96,1,71.2500027179719,2|0,0:0|0:0,0:0:0:0:
180,160,124028,1,0,0:0:0:0:
120,220,124186,2,0,L|212:252,1,71.2500027179719,2|8,0:0|0:1,0:0:0:0:
392,220,124501,2,0,L|300:252,1,71.2500027179719,2|0,0:0|0:0,0:0:0:0:
260,328,124817,2,0,B|200:276|232:188,1,142.500005435944,8|0,0:1|0:0,0:0:0:0:
276,128,125291,5,0,0:0:0:0:
276,128,125449,2,0,B|280:84|272:48,1,71.2500027179719,4|0,0:2|0:0,0:0:0:0:
144,176,125765,2,0,B|140:220|148:256,1,71.2500027179719,2|0,0:0|0:0,0:0:0:0:
308,212,126080,2,0,B|348:204|392:208,1,71.2500027179719,2|0,0:0|0:0,0:0:0:0:
340,324,126396,2,0,L|260:328,1,71.2500027179719,8|0,0:1|0:0,0:0:0:0:
188,348,126712,5,8,0:3:0:0:
112,308,126870,1,2,0:3:0:0:
36,344,127028,2,0,B|28:308|32:256,1,71.2500027179719,2|0,0:0|0:0,0:0:0:0:
144,64,127344,1,2,0:0:0:0:
208,132,127501,1,2,3:0:0:0:
208,132,127580,1,2,3:0:0:0:
208,132,127659,1,6,3:2:0:0:
192,208,127817,1,0,0:0:0:0:
112,240,127975,2,0,B|100:192|104:144,1,95,4|0,0:0|0:0,0:0:0:0:
296,180,128294,5,10,0:0:0:0:
392,216,128453,1,0,0:0:0:0:
368,128,128613,1,10,0:0:0:0:
320,272,128772,1,0,0:0:0:0:
220,144,128932,1,10,0:0:0:0:
392,216,129092,1,0,0:0:0:0:
244,240,129251,6,2,B|140:252,1,95,8|0,0:0|0:0,0:0:0:0:
108,224,129485,1,0,0:0:0:0:
72,192,129563,2,2,P|64:140|84:92,1,95,8|0,0:0|0:0,0:0:0:0:
247,147,129876,2,2,B|264:196|240:249,1,95,8|0,0:0|0:0,0:0:0:0:
392,100,130188,2,2,B|432:60|488:68,1,95,8|0,0:0|0:0,0:0:0:0:
408,256,130501,6,0,L|376:368,1,95,8|0,0:0|0:0,0:0:0:0:
112,152,130813,2,0,L|144:40,1,95,8|0,0:0|0:0,0:0:0:0:
276,304,131126,5,8,0:0:0:0:
168,256,131282,1,0,0:0:0:0:
244,68,131438,1,8,0:0:0:0:
348,112,131594,1,8,0:0:0:0:
280,200,131751,5,2,2:0:0:0:
264,192,131910,1,2,2:0:0:0:
304,188,132070,5,2,2:0:0:0:
240,212,132229,1,2,2:0:0:0:
324,220,132389,5,2,2:0:0:0:
216,184,132548,1,2,2:0:0:0:
350,178,132708,5,2,2:0:0:0:
195,228,132868,1,2,2:0:0:0:
328,256,133027,6,0,B|384:268|456:284,1,95,4|0,0:0|0:0,0:0:0:0:
308,96,133342,2,0,B|260:52|164:72|152:148,1,190,2|2,0:0|0:3,0:0:0:0:
136,232,133816,1,2,0:3:0:0:
56,144,133974,1,10,0:0:0:0:
96,304,134132,1,0,0:0:0:0:
224,196,134290,6,0,B|276:204|316:216,1,95,2|0,0:0|0:0,0:0:0:0:
480,200,134605,1,10,0:0:0:0:
400,264,134763,1,0,0:0:0:0:
400,264,134842,1,0,0:0:0:0:
400,264,134921,1,2,0:3:0:0:
388,156,135079,1,2,0:3:0:0:
304,300,135237,1,10,0:0:0:0:
240,112,135395,1,0,0:0:0:0:
152,288,135553,6,0,B|80:308|20:256|40:176,1,190,2|10,0:0|0:0,0:0:0:0:
136,104,136027,1,0,0:0:0:0:
260,212,136184,2,0,B|272:264|260:312,1,95,2|2,0:3|0:3,0:0:0:0:
380,256,136500,2,0,B|328:176|368:68,1,190,10|2,0:0|0:3,0:0:0:0:
440,164,136974,5,0,0:0:0:0:
260,212,137132,2,0,L|248:108,1,95,10|0,0:0|0:0,0:0:0:0:
156,188,137448,2,0,L|168:292,1,95,2|2,0:0|0:3,0:0:0:0:
68,348,137763,2,0,L|56:244,1,95,10|0,0:0|0:0,0:0:0:0:
276,300,138079,6,0,L|384:336,1,95,2|0,0:0|0:0,0:0:0:0:
488,212,138395,1,10,0:0:0:0:
356,100,138553,1,0,0:0:0:0:
356,100,138632,1,0,0:0:0:0:
356,100,138711,1,2,0:3:0:0:
388,208,138869,1,2,0:3:0:0:
460,88,139027,1,10,0:0:0:0:
388,208,139184,1,0,0:0:0:0:
268,128,139342,6,0,B|256:80|264:28,1,95,2|0,0:0|0:0,0:0:0:0:
168,200,139658,2,0,B|144:268|60:292|4:232,1,190,10|2,0:0|0:3,0:0:0:0:
64,132,140132,1,2,0:3:0:0:
256,264,140290,2,0,B|240:320|240:320|224:376,1,95,10|0,0:0|0:0,0:0:0:0:
372,160,140605,5,2,0:0:0:0:
352,64,140763,1,0,0:0:0:0:
280,132,140921,1,10,0:0:0:0:
300,228,141079,1,0,0:0:0:0:
448,148,141237,2,0,B|456:96|456:48,1,95,2|2,0:3|0:3,0:0:0:0:
200,48,141553,2,0,B|192:104|188:148,1,95,10|0,0:0|0:0,0:0:0:0:
44,224,141869,5,4,0:0:0:0:
208,256,142027,1,0,0:0:0:0:
120,308,142184,1,2,0:0:0:0:
188,142,142342,5,8,0:0:0:0:
292,308,142500,1,2,0:2:0:0:
208,256,142658,1,0,0:0:0:0:
324,136,142816,2,0,B|376:152|416:176,1,95,4|0,0:2|0:0,0:0:0:0:
328,240,143132,5,4,0:0:0:0:
108,336,143448,2,0,B|164:328|212:344,1,95,8|0,0:1|0:0,0:0:0:0:
400,328,143763,1,8,0:3:0:0:
304,352,143921,1,4,0:3:0:0:
248,272,144079,2,0,B|184:184|240:92,1,190,8|8,0:0|0:3,0:0:0:0:
320,124,144553,5,2,0:3:0:0:
344,208,144711,2,0,L|368:304,1,95,8|0,0:0|0:0,0:0:0:0:
132,176,145027,2,0,L|108:80,1,95,8|4,0:3|0:3,0:0:0:0:
228,268,145342,2,0,L|204:364,1,95,8|0,0:0|0:0,0:0:0:0:
79,260,145658,6,0,B|39:152|115:76,1,190,4|8,0:3|0:0,0:0:0:0:
188,52,146132,1,0,0:0:0:0:
344,140,146290,1,8,0:3:0:0:
248,124,146448,1,4,0:3:0:0:
172,184,146605,2,0,B|140:284|180:376,1,190,8|8,0:0|0:3,0:0:0:0:
264,316,147079,5,2,0:3:0:0:
269,216,147237,2,0,L|245:112,1,95,8|0,0:0|0:0,0:0:0:0:
60,240,147553,2,0,L|84:344,1,95,8|4,0:3|0:3,0:0:0:0:
360,264,147869,2,0,L|384:160,1,95,8|0,0:0|0:0,0:0:0:0:
381,171,148105,1,0,0:3:0:0:
381,171,148184,1,4,0:0:0:0:
356,80,148340,1,0,0:0:0:0:
148,192,148496,6,0,B|184:236|252:216,1,95,10|0,0:0|0:0,0:0:0:0:
192,80,148809,2,0,B|124:40|48:80|36:164,1,190,2|10,0:0|0:0,0:0:0:0:
72,280,149277,1,0,0:0:0:0:
160,344,149434,6,0,L|356:328,1,190,4|8,0:2|0:0,0:0:0:0:
420,216,149907,1,0,0:0:0:0:
200,232,150065,2,0,B|188:184|200:128,1,95,2|0,0:0|0:0,0:0:0:0:
308,132,150381,2,0,B|320:180|308:236,1,95,2|0,0:0|0:0,0:0:0:0:
200,232,150697,5,12,0:0:0:0:
400,151,150855,2,0,L|288:127,1,95,2|0,0:0|0:0,0:0:0:0:
100,304,151170,2,0,B|204:352|280:264,1,190,10|0,0:0|0:0,0:0:0:0:
176,80,151644,2,0,B|124:64|80:88,1,95,10|0,0:0|0:0,0:0:0:0:
376,296,151960,1,8,0:0:0:0:
376,296,152118,1,0,0:0:0:0:
160,168,152276,1,8,0:0:0:0:
160,168,152434,1,0,0:0:0:0:
352,136,152591,5,10,0:0:0:0:
200,316,152749,1,2,3:0:0:0:
200,316,152828,1,2,3:0:0:0:
200,316,152907,1,8,3:1:0:0:
276,224,153065,1,0,0:0:0:0:
72,256,153223,6,0,L|52:152,1,95,4|0,0:0|0:0,0:0:0:0:
288,48,153539,2,0,B|284:120|200:160|116:96,1,190,10|2,0:0|0:3,0:0:0:0:
320,172,154012,1,2,0:3:0:0:
384,100,154170,2,0,B|432:80|484:92,1,95,10|0,0:0|0:0,0:0:0:0:
216,304,154486,6,0,B|208:252|204:200,1,95,2|0,0:0|0:0,0:0:0:0:
116,276,154802,1,10,0:0:0:0:
304,240,154960,1,0,0:0:0:0:
304,240,155039,1,0,0:0:0:0:
304,240,155118,1,2,0:3:0:0:
108,152,155276,1,2,0:3:0:0:
264,204,155434,1,10,0:0:0:0:
240,48,155591,1,0,0:0:0:0:
108,152,155749,6,0,B|60:252|140:336,2,190,2|10|2,0:0|0:0|0:3,0:0:0:0:
204,124,156539,1,2,0:3:0:0:
276,204,156697,2,0,B|316:192|400:172,1,95,10|0,0:0|0:0,0:0:0:0:
444,96,157012,6,0,B|492:160|456:236,1,142.5,2|0,0:0|2:0,0:0:0:0:
458,230,157328,2,0,B|436:284|436:336,1,95,10|0,0:0|0:0,0:0:0:0:
112,176,157644,2,0,B|134:122|134:70,1,95,2|0,0:0|0:3,0:0:0:0:
200,316,157960,2,0,B|260:328|320:348,1,95,10|0,0:0|0:0,0:0:0:0:
372,104,158276,6,0,B|328:76|264:72,1,95,2|0,0:0|0:0,0:0:0:0:
208,152,158591,2,0,B|292:208|388:200,1,190,10|2,0:0|0:3,0:0:0:0:
472,128,159065,1,2,0:3:0:0:
324,300,159223,1,10,0:0:0:0:
324,300,159381,1,0,0:0:0:0:
232,164,159539,6,0,B|216:120|228:48,1,95,2|0,0:0|0:0,0:0:0:0:
156,256,159855,1,10,0:0:0:0:
208,344,160012,1,0,0:0:0:0:
208,344,160091,1,0,0:0:0:0:
208,344,160170,1,2,0:3:0:0:
328,184,160328,1,2,0:3:0:0:
128,160,160486,1,10,0:0:0:0:
208,344,160644,1,0,0:0:0:0:
260,172,160802,6,0,L|224:12,1,142.5,2|0,0:0|2:0,0:0:0:0:
228,32,161121,2,0,B|188:72|128:64,1,95,10|0,0:0|0:0,0:0:0:0:
280,260,161440,1,2,0:3:0:0:
376,220,161599,1,2,0:3:0:0:
472,180,161759,2,0,B|460:128|464:76,1,95,10|0,0:0|0:0,0:0:0:0:
176,200,162078,6,0,B|128:212|64:228,1,95,4|0,0:2|0:0,0:0:0:0:
336,184,162393,2,0,B|384:172|448:156,1,95,10|0,0:0|0:0,0:0:0:0:
180,120,162709,2,0,B|192:72|208:8,1,95,10|0,0:0|0:0,0:0:0:0:
336,264,163025,2,0,B|324:312|308:376,1,95,12|0,0:2|0:0,0:0:0:0:
68,264,163341,6,0,B|168:316|244:224,1,190,12|2,0:0|0:0,0:0:0:0:
288,152,163814,1,8,0:0:0:0:
380,120,163972,2,0,B|428:100|476:112,1,95,2|0,0:0|2:0,0:0:0:0:
224,336,164288,6,0,B|140:336|104:224|176:164,1,228,4|0,0:0|0:0,0:0:0:0:
288,152,164920,2,0,B|292:208|276:256,1,95,8|0,0:0|0:0,0:0:0:0:
224,336,165235,1,2,0:2:0:0:
116,120,165393,1,2,0:3:0:0:
188,216,165551,1,10,0:2:0:0:
76,240,165709,1,0,0:0:0:0:
224,336,165867,5,2,0:0:0:0:
308,304,166025,1,8,0:3:0:0:
396,316,166183,1,4,0:3:0:0:
480,280,166341,1,2,0:3:0:0:
456,200,166499,2,0,B|404:208|356:224,1,95,8|0,0:0|0:0,0:0:0:0:
272,232,166814,6,0,B|200:216|168:96|244:40,1,228,4|0,0:0|0:0,0:0:0:0:
352,80,167446,2,0,B|328:128|264:136,1,95,8|0,0:0|0:0,0:0:0:0:
36,164,167762,2,0,B|84:176|128:152,1,95,2|0,0:2|0:0,0:0:0:0:
160,350,168078,2,0,B|216:298|184:218,1,142.5,4|0,0:2|2:0,0:0:0:0:
185,220,168393,6,0,B|292:260|384:224,1,190,4|8,0:0|0:0,0:0:0:0:
452,152,168867,1,0,0:0:0:0:
296,56,169025,2,0,B|284:104|292:168,1,95,2|2,0:2|0:3,0:0:0:0:
80,244,169341,2,0,B|104:200|84:144,1,95,8|0,0:0|0:0,0:0:0:0:
40,72,169656,5,2,0:2:0:0:
40,72,169814,1,0,0:0:0:0:
192,196,169972,2,0,L|200:308,1,95,8|0,0:0|0:0,0:0:0:0:
408,168,170288,2,0,L|392:48,1,95,2|2,0:2|0:3,0:0:0:0:
316,260,170604,2,0,B|356:296|416:280,1,95,8|0,0:0|0:0,0:0:0:0:
268,96,170920,6,0,L|68:80,1,190,4|0,0:0|0:0,0:0:0:0:
196,320,171393,2,0,B|260:352|332:312|336:240,1,190,10|0,0:0|0:0,0:0:0:0:
133,227,171867,2,0,B|61:211|33:143|81:75,1,190,10|8,0:0|0:0,0:0:0:0:
236,128,172337,1,2,0:3:0:0:
208,232,172492,2,0,B|264:228|320:216,1,95,8|0,0:0|0:0,0:0:0:0:
436,40,172801,5,8,0:3:0:0:
412,188,172956,1,8,0:3:0:0:
388,336,173110,1,0,0:0:0:0:
136,192,173265,6,0,B|180:172|232:176,1,95,4|0,0:0|0:0,0:0:0:0:
320,92,173579,1,0,0:0:0:0:
320,92,173659,1,0,0:0:0:0:
320,92,173739,1,4,0:2:0:0:
244,272,173898,1,0,0:0:0:0:
160,88,174058,1,2,0:0:0:0:
88,272,174217,1,2,0:3:0:0:
184,344,174377,1,8,0:0:0:0:
240,192,174537,6,0,B|252:140|240:88,1,95,2|0,0:0|0:0,0:0:0:0:
80,180,174853,1,0,0:0:0:0:
164,236,175011,1,8,0:0:0:0:
128,60,175169,1,0,0:0:0:0:
72,280,175327,1,2,0:0:0:0:
164,152,175485,1,2,0:3:0:0:
12,140,175643,1,8,0:0:0:0:
196,272,175801,6,0,B|264:308|332:284|352:212,1,190,4|0,0:2|0:0,0:0:0:0:
356,200,176196,1,0,0:0:0:0:
364,184,176274,2,0,B|400:152|456:160,1,95,8|0,0:0|0:0,0:0:0:0:
256,172,176590,1,2,0:0:0:0:
236,64,176748,1,2,0:3:0:0:
236,64,176906,1,8,0:0:0:0:
92,168,177064,6,0,L|76:272,1,95,2|0,0:0|0:0,0:0:0:0:
388,224,177380,2,0,L|404:120,1,95,2|8,0:0|0:0,0:0:0:0:
184,232,177696,2,0,L|192:336,1,95,2|0,0:0|0:0,0:0:0:0:
484,292,178011,2,0,L|472:188,1,95,2|8,0:0|0:0,0:0:0:0:
284,204,178327,5,4,0:2:0:0:
284,204,178485,1,0,0:0:0:0:
268,320,178643,1,0,0:0:0:0:
268,320,178722,1,0,0:0:0:0:
268,320,178801,1,8,0:1:0:0:
188,136,178959,1,0,0:0:0:0:
172,248,179117,1,2,0:0:0:0:
284,108,179274,1,2,0:3:0:0:
144,40,179432,1,8,0:0:0:0:
284,204,179590,6,0,B|396:248|460:148,1,190,4|0,0:2|0:0,0:0:0:0:
504,36,180064,1,8,0:0:0:0:
384,88,180222,1,0,0:0:0:0:
488,264,180380,1,2,0:0:0:0:
348,348,180538,1,2,0:3:0:0:
236,240,180696,1,8,0:0:0:0:
268,152,180853,6,0,B|336:124|404:176|400:248,1,190,4|0,0:2|0:0,0:0:0:0:
400,242,181248,1,0,0:0:0:0:
400,242,181327,1,8,0:0:0:0:
288,264,181485,1,0,0:0:0:0:
428,104,181643,1,2,0:0:0:0:
216,76,181801,1,0,3:0:0:0:
216,76,181880,1,0,3:0:0:0:
216,76,181959,1,10,3:1:0:0:
333,115,182117,6,0,B|397:111|429:103,1,95,4|0,0:2|0:0,0:0:0:0:
192,236,182432,2,0,B|128:240|96:248,1,95,8|0,0:3|0:0,0:0:0:0:
296,324,182748,6,0,P|320:256|308:176,1,142.5,2|0,0:2|2:0,0:0:0:0:
256,104,183064,2,0,P|232:172|244:252,1,142.5,2|0,0:2|2:0,0:0:0:0:
400,284,183380,5,4,0:0:0:0:
400,284,183538,1,2,0:2:0:0:
452,208,183697,1,0,0:0:0:0:
400,284,183857,1,8,0:0:0:0:
340,160,184016,1,2,0:2:0:0:
288,248,184176,1,2,0:3:0:0:
384,168,184336,1,2,0:3:0:0:
240,132,184495,1,8,0:0:0:0:
272,296,184655,1,0,0:0:0:0:
304,200,184814,6,0,B|299:151|288:96,1,95,2|0,0:3|0:0,0:0:0:0:
164,256,185133,2,0,B|112:252|64:244,1,95,8|0,0:0|0:0,0:0:0:0:
56,136,185452,2,0,B|108:140|156:148,1,95,2|2,0:3|0:3,0:0:0:0:
344,304,185772,2,0,B|396:320|448:320,1,95,8|0,0:0|0:0,0:0:0:0:
424,140,186091,6,0,B|376:92|284:112|264:184,1,190,2|8,0:0|0:0,0:0:0:0:
240,268,186564,1,0,0:0:0:0:
160,324,186722,2,0,B|144:264|156:220,1,95,2|2,3:3|3:0,0:0:0:0:
340,288,187038,2,0,B|388:192|308:84,1,190,8|2,0:0|0:3,0:0:0:0:
188,64,187510,5,2,0:3:0:0:
160,168,187666,2,0,B|216:176|256:136,1,95,8|0,0:0|0:0,0:0:0:0:
92,92,187979,2,0,B|48:128|56:184,1,95,2|2,0:3|0:3,0:0:0:0:
192,292,188291,1,8,0:0:0:0:
192,292,188447,1,8,0:0:0:0:
392,232,188604,6,0,L|424:40,1,190,4|8,0:0|0:0,0:0:0:0:
423,44,189077,1,0,0:0:0:0:
300,108,189235,2,0,B|256:140|196:124,1,95,2|2,0:3|0:3,0:0:0:0:
92,48,189551,2,0,L|116:152,1,95,8|0,0:0|0:0,0:0:0:0:
52,336,189867,5,2,0:3:0:0:
84,264,190025,1,2,0:3:0:0:
160,320,190182,5,8,0:0:0:0:
164,240,190340,1,0,0:0:0:0:
252,272,190498,5,2,0:3:0:0:
264,192,190656,1,2,0:3:0:0:
340,244,190814,5,12,0:2:0:0:
360,76,190972,1,0,0:0:0:0:
176,140,191130,5,12,0:0:0:0:
460,220,191288,1,0,0:0:0:0:
176,140,191446,1,2,0:3:0:0:
468,112,191604,5,8,0:0:0:0:
168,248,191761,1,0,0:0:0:0:
468,112,191919,1,2,0:3:0:0:
272,52,192077,6,0,B|276:104|280:148,1,95,4|0,0:2|0:0,0:0:0:0:
300,304,192393,1,2,0:0:0:0:
184,336,192551,1,0,0:0:0:0:
146,330,192630,1,0,0:0:0:0:
113,309,192709,1,0,0:0:0:0:
90,278,192788,1,0,0:0:0:0:
85,240,192867,1,8,0:0:0:0:
92,202,192946,1,8,0:0:0:0:
108,167,193025,1,10,0:0:0:0:
220,202,193182,5,8,0:0:0:0:
261,178,193261,1,8,0:0:0:0:
308,173,193340,1,8,0:0:0:0:
352,189,193419,1,8,0:0:0:0:
394,209,193498,1,8,0:0:0:0:
441,211,193577,1,8,0:0:0:0:
483,189,193656,2,0,B|491:133|483:78,1,95,6|0,0:0|0:0,0:0:0:0:
484,94,193972,1,0,0:0:0:0:
296,252,194130,6,0,B|288:308|296:363,1,95,10|0,0:0|0:0,0:0:0:0:
294,346,194446,1,0,0:0:0:0:
116,180,194604,2,0,B|120:132|112:68,1,95,10|0,0:0|0:0,0:0:0:0:
113,85,194919,1,0,0:0:0:0:
380,292,195077,6,0,B|452:272|464:176|408:136,1,190,10|0,0:0|0:0,0:0:0:0:
184,296,195551,2,0,B|116:304|68:312,1,95,2|0,0:0|0:0,0:0:0:0:
248,140,195867,1,4,0:3:0:0:
328,104,196025,6,0,L|332:140,3,31.6666666666667,0|0|0|12,0:0|0:0|0:0|0:2,0:0:0:0:
136,60,196340,1,2,0:2:0:0:
136,60,196498,1,0,0:0:0:0:
284,216,196656,1,12,0:2:0:0:
56,276,196814,1,2,0:2:0:0:
56,276,196972,1,2,0:3:0:0:
164,144,197130,1,12,0:2:0:0:
164,144,197288,1,0,0:0:0:0:
228,288,197446,5,2,0:0:0:0:
416,360,197604,2,0,B|456:328|448:264,1,95,8|0,0:0|0:0,0:0:0:0:
452,164,197919,1,2,0:2:0:0:
368,248,198077,5,12,0:2:0:0:
340,48,198235,1,2,0:2:0:0:
144,248,198393,1,8,0:0:0:0:
172,48,198551,1,2,0:2:0:0:
352,168,198709,5,4,0:0:0:0:
260,224,198867,1,2,0:2:0:0:
168,172,199025,1,2,0:3:0:0:
352,168,199182,5,2,0:0:0:0:
260,320,199340,1,0,0:0:0:0:
168,172,199498,1,2,0:3:0:0:
352,256,199656,2,0,B|404:272|444:300,1,95,2|0,0:0|0:0,0:0:0:0:
168,260,199972,5,2,0:3:0:0:
80,216,200130,2,0,B|56:168|72:108,1,95,8|0,0:3|0:0,0:0:0:0:
152,44,200446,1,2,0:2:0:0:
224,240,200604,1,12,0:2:0:0:
300,152,200761,1,2,0:2:0:0:
172,140,200919,2,0,L|64:168,1,95,8|2,0:2|0:2,0:0:0:0:
332,236,201235,6,0,B|388:240|436:264,1,95,12|2,0:0|0:2,0:0:0:0:
192,304,201551,2,0,B|140:308|92:280,1,95,2|0,0:0|0:0,0:0:0:0:
352,128,201867,1,2,0:0:0:0:
144,200,202025,1,2,0:3:0:0:
156,108,202182,1,8,0:0:0:0:
344,220,202340,5,4,0:2:0:0:
344,220,202419,1,0,0:0:0:0:
344,220,202498,2,0,L|336:328,1,95,6|0,0:0|0:0,0:0:0:0:
40,132,202814,2,0,L|48:24,1,95,8|0,0:0|0:0,0:0:0:0:
316,72,203130,1,8,0:0:0:0:
128,144,203288,1,2,0:3:0:0:
344,220,203446,1,8,0:0:0:0:
152,300,203604,1,0,0:0:0:0:
256,208,203761,5,4,0:2:0:0:
256,208,203919,2,0,B|244:108,1,95,2|8,0:0|0:0,0:0:0:0:
88,264,204235,1,2,0:0:0:0:
88,264,204393,2,0,B|20:284|-20:312,1,95,2|2,0:3|0:3,0:0:0:0:
92,84,204709,2,0,B|128:116|176:132,1,95,8|0,0:0|0:0,0:0:0:0:
388,168,205025,6,2,B|376:72,1,95,2|2,0:2|0:3,0:0:0:0:
240,232,205340,2,0,B|252:328,1,95,8|2,0:0|0:2,0:0:0:0:
436,256,205656,2,0,P|388:261|340:268,1,95,2|2,0:3|0:3,0:0:0:0:
79,142,205972,2,0,P|127:137|175:130,1,95,8|2,0:0|0:2,0:0:0:0:
268,116,206288,5,12,0:0:0:0:
460,92,206446,1,2,0:2:0:0:
480,284,206604,1,2,0:3:0:0:
288,312,206761,1,8,0:0:0:0:
356,64,206919,5,4,0:2:0:0:
492,188,207077,1,2,0:3:0:0:
328,248,207235,1,2,0:0:0:0:
344,148,207393,1,2,2:3:0:0:
416,212,207551,1,4,0:0:0:0:
168,128,217498,5,0,0:0:0:0:
168,128,217576,1,0,0:0:0:0:
168,128,217655,1,6,0:2:0:0:
380,176,217812,1,2,0:2:0:0:
196,232,217970,1,4,0:3:0:0:
392,152,218128,1,2,0:2:0:0:
288,304,218286,1,8,0:3:0:0:
408,128,218444,1,2,0:2:0:0:
304,44,218602,2,2,L|120:72,1,142.5,4|0,0:1|2:0,0:0:0:0:
136,76,218918,5,6,0:2:0:0:
136,76,219230,2,0,B|116:144|116:144|132:220,1,142.500005435944,2|2,0:0|3:2,0:0:0:0:
376,312,219855,2,0,B|396:244|396:244|380:168,1,142.500005435944,2|2,0:0|3:2,0:0:0:0:
124,308,220325,2,0,L|208:324,1,71.2500027179719,0|2,0:0|3:2,0:0:0:0:
276,288,220641,1,0,0:0:0:0:
268,208,220799,2,0,L|252:60,1,142.500005435944,2|0,3:2|3:0,0:0:0:0:
160,48,221273,5,0,3:0:0:0:
160,48,221352,1,0,3:0:0:0:
160,48,221431,2,0,L|168:136,1,71.2500027179719,6|0,3:2|0:0,0:0:0:0:
340,160,221750,2,0,L|332:72,1,71.2500027179719,2|0,3:2|0:0,0:0:0:0:
200,236,222069,2,0,L|208:324,1,71.2500027179719,2|0,3:2|0:0,0:0:0:0:
340,352,222388,1,0,3:0:0:0:
404,288,222548,2,0,L|476:276,2,70.3000017163086,12|2|0,0:2|3:2|0:0,0:0:0:0:
328,240,223022,2,0,B|288:256|232:248,1,71.2500027179719,2|0,3:2|0:0,0:0:0:0:
172,208,223338,2,0,B|160:156|100:128|52:156,1,142.500005435944,2|0,3:2|3:0,0:0:0:0:
56,304,223812,5,0,3:0:0:0:
56,304,223891,1,0,3:0:0:0:
56,304,223970,2,0,B|64:268|68:216,1,71.2500027179719,4|0,0:0|0:0,0:0:0:0:
156,280,224289,1,2,3:2:0:0:
172,104,224448,2,0,B|176:152|164:192,1,71.2500027179719,8|2,0:0|3:2,0:0:0:0:
244,228,224767,1,0,0:0:0:0:
316,128,224927,2,0,B|324:88|316:44,1,71.2500027179719,8|0,3:2|0:0,0:0:0:0:
400,204,225246,6,0,B|352:264|392:352,1,142.500005435944,2|0,3:2|0:0,0:0:0:0:
468,272,225719,1,8,0:0:0:0:
216,216,225877,2,0,L|136:240,1,71.2500027179719,2|0,0:1|0:0,0:0:0:0:
276,144,226193,2,0,L|328:220,1,71.2500027179719,8|0,0:0|0:0,0:0:0:0:
184,128,226509,5,4,0:3:0:0:
280,276,226665,1,8,0:3:0:0:
356,112,226821,1,0,0:0:0:0:
184,220,226977,2,0,B|116:228|40:236,1,142.500005435944,8|2,0:3|0:2,0:0:0:0:
12,152,227446,1,4,0:3:0:0:
192,64,227602,1,0,0:0:0:0:
192,64,227680,1,0,0:0:0:0:
192,64,227759,1,8,0:0:0:0:
256,192,227915,12,4,229009,0:0:0:0:
116,300,229166,5,0,0:0:0:0:
40,252,229324,2,0,B|12:148|44:60,1,190,10|2,0:0|0:3,0:0:0:0:
132,40,229798,1,2,0:3:0:0:
356,116,229956,1,10,0:0:0:0:
140,184,230114,1,0,0:0:0:0:
292,248,230272,6,0,B|300:200|288:148,1,95,2|0,0:0|0:0,0:0:0:0:
104,264,230587,2,0,B|140:340|232:308,1,142.5,10|0,0:0|2:0,0:0:0:0:
292,348,230903,2,0,B|344:328|404:336,1,95,2|2,0:3|0:3,0:0:0:0:
452,268,231219,1,10,0:0:0:0:
440,96,231377,1,0,0:0:0:0:
260,112,231535,6,0,B|244:160|264:216,1,95,2|0,0:0|0:0,0:0:0:0:
296,304,231851,1,10,0:0:0:0:
352,160,232009,1,0,0:0:0:0:
352,160,232087,1,0,0:0:0:0:
352,160,232166,1,2,0:3:0:0:
188,292,232324,1,2,0:3:0:0:
144,108,232482,5,10,0:0:0:0:
236,156,232640,1,0,0:0:0:0:
144,108,232798,2,0,B|88:100|32:136,1,95,6|0,0:2|0:0,0:0:0:0:
368,276,233114,2,0,B|424:284|480:248,1,95,10|0,0:0|0:0,0:0:0:0:
116,256,233430,6,0,B|108:312|144:368,1,95,2|2,0:0|0:3,0:0:0:0:
404,152,233745,2,0,B|412:96|384:52,1,95,10|0,0:0|0:0,0:0:0:0:
180,192,234061,5,2,0:0:0:0:
256,264,234219,1,0,0:0:0:0:
328,192,234377,1,10,0:0:0:0:
256,124,234535,1,0,0:0:0:0:
256,124,234614,1,0,0:0:0:0:
256,124,234693,1,2,0:3:0:0:
180,192,234851,1,2,0:3:0:0:
344,272,235009,5,10,0:0:0:0:
336,104,235166,1,0,0:0:0:0:
168,112,235324,1,2,0:0:0:0:
176,280,235482,1,0,0:0:0:0:
256,196,235640,5,10,0:0:0:0:
80,148,235798,1,0,0:0:0:0:
80,148,235877,1,0,0:0:0:0:
80,148,235956,2,0,L|64:48,1,95,2|2,0:3|0:3,0:0:0:0:
432,236,236272,2,0,L|448:336,1,95,10|0,0:0|0:0,0:0:0:0:
216,272,236587,6,0,B|156:228|164:144|228:116,2,190,2|10|2,0:0|0:0|0:3,0:0:0:0:
312,196,237377,1,2,0:3:0:0:
316,92,237535,1,10,0:0:0:0:
416,192,237693,1,0,0:0:0:0:
304,288,237851,5,12,0:2:0:0:
404,96,238012,1,0,0:0:0:0:
184,92,238173,2,0,B|172:140|176:204,1,95,2|8,0:0|0:0,0:0:0:0:
304,288,238496,2,0,B|352:292|400:304,1,95,2|2,0:2|0:3,0:0:0:0:
184,364,238818,2,0,B|172:316|176:256,1,95,10|0,0:0|0:0,0:0:0:0:
320,80,239141,5,4,0:0:0:0:
320,80,239456,1,4,0:3:0:0:
296,176,239614,1,8,0:3:0:0:
204,128,239772,2,0,B|192:180|216:240,1,95,0|2,0:0|0:3,0:0:0:0:
340,276,240088,6,0,B|420:248|440:140|368:88,1,228,12|2,0:2|0:3,0:0:0:0:
208,36,240719,2,0,B|152:56|96:52,1,95,10|0,0:0|0:0,0:0:0:0:
60,256,241035,2,0,B|112:240|168:244,1,95,2|0,0:2|0:0,0:0:0:0:
180,136,241351,2,0,B|128:152|76:148,1,95,8|0,0:0|0:0,0:0:0:0:
124,344,241667,5,6,0:2:0:0:
248,264,241825,1,8,0:3:0:0:
368,352,241983,1,4,0:3:0:0:
164,208,242141,1,2,0:3:0:0:
376,128,242298,2,0,B|388:180|368:224,1,95,10|0,0:0|2:0,0:0:0:0:
392,304,242614,6,0,B|380:224|280:192|212:248,1,228,4|2,0:0|0:3,0:0:0:0:
120,216,243246,2,0,L|136:316,1,95,10|0,0:0|0:0,0:0:0:0:
224,140,243562,2,0,L|248:32,1,95,2|2,0:1|0:3,0:0:0:0:
344,272,243877,2,0,L|320:364,1,95,12|0,0:2|0:0,0:0:0:0:
376,168,244193,5,4,0:0:0:0:
376,168,244351,1,0,0:0:0:0:
296,96,244509,2,0,B|244:112|184:120,1,95,8|0,0:0|0:0,0:0:0:0:
120,72,244825,1,0,0:0:0:0:
164,196,244983,1,2,0:3:0:0:
76,280,245141,2,0,B|48:236|60:184,1,95,8|0,0:0|0:0,0:0:0:0:
192,296,245456,5,4,0:2:0:0:
280,276,245612,1,2,0:3:0:0:
356,328,245768,2,0,B|424:316|464:308,1,95,10|0,0:0|0:0,0:0:0:0:
296,104,246081,2,0,B|364:116|404:124,1,95,2|0,0:0|0:0,0:0:0:0:
168,332,246393,2,0,B|236:320|276:312,1,95,10|0,0:0|0:0,0:0:0:0:
128,108,246706,6,0,B|196:80|264:136|248:224,1,190,2|2,0:0|0:3,0:0:0:0:
100,292,247179,1,10,0:0:0:0:
100,292,247337,2,0,B|88:248|96:188,1,95,2|2,0:2|0:3,0:0:0:0:
296,132,247653,2,0,L|492:176,1,190,10|12,0:0|0:2,0:0:0:0:
464,256,248127,5,0,0:0:0:0:
404,76,248284,1,2,0:3:0:0:
308,224,248442,1,8,0:0:0:0:
404,76,248600,1,2,0:2:0:0:
148,128,248758,1,0,0:0:0:0:
148,128,248837,1,0,0:0:0:0:
148,128,248916,2,0,B|108:192|132:268,1,142.5,12|0,0:2|2:2,0:0:0:0:
124,280,249232,6,0,L|244:272,1,95,4|0,0:0|0:0,0:0:0:0:
312,248,249548,2,2,L|420:252,1,95,0|8,0:0|0:0,0:0:0:0:
208,156,249863,2,2,L|308:148,1,95,0|0,0:0|0:0,0:0:0:0:
380,124,250179,2,2,L|488:116,1,95,8|0,0:0|0:0,0:0:0:0:
248,56,250495,6,0,L|116:68,1,95,4|0,0:2|0:0,0:0:0:0:
80,128,250811,2,0,B|64:180|88:228,1,95,2|0,0:2|0:0,0:0:0:0:
292,332,251127,2,0,B|308:280|284:232,1,95,2|0,0:2|0:0,0:0:0:0:
320,44,251442,5,10,0:2:0:0:
320,44,251758,2,0,L|336:144,1,95,4|0,0:2|0:0,0:0:0:0:
232,104,252074,1,8,0:0:0:0:
412,72,252232,2,0,B|468:156|432:268,1,190,2|0,0:0|0:0,0:0:0:0:
356,304,252706,2,0,B|308:332|256:316,1,95,10|0,0:0|0:0,0:0:0:0:
88,168,253021,6,0,B|188:156,1,95,4|0,0:2|0:0,0:0:0:0:
256,96,253337,1,2,0:0:0:0:
184,252,253495,1,12,0:2:0:0:
144,84,253653,1,2,0:0:0:0:
304,152,253811,1,0,0:0:0:0:
304,152,253890,1,0,0:0:0:0:
304,152,253969,2,0,B|316:208|312:264,1,95,10|0,0:0|0:0,0:0:0:0:
448,192,254284,5,8,0:0:0:0:
344,72,254438,1,8,0:0:0:0:
328,340,254593,1,8,0:0:0:0:
136,208,254747,2,0,B|188:196|232:172,1,95,8|4,0:1|0:3,0:0:0:0:
236,68,255057,1,0,0:0:0:0:
300,272,255211,1,4,0:0:0:0:
256,192,255289,12,0,256811,2:0:0:0:
168,136,259351,5,4,0:0:0:0:
268,176,259507,1,2,0:3:0:0:
168,136,259663,1,2,0:3:0:0:
256,80,259819,1,8,0:0:0:0:
184,224,259976,1,2,0:2:0:0:
328,180,260132,2,0,B|329:228|320:284,1,95,2|8,0:3|0:0,0:0:0:0:
112,336,260444,6,0,B|48:320|24:236|80:176,1,190,2|8,0:0|0:0,0:0:0:0:
56,84,260916,2,0,B|112:80|164:64,1,95,2|0,0:0|0:0,0:0:0:0:
172,176,261232,1,8,0:0:0:0:
400,232,261390,1,0,0:0:0:0:
188,268,261548,1,8,0:0:0:0:
376,144,261706,1,0,0:0:0:0:
288,216,261864,6,0,B|276:168|272:112,1,95,4|2,0:2|0:3,0:0:0:0:
376,144,262179,1,2,0:3:0:0:
328,328,262337,2,0,B|272:384|192:372|156:292,1,190,8|2,0:0|0:3,0:0:0:0:
164,200,262811,1,8,0:0:0:0:
72,148,262969,1,2,0:2:0:0:
252,240,263127,5,2,0:3:0:0:
244,148,263285,2,0,B|300:204|384:176,2,142.5,10|2|6,0:0|0:0|0:2,0:0:0:0:
192,36,263916,1,0,0:0:0:0:
324,96,264074,1,8,0:0:0:0:
324,96,264232,1,2,0:3:0:0:
168,188,264390,6,0,L|64:176,1,95,4|2,0:0|0:3,0:0:0:0:
344,204,264706,2,0,L|448:216,1,95,2|8,0:3|0:0,0:0:0:0:
164,268,265022,6,0,L|60:256,1,95,2|2,0:0|0:3,0:0:0:0:
336,284,265337,2,0,L|440:296,1,95,10|2,0:0|0:3,0:0:0:0:
156,352,265653,6,0,L|52:340,1,95,2|2,0:3|0:0,0:0:0:0:
328,368,265969,2,0,L|432:380,1,95,2|2,0:2|0:0,0:0:0:0:
180,196,266285,5,8,0:0:0:0:
364,168,266443,1,0,0:0:0:0:
124,120,266601,1,8,0:0:0:0:
432,228,266758,1,0,0:0:0:0:
236,104,266916,5,8,0:0:0:0:
296,192,267074,1,0,0:0:0:0:
305,238,267153,1,0,0:0:0:0:
301,285,267232,1,8,0:0:0:0:
145,212,267390,1,0,0:0:0:0:
138,165,267469,1,0,0:0:0:0:
148,118,267548,1,8,0:0:0:0:
208,296,267706,2,2,B|168:336|108:324,1,95,2|0,0:0|0:0,0:0:0:0:
40,260,268022,6,2,B|-16:212|16:108|88:96,1,190,4|0,0:0|2:2,0:0:0:0:
160,112,268803,1,8,0:0:0:0:
168,112,268959,1,8,0:0:0:0:
256,144,269115,1,4,0:3:0:0:
264,144,269272,1,4,0:0:0:0:
256,192,269428,12,0,276303,2:0:0:0:
