osu file format v14

[General]
AudioFilename: audio.mp3
AudioLeadIn: 0
PreviewTime: 228076
Countdown: 0
SampleSet: Normal
StackLeniency: 0.7
Mode: 3
LetterboxInBreaks: 0
SpecialStyle: 0
WidescreenStoryboard: 0

[Editor]
DistanceSpacing: 1
BeatDivisor: 4
GridSize: 4
TimelineZoom: 1.6

[Metadata]
Title:Catch the Moment
TitleUnicode:Catch the Moment
Artist:LiSA
ArtistUnicode:LiSA
Creator:Damaree
Version:Ordinal Scale
Source:劇場版 ソードアート・オンライン -オーディナル・スケール-
Tags:sao sword art online the movie ordinal scale -ly0572- full version tabuchi tomoya eguchi ryo (江口亮) 11th Single Aniplex
BeatmapID:1219041
BeatmapSetID:575732

[Difficulty]
HPDrainRate:8
CircleSize:4
OverallDifficulty:8
ApproachRate:5
SliderMultiplier:1.4
SliderTickRate:1

[Events]
//Background and Video events
0,0,"BG-Yuna.jpg",0,0
//Break Periods
//Storyboard Layer 0 (Background)
//Storyboard Layer 1 (Fail)
//Storyboard Layer 2 (Pass)
//Storyboard Layer 3 (Foreground)
//Storyboard Sound Samples

[TimingPoints]
392,315.789473684211,4,1,1,40,1,0
57234,-100,4,1,1,40,0,1
67339,-100,4,1,1,40,0,0
77444,-100,4,1,1,40,0,1
87549,-100,4,1,1,40,0,0
133023,-100,4,1,1,40,0,1
143128,-100,4,1,1,40,0,0
153234,-100,4,1,1,40,0,1
163339,-100,4,1,1,40,0,0
229023,-100,4,1,1,40,0,1
239128,-100,4,1,1,40,0,0

[HitObjects]
64,192,392,128,4,707:0:0:0:0:
320,192,707,1,4,0:0:0:0:
192,192,865,128,0,1023:0:0:0:0:
64,192,1023,1,4,0:0:0:0:
320,192,1181,128,0,1339:0:0:0:0:
448,192,1339,1,4,0:0:0:0:
64,192,1497,1,4,0:0:0:0:
192,192,1576,1,4,0:0:0:0:
320,192,1655,1,4,0:0:0:0:
448,192,1655,128,0,1813:0:0:0:0:
192,192,1970,128,0,2128:0:0:0:0:
320,192,1970,1,4,0:0:0:0:
448,192,2286,128,0,2918:0:0:0:0:
64,192,2286,1,4,0:0:0:0:
192,192,2444,1,0,0:0:0:0:
64,192,2602,1,4,0:0:0:0:
320,192,2760,1,4,0:0:0:0:
192,192,2839,1,4,0:0:0:0:
320,192,2918,1,4,0:0:0:0:
64,192,2918,128,0,3076:0:0:0:0:
192,192,3076,1,4,0:0:0:0:
320,192,3234,128,0,3392:0:0:0:0:
448,192,3234,1,4,0:0:0:0:
192,192,3392,1,4,0:0:0:0:
64,192,3549,128,0,3865:0:0:0:0:
448,192,3549,1,4,0:0:0:0:
320,192,3707,1,0,0:0:0:0:
192,192,3865,128,0,4181:0:0:0:0:
448,192,3865,1,4,0:0:0:0:
320,192,4023,1,4,0:0:0:0:
448,192,4102,1,4,0:0:0:0:
320,192,4181,128,0,4497:0:0:0:0:
64,192,4181,1,4,0:0:0:0:
64,192,4339,1,4,0:0:0:0:
192,192,4497,128,0,4813:0:0:0:0:
448,192,4497,1,4,0:0:0:0:
448,192,4655,1,4,0:0:0:0:
64,192,4813,128,0,5444:0:0:0:0:
320,192,4813,1,4,0:0:0:0:
448,192,4970,128,0,5128:0:0:0:0:
320,192,5128,1,4,0:0:0:0:
192,192,5286,1,4,0:0:0:0:
320,192,5365,1,4,0:0:0:0:
448,192,5444,128,0,5760:0:0:0:0:
192,192,5760,1,4,0:0:0:0:
64,192,5918,128,0,6076:0:0:0:0:
320,192,6076,1,4,0:0:0:0:
448,192,6234,128,0,6392:0:0:0:0:
64,192,6392,1,4,0:0:0:0:
192,192,6549,1,4,0:0:0:0:
320,192,6628,1,4,0:0:0:0:
64,192,6707,128,0,7023:0:0:0:0:
448,192,6707,1,4,0:0:0:0:
192,192,7023,1,4,0:0:0:0:
448,192,7023,128,0,7181:0:0:0:0:
320,192,7339,128,0,7813:0:0:0:0:
64,192,7339,1,4,0:0:0:0:
192,192,7497,1,0,0:0:0:0:
448,192,7655,1,4,0:0:0:0:
192,192,7813,1,4,0:0:0:0:
64,192,7892,1,4,0:0:0:0:
192,192,7970,128,0,8602:0:0:0:0:
448,192,7970,1,4,0:0:0:0:
320,192,8286,1,4,0:0:0:0:
448,192,8444,128,0,8602:0:0:0:0:
320,192,8602,1,4,0:0:0:0:
64,192,8602,128,0,8918:0:0:0:0:
320,192,8918,1,4,0:0:0:0:
192,192,9076,1,4,0:0:0:0:
448,192,9155,1,4,0:0:0:0:
320,192,9194,1,0,0:0:0:0:
192,192,9234,1,4,0:0:0:0:
64,192,9273,1,0,0:0:0:0:
192,192,10339,1,2,0:0:0:0:
64,192,10339,1,0,0:0:0:0:
448,192,10418,1,0,0:0:0:0:
320,192,10418,1,2,0:0:0:0:
64,192,10497,1,0,0:0:0:0:
192,192,10497,1,8,0:0:0:0:
448,192,10497,1,0,0:0:0:30:Finish.wav
320,192,10760,1,8,0:0:0:0:
448,192,10760,1,0,0:0:0:0:
64,192,10760,1,0,0:0:0:0:
192,192,10970,1,8,0:0:0:0:
64,192,10970,1,0,0:0:0:0:
448,192,10970,1,0,0:0:0:0:
448,192,11128,1,0,0:0:0:0:
320,192,11128,1,8,0:0:0:0:
192,192,11207,1,2,0:0:0:0:
64,192,11207,1,0,0:0:0:0:
320,192,11286,1,2,0:0:0:0:
448,192,11286,1,0,0:0:0:0:
192,192,11365,1,2,0:0:0:0:
64,192,11365,1,0,0:0:0:0:
448,192,11444,1,0,0:0:0:0:
320,192,11444,1,8,0:0:0:0:
64,192,11444,1,0,0:0:0:30:Finish.wav
64,192,11760,128,4,12076:0:0:0:0:
320,192,11760,1,0,0:0:0:0:
192,192,11760,1,2,0:0:0:0:
320,192,12076,1,8,0:0:0:0:
448,192,12076,1,0,0:0:0:0:
192,192,12076,128,0,12392:0:0:0:0:
320,192,12392,128,0,12707:0:0:0:0:
448,192,12392,1,2,0:0:0:0:
64,192,12549,1,2,0:0:0:0:
192,192,12549,1,0,0:0:0:0:
64,192,12707,1,8,0:0:0:0:
192,192,12707,1,0,0:0:0:0:
448,192,12707,1,0,0:0:0:0:
448,192,12865,128,8,13339:0:0:0:0:
64,192,12865,1,0,0:0:0:0:
320,192,12865,1,0,0:0:0:0:
192,192,13181,1,2,0:0:0:0:
64,192,13181,1,0,0:0:0:0:
64,192,13339,1,0,0:0:0:0:
192,192,13339,1,8,0:0:0:0:
320,192,13339,128,0,13655:0:0:0:0:
192,192,13655,128,0,13970:0:0:0:0:
64,192,13655,1,2,0:0:0:0:
448,192,13813,1,2,0:0:0:0:
320,192,13813,1,0,0:0:0:0:
320,192,13970,1,8,0:0:0:0:
64,192,13970,1,0,0:0:0:0:
448,192,13970,1,0,0:0:0:0:
64,192,14286,128,0,15392:0:0:0:0:
192,192,14286,1,8,0:0:0:0:
448,192,14286,1,0,0:0:0:0:
320,192,14444,1,0,0:0:0:0:
192,192,14602,1,2,0:0:0:0:
448,192,14760,1,0,0:0:0:0:
320,192,14760,1,8,0:0:0:0:
192,192,14760,1,0,0:0:0:0:
448,192,14918,1,0,0:0:0:0:
192,192,15076,128,0,15234:0:0:0:0:
320,192,15076,1,2,0:0:0:0:
320,192,15234,128,0,15392:0:0:0:0:
448,192,15234,1,8,0:0:0:0:
448,192,15392,128,0,16181:0:0:0:0:
192,192,15549,1,8,0:0:0:0:
64,192,15549,1,0,0:0:0:0:
320,192,15549,1,0,0:0:0:0:
192,192,15707,1,2,0:0:0:0:
64,192,15707,1,0,0:0:0:0:
64,192,15865,1,0,0:0:0:0:
320,192,15865,1,8,0:0:0:0:
192,192,15865,1,0,0:0:0:0:
320,192,16023,1,2,0:0:0:0:
192,192,16023,1,0,0:0:0:0:
64,192,16181,1,8,0:0:0:0:
192,192,16234,1,0,0:0:0:0:
320,192,16286,1,0,0:0:0:0:
448,192,16339,1,0,0:0:0:0:
64,192,16339,1,2,0:0:0:0:
320,192,16418,1,0,0:0:0:0:
192,192,16418,1,2,0:0:0:0:
320,192,16497,1,8,0:0:0:0:
448,192,16497,1,0,0:0:0:0:
64,192,16497,1,0,0:0:0:0:
64,192,16813,128,0,17128:0:0:0:0:
320,192,16813,1,2,0:0:0:0:
192,192,16970,128,0,17128:0:0:0:0:
448,192,17128,128,0,17286:0:0:0:0:
320,192,17128,1,8,0:0:0:0:
64,192,17286,128,0,17444:0:0:0:0:
192,192,17444,128,0,17760:0:0:0:0:
320,192,17444,1,2,0:0:0:0:
320,192,17602,128,0,17760:0:0:0:0:
448,192,17602,1,2,0:0:0:0:
448,192,17760,128,0,17918:0:0:0:0:
64,192,17760,1,8,0:0:0:0:
192,192,17918,128,0,18076:0:0:0:0:
320,192,17918,1,2,0:0:0:0:
320,192,18076,128,0,18392:0:0:0:0:
64,192,18234,128,0,18392:0:0:0:0:
448,192,18234,1,2,0:0:0:0:
448,192,18392,128,0,18549:0:0:0:0:
192,192,18392,1,8,0:0:0:0:
64,192,18549,128,0,18707:0:0:0:0:
448,192,18707,1,0,0:0:0:0:
320,192,18707,1,8,0:0:0:0:
192,192,18786,1,2,0:0:0:0:
64,192,18786,1,0,0:0:0:0:
448,192,18865,1,0,0:0:0:0:
320,192,18865,1,2,0:0:0:0:
192,192,18944,1,2,0:0:0:0:
64,192,18944,1,0,0:0:0:0:
448,192,19023,1,0,0:0:0:30:Finish.wav
320,192,19023,1,8,0:0:0:0:
64,192,19023,1,0,0:0:0:0:
448,192,19339,1,0,0:0:0:0:
64,192,19339,128,0,19497:0:0:0:0:
320,192,19339,1,8,0:0:0:0:
192,192,19497,128,0,19655:0:0:0:0:
320,192,19576,1,8,0:0:0:0:
64,192,19655,1,2,0:0:0:0:
448,192,19655,128,0,19813:0:0:0:0:
320,192,19813,128,0,19970:0:0:0:0:
192,192,19892,1,8,0:0:0:0:
448,192,19970,1,2,0:0:0:0:
64,192,19970,1,0,0:0:0:0:
64,192,20128,128,0,20286:0:0:0:0:
320,192,20128,1,8,0:0:0:0:
448,192,20286,1,0,0:0:0:0:
192,192,20286,1,2,0:0:0:0:
320,192,20444,128,0,21865:0:0:0:0:
448,192,20444,1,8,0:0:0:0:
64,192,20444,1,0,0:0:0:0:
192,192,21549,128,0,21865:0:0:0:0:
448,192,21549,1,8,0:0:0:0:
64,192,21549,1,0,0:0:0:0:
64,192,21865,1,2,0:0:0:0:
448,192,21865,128,0,22181:0:0:0:0:
320,192,22023,128,0,22181:0:0:0:0:
64,192,22181,128,0,22497:0:0:0:0:
192,192,22181,1,2,0:0:0:0:
192,192,22339,128,0,22497:0:0:0:0:
320,192,22497,128,0,22813:0:0:0:0:
448,192,22497,1,2,0:0:0:0:
448,192,22655,128,0,22813:0:0:0:0:
192,192,22813,128,0,23128:0:0:0:0:
64,192,22813,1,2,0:0:0:0:
64,192,22970,128,0,23128:0:0:0:0:
448,192,23128,1,0,0:0:0:0:
320,192,23128,1,2,0:0:0:0:
192,192,23286,1,0,0:0:0:0:
64,192,23444,1,0,0:0:0:0:
192,192,23444,1,2,0:0:0:0:
320,192,23602,1,0,0:0:0:0:
320,192,23760,1,2,0:0:0:0:
448,192,23760,1,0,0:0:0:0:
192,192,23918,1,0,0:0:0:0:
64,192,24076,1,0,0:0:0:0:
192,192,24076,1,2,0:0:0:0:
320,192,24234,1,0,0:0:0:0:
64,192,24392,128,0,24707:0:0:0:0:
320,192,24392,1,2,0:0:0:0:
192,192,24549,128,0,24707:0:0:0:0:
448,192,24707,128,0,25023:0:0:0:0:
320,192,24707,1,2,0:0:0:0:
320,192,24865,128,0,25023:0:0:0:0:
192,192,25023,128,0,25339:0:0:0:0:
64,192,25023,1,2,0:0:0:0:
64,192,25181,128,0,25339:0:0:0:0:
320,192,25339,128,0,25655:0:0:0:0:
448,192,25339,1,2,0:0:0:0:
448,192,25497,128,0,25655:0:0:0:0:
64,192,25655,1,2,0:0:0:0:
192,192,25655,1,0,0:0:0:0:
320,192,25813,1,0,0:0:0:0:
64,192,25970,1,0,0:0:0:0:
320,192,25970,1,2,0:0:0:0:
448,192,26128,1,0,0:0:0:0:
192,192,26286,1,2,0:0:0:0:
448,192,26286,1,0,0:0:0:0:
192,192,26444,1,0,0:0:0:0:
64,192,26602,1,0,0:0:0:0:
320,192,26602,1,2,0:0:0:0:
320,192,26760,1,0,0:0:0:0:
448,192,26918,128,0,27234:0:0:0:0:
64,192,26918,1,2,0:0:0:0:
192,192,27076,128,0,27234:0:0:0:0:
64,192,27234,128,2,27549:0:0:0:0:
320,192,27234,1,0,0:0:0:0:
320,192,27392,128,0,27549:0:0:0:0:
192,192,27549,128,2,27865:0:0:0:0:
448,192,27549,1,0,0:0:0:0:
448,192,27707,128,0,27865:0:0:0:0:
320,192,27865,128,0,28181:0:0:0:0:
64,192,27865,1,2,0:0:0:0:
64,192,28023,128,0,28181:0:0:0:0:
448,192,28181,1,2,0:0:0:0:
192,192,28181,1,0,0:0:0:0:
448,192,28339,1,0,0:0:0:0:
320,192,28497,1,2,0:0:0:0:
192,192,28497,1,0,0:0:0:0:
192,192,28655,1,0,0:0:0:0:
320,192,28813,1,2,0:0:0:0:
64,192,28813,1,0,0:0:0:0:
64,192,28970,1,0,0:0:0:0:
448,192,29128,1,0,0:0:0:0:
192,192,29128,1,2,0:0:0:0:
192,192,29286,1,0,0:0:0:0:
448,192,29444,1,2,0:0:0:0:
64,192,29444,128,0,29760:0:0:0:0:
320,192,29602,128,0,29760:0:0:0:0:
448,192,29760,128,2,30076:0:0:0:0:
192,192,29760,1,0,0:0:0:0:
192,192,29918,128,0,30076:0:0:0:0:
320,192,30076,128,0,30392:0:0:0:0:
64,192,30076,1,8,0:0:0:0:
64,192,30234,128,0,30392:0:0:0:0:
448,192,30392,128,0,31655:0:0:0:0:
192,192,30392,128,8,31655:0:0:0:0:
64,192,31655,1,0,0:0:0:0:
320,192,31655,1,8,0:0:0:0:
448,192,31970,1,0,0:0:0:30:Finish.wav
320,192,31970,1,0,0:0:0:0:
64,192,31970,1,0,0:0:0:0:
448,192,32286,1,0,0:0:0:0:
64,192,32286,1,0,0:0:0:0:
192,192,32286,1,8,0:0:0:0:
192,192,32444,1,0,0:0:0:0:
192,192,32602,1,2,0:0:0:0:
320,192,32602,1,0,0:0:0:0:
320,192,32760,1,0,0:0:0:0:
320,192,32918,1,8,0:0:0:0:
64,192,32918,1,0,0:0:0:0:
448,192,32918,1,0,0:0:0:0:
64,192,33076,1,0,0:0:0:0:
320,192,33234,1,0,0:0:0:0:
192,192,33234,1,2,0:0:0:0:
320,192,33392,1,0,0:0:0:0:
448,192,33549,1,0,0:0:0:0:
192,192,33549,1,8,0:0:0:0:
64,192,33549,1,0,0:0:0:0:
64,192,33707,1,0,0:0:0:0:
448,192,33865,1,0,0:0:0:0:
320,192,33865,1,2,0:0:0:0:
320,192,34023,1,0,0:0:0:0:
192,192,34181,1,8,0:0:0:0:
64,192,34181,1,0,0:0:0:0:
448,192,34181,1,0,0:0:0:0:
64,192,34339,1,0,0:0:0:0:
448,192,34497,1,0,0:0:0:0:
192,192,34497,1,2,0:0:0:0:
192,192,34655,1,0,0:0:0:0:
448,192,34813,1,0,0:0:0:0:
320,192,34813,1,8,0:0:0:0:
64,192,34813,1,0,0:0:0:0:
320,192,34970,1,0,0:0:0:0:
320,192,35128,1,0,0:0:0:0:
192,192,35128,1,2,0:0:0:0:
192,192,35286,1,0,0:0:0:0:
192,192,35444,1,8,0:0:0:0:
448,192,35444,1,0,0:0:0:0:
64,192,35444,1,0,0:0:0:0:
448,192,35602,1,0,0:0:0:0:
448,192,35760,1,0,0:0:0:0:
192,192,35760,1,2,0:0:0:0:
64,192,35918,1,0,0:0:0:0:
64,192,36076,1,0,0:0:0:0:
320,192,36076,1,8,0:0:0:0:
448,192,36076,1,0,0:0:0:0:
64,192,36234,1,0,0:0:0:0:
192,192,36392,1,2,0:0:0:0:
320,192,36392,1,0,0:0:0:0:
320,192,36549,1,0,0:0:0:0:
192,192,36707,1,8,0:0:0:0:
448,192,36707,1,0,0:0:0:0:
64,192,36707,128,0,37023:0:0:0:0:
320,192,37023,1,2,0:0:0:0:
448,192,37023,1,0,0:0:0:0:
320,192,37181,1,0,0:0:0:0:
64,192,37339,1,0,0:0:0:0:
192,192,37339,1,8,0:0:0:0:
448,192,37339,1,0,0:0:0:0:
64,192,37497,1,0,0:0:0:0:
320,192,37655,1,0,0:0:0:0:
192,192,37655,1,2,0:0:0:0:
448,192,37813,1,0,0:0:0:0:
64,192,37970,1,0,0:0:0:0:
448,192,37970,1,0,0:0:0:0:
192,192,37970,1,8,0:0:0:0:
320,192,38128,1,0,0:0:0:0:
320,192,38286,1,2,0:0:0:0:
64,192,38286,1,0,0:0:0:0:
64,192,38444,1,0,0:0:0:0:
320,192,38602,1,8,0:0:0:0:
448,192,38602,1,0,0:0:0:0:
192,192,38602,1,0,0:0:0:0:
192,192,38760,1,0,0:0:0:0:
320,192,38918,1,0,0:0:0:0:
64,192,38918,1,2,0:0:0:0:
320,192,39076,1,0,0:0:0:0:
192,192,39234,1,8,0:0:0:0:
448,192,39234,1,0,0:0:0:0:
64,192,39234,1,0,0:0:0:0:
64,192,39392,1,0,0:0:0:0:
448,192,39549,1,0,0:0:0:0:
192,192,39549,1,2,0:0:0:0:
448,192,39707,1,0,0:0:0:0:
64,192,39865,1,0,0:0:0:0:
192,192,39865,1,0,0:0:0:0:
320,192,39865,1,8,0:0:0:0:
192,192,40023,1,0,0:0:0:0:
448,192,40181,1,2,0:0:0:0:
320,192,40181,1,0,0:0:0:0:
192,192,40339,1,8,0:0:0:0:
448,192,40339,1,4,0:0:0:0:
64,192,40339,128,0,40497:0:0:0:0:
320,192,40497,1,2,0:0:0:0:
192,192,40497,1,0,0:0:0:0:
448,192,40655,128,0,41128:0:0:0:0:
64,192,40655,1,8,0:0:0:0:
320,192,40655,1,4,0:0:0:0:
64,192,40970,1,2,0:0:0:0:
192,192,41128,1,8,0:0:0:0:
320,192,41128,1,0,0:0:0:0:
448,192,41286,1,0,0:0:0:0:
64,192,41286,1,2,0:0:0:0:
192,192,41444,1,8,0:0:0:0:
320,192,41444,1,0,0:0:0:0:
448,192,41444,1,0,0:0:0:0:
64,192,41602,128,0,41918:0:0:0:0:
320,192,41602,1,2,0:0:0:0:
320,192,41918,1,0,0:0:0:0:
448,192,41918,1,8,0:0:0:0:
192,192,41918,1,0,0:0:0:0:
192,192,42076,1,2,0:0:0:0:
320,192,42076,1,0,0:0:0:0:
64,192,42392,1,0,0:0:0:0:
448,192,42392,1,2,0:0:0:0:
320,192,42707,1,2,0:0:0:0:
192,192,42707,1,0,0:0:0:0:
448,192,43023,1,2,0:0:0:0:
64,192,43023,1,0,0:0:0:0:
448,192,43181,128,0,43655:0:0:0:0:
320,192,43181,1,8,0:0:0:0:
192,192,43181,1,0,0:0:0:0:
64,192,43339,1,2,0:0:0:0:
64,192,43655,1,0,0:0:0:0:
192,192,43655,1,2,0:0:0:0:
320,192,43970,1,2,0:0:0:0:
448,192,43970,1,0,0:0:0:0:
448,192,44286,1,8,0:0:0:0:
64,192,44286,1,0,0:0:0:0:
192,192,44286,1,0,0:0:0:0:
320,192,44602,1,2,0:0:0:0:
192,192,44602,1,0,0:0:0:30:Finish.wav
64,192,44602,1,0,0:0:0:0:
448,192,45234,1,2,0:0:0:0:
320,192,45234,1,0,0:0:0:30:Finish.wav
64,192,45234,1,0,0:0:0:0:
448,192,45865,1,2,0:0:0:0:
64,192,45865,1,0,0:0:0:0:
192,192,45865,1,0,0:0:0:30:Finish.wav
320,192,46497,1,0,0:0:0:30:Finish.wav
448,192,46497,1,2,0:0:0:0:
192,192,46497,1,0,0:0:0:0:
192,192,46813,128,0,47128:0:0:0:0:
64,192,46813,1,8,0:0:0:0:
448,192,47128,1,0,0:0:0:30:Finish.wav
320,192,47128,1,2,0:0:0:0:
64,192,47128,1,0,0:0:0:0:
192,192,47444,128,4,47602:0:0:0:0:
320,192,47602,1,2,0:0:0:0:
64,192,47602,1,0,0:0:0:0:
192,192,47760,1,0,0:0:0:0:
64,192,47760,1,0,0:0:0:0:
448,192,47760,1,8,0:0:0:0:
320,192,47918,128,0,48076:0:0:0:0:
448,192,48076,1,4,0:0:0:0:
64,192,48234,1,0,0:0:0:0:
192,192,48234,128,2,48549:0:0:0:0:
448,192,48392,128,4,48549:0:0:0:0:
64,192,48549,128,8,48707:0:0:0:0:
320,192,48549,1,0,0:0:0:0:
448,192,48707,1,4,0:0:0:0:
320,192,48865,1,0,0:0:0:0:
192,192,48865,1,2,0:0:0:0:
448,192,49023,1,0,0:0:0:0:
192,192,49023,1,8,0:0:0:0:
64,192,49023,1,0,0:0:0:0:
320,192,49181,128,0,49339:0:0:0:0:
192,192,49339,1,4,0:0:0:0:
448,192,49655,1,0,0:0:0:0:
320,192,49655,1,8,0:0:0:0:
64,192,49655,1,0,0:0:0:0:
192,192,49813,1,0,0:0:0:0:
448,192,49813,1,2,0:0:0:0:
192,192,49970,1,4,0:0:0:0:
448,192,50128,1,0,0:0:0:0:
64,192,50128,1,2,0:0:0:0:
64,192,50286,1,4,0:0:0:0:
192,192,50444,1,2,0:0:0:0:
320,192,50444,1,0,0:0:0:0:
320,192,50602,1,8,0:0:0:0:
448,192,50602,1,0,0:0:0:0:
64,192,50602,1,0,0:0:0:0:
64,192,50760,1,2,0:0:0:0:
448,192,50760,1,0,0:0:0:0:
192,192,50918,1,4,0:0:0:0:
320,192,50918,1,0,0:0:0:0:
448,192,51076,1,0,0:0:0:0:
192,192,51076,1,2,0:0:0:0:
64,192,51234,128,0,52181:0:0:0:0:
320,192,51234,1,4,0:0:0:0:
320,192,51392,1,2,0:0:0:0:
192,192,51549,128,0,52181:0:0:0:0:
448,192,51549,1,4,0:0:0:0:
320,192,51707,1,2,0:0:0:0:
448,192,51786,1,2,0:0:0:0:
320,192,51865,128,8,52181:0:0:0:0:
448,192,52181,1,8,0:0:0:0:
192,192,52339,1,2,0:0:0:0:
64,192,52339,1,0,0:0:0:0:
448,192,52497,1,0,0:0:0:0:
64,192,52497,1,0,0:0:0:0:
320,192,52497,1,8,0:0:0:0:
320,192,52655,1,0,0:0:0:0:
192,192,52655,1,2,0:0:0:0:
192,192,52813,1,8,0:0:0:0:
64,192,52813,1,0,0:0:0:0:
448,192,52813,1,0,0:0:0:0:
448,192,52970,1,0,0:0:0:0:
320,192,52970,1,2,0:0:0:0:
64,192,53128,1,0,0:0:0:0:
448,192,53128,1,0,0:0:0:0:
192,192,53128,1,8,0:0:0:0:
320,192,53286,1,2,0:0:0:0:
64,192,53286,1,0,0:0:0:0:
64,192,53444,1,0,0:0:0:0:
448,192,53444,1,0,0:0:0:0:
320,192,53444,1,8,0:0:0:0:
320,192,53602,1,2,0:0:0:0:
192,192,53602,1,0,0:0:0:0:
64,192,53760,1,0,0:0:0:0:
192,192,53760,1,0,0:0:0:0:
448,192,53760,1,8,0:0:0:0:
448,192,53918,1,2,0:0:0:0:
192,192,53918,1,0,0:0:0:0:
64,192,54076,1,0,0:0:0:0:
320,192,54076,1,8,0:0:0:0:
448,192,54076,1,0,0:0:0:0:
192,192,54234,1,0,0:0:0:0:
320,192,54234,1,2,0:0:0:0:
64,192,54392,1,0,0:0:0:0:
320,192,54392,1,8,0:0:0:0:
448,192,54392,1,0,0:0:0:0:
192,192,54549,1,2,0:0:0:0:
64,192,54549,1,0,0:0:0:0:
64,192,54707,1,0,0:0:0:0:
320,192,54707,1,8,0:0:0:0:
448,192,54707,128,0,55023:0:0:0:0:
192,192,55023,1,2,0:0:0:0:
64,192,55023,1,0,0:0:0:0:
448,192,55181,1,0,0:0:0:0:
320,192,55181,1,2,0:0:0:0:
192,192,55339,1,2,0:0:0:0:
64,192,55339,1,0,0:0:0:0:
448,192,55497,1,0,0:0:0:0:
320,192,55497,1,2,0:0:0:0:
192,192,55655,1,2,0:0:0:0:
64,192,55655,1,0,0:0:0:0:
448,192,55813,1,0,0:0:0:0:
320,192,55813,1,2,0:0:0:0:
192,192,55970,1,8,0:0:0:0:
64,192,55970,1,0,0:0:0:0:
448,192,55970,1,0,0:0:0:0:
192,192,56602,1,8,0:0:0:0:
64,192,56602,1,0,0:0:0:0:
448,192,56681,1,2,0:0:0:0:
320,192,56681,1,0,0:0:0:0:
64,192,56760,1,0,0:0:0:0:
192,192,56760,1,2,0:0:0:0:
448,192,56839,1,2,0:0:0:0:
320,192,56839,1,0,0:0:0:0:
64,192,56918,1,8,0:0:0:0:
448,192,56918,128,0,57234:0:0:0:0:
192,192,56918,1,0,0:0:0:0:
64,192,57234,128,2,58497:0:0:0:0:
192,192,57234,1,0,0:0:0:30:Finish.wav
320,192,57234,1,0,0:0:0:0:
448,192,57549,1,0,0:0:0:0:
192,192,57549,1,0,0:0:0:0:
320,192,57549,1,8,0:0:0:0:
448,192,57707,1,0,0:0:0:0:
192,192,57865,1,0,0:0:0:0:
320,192,57865,1,2,0:0:0:0:
448,192,58023,1,2,0:0:0:0:
192,192,58023,1,0,0:0:0:0:
320,192,58181,1,8,0:0:0:0:
192,192,58181,1,0,0:0:0:0:
448,192,58181,1,0,0:0:0:0:
320,192,58497,128,0,59760:0:0:0:0:
448,192,58497,1,2,0:0:0:0:
64,192,58813,1,0,0:0:0:0:
448,192,58813,1,0,0:0:0:0:
192,192,58813,1,8,0:0:0:0:
448,192,58970,1,0,0:0:0:0:
64,192,59128,1,0,0:0:0:0:
192,192,59128,1,2,0:0:0:0:
448,192,59286,1,0,0:0:0:0:
192,192,59286,1,2,0:0:0:0:
192,192,59444,1,8,0:0:0:0:
64,192,59444,1,0,0:0:0:0:
448,192,59444,1,0,0:0:0:0:
192,192,59760,128,0,61023:0:0:0:0:
448,192,59760,1,2,0:0:0:0:
448,192,60076,1,0,0:0:0:0:
320,192,60076,1,8,0:0:0:0:
64,192,60076,1,0,0:0:0:0:
64,192,60234,1,0,0:0:0:0:
448,192,60392,1,0,0:0:0:0:
320,192,60392,1,2,0:0:0:0:
320,192,60549,1,2,0:0:0:0:
64,192,60549,1,0,0:0:0:0:
448,192,60707,1,0,0:0:0:0:
64,192,60707,1,0,0:0:0:0:
320,192,60707,1,8,0:0:0:0:
448,192,61023,128,0,62286:0:0:0:0:
320,192,61023,1,2,0:0:0:0:
192,192,61339,1,8,0:0:0:0:
64,192,61339,1,0,0:0:0:0:
320,192,61339,1,0,0:0:0:0:
320,192,61497,1,0,0:0:0:0:
192,192,61655,1,2,0:0:0:0:
64,192,61655,1,0,0:0:0:0:
192,192,61813,1,2,0:0:0:0:
320,192,61813,1,0,0:0:0:0:
64,192,61970,1,0,0:0:0:0:
192,192,61970,1,8,0:0:0:0:
320,192,61970,1,0,0:0:0:0:
192,192,62286,128,0,63549:0:0:0:0:
320,192,62286,1,2,0:0:0:0:
448,192,62602,1,0,0:0:0:0:
320,192,62602,1,8,0:0:0:0:
64,192,62602,1,0,0:0:0:0:
64,192,62760,1,0,0:0:0:0:
448,192,62918,1,0,0:0:0:0:
320,192,62918,1,2,0:0:0:0:
320,192,63076,1,2,0:0:0:0:
64,192,63076,1,0,0:0:0:0:
448,192,63234,1,0,0:0:0:0:
320,192,63234,1,8,0:0:0:0:
64,192,63234,1,0,0:0:0:0:
320,192,63549,128,0,64813:0:0:0:0:
448,192,63549,1,2,0:0:0:0:
192,192,63865,1,8,0:0:0:0:
64,192,63865,1,0,0:0:0:0:
448,192,63865,1,0,0:0:0:0:
64,192,64023,1,0,0:0:0:0:
192,192,64181,1,2,0:0:0:0:
448,192,64181,1,0,0:0:0:0:
64,192,64339,1,2,0:0:0:0:
192,192,64339,1,0,0:0:0:0:
192,192,64497,1,8,0:0:0:0:
64,192,64497,1,0,0:0:0:0:
448,192,64497,1,0,0:0:0:0:
64,192,64813,128,0,66076:0:0:0:0:
448,192,64813,1,2,0:0:0:0:
448,192,65128,1,0,0:0:0:0:
320,192,65128,1,8,0:0:0:0:
192,192,65128,1,0,0:0:0:0:
448,192,65286,1,0,0:0:0:0:
320,192,65444,1,2,0:0:0:0:
192,192,65444,1,0,0:0:0:0:
448,192,65602,1,0,0:0:0:0:
320,192,65602,1,2,0:0:0:0:
192,192,65760,1,0,0:0:0:0:
320,192,65760,1,8,0:0:0:0:
448,192,65760,1,0,0:0:0:0:
448,192,66076,1,0,0:0:0:0:
320,192,66076,1,8,0:0:0:0:
192,192,66076,1,0,0:0:0:0:
192,192,66234,1,2,0:0:0:0:
64,192,66234,1,0,0:0:0:0:
192,192,66549,1,0,0:0:0:0:
448,192,66549,1,0,0:0:0:0:
64,192,66549,1,8,0:0:0:0:
320,192,66707,1,4,0:0:0:0:
320,192,66865,1,0,0:0:0:0:
192,192,66865,1,2,0:0:0:0:
192,192,67023,1,8,0:0:0:0:
64,192,67023,1,0,0:0:0:0:
448,192,67023,1,0,0:0:0:0:
448,192,67339,1,2,0:0:0:0:
64,192,67339,1,0,0:0:0:0:
320,192,67339,1,0,0:0:0:0:
192,192,67655,1,8,0:0:0:0:
64,192,67655,1,0,0:0:0:0:
320,192,67655,1,0,0:0:0:0:
320,192,67813,1,0,0:0:0:0:
192,192,67970,1,2,0:0:0:0:
448,192,67970,1,0,0:0:0:0:
320,192,68128,1,2,0:0:0:0:
192,192,68128,1,0,0:0:0:0:
448,192,68286,1,0,0:0:0:0:
64,192,68286,1,0,0:0:0:0:
192,192,68286,1,8,0:0:0:0:
320,192,68602,1,2,0:0:0:0:
192,192,68602,1,0,0:0:0:0:
64,192,68760,1,0,0:0:0:0:
320,192,68760,1,2,0:0:0:0:
64,192,68918,1,8,0:0:0:0:
448,192,68918,1,0,0:0:0:0:
192,192,68918,1,0,0:0:0:0:
64,192,69234,1,0,0:0:0:0:
448,192,69234,1,2,0:0:0:0:
320,192,69392,1,2,0:0:0:0:
192,192,69392,1,0,0:0:0:0:
64,192,69549,1,0,0:0:0:0:
448,192,69549,1,0,0:0:0:0:
320,192,69549,1,8,0:0:0:0:
192,192,69865,1,0,0:0:0:0:
320,192,69865,1,2,0:0:0:0:
64,192,70181,1,0,0:0:0:0:
320,192,70181,1,8,0:0:0:0:
448,192,70181,1,0,0:0:0:0:
320,192,70339,1,0,0:0:0:0:
64,192,70497,1,0,0:0:0:0:
192,192,70497,1,2,0:0:0:0:
448,192,70655,1,0,0:0:0:0:
192,192,70655,1,2,0:0:0:0:
64,192,70813,1,0,0:0:0:0:
320,192,70813,1,8,0:0:0:0:
448,192,70813,1,0,0:0:0:0:
320,192,71128,1,2,0:0:0:0:
64,192,71128,1,0,0:0:0:0:
192,192,71286,1,0,0:0:0:0:
448,192,71286,1,2,0:0:0:0:
320,192,71444,1,0,0:0:0:0:
448,192,71444,1,8,0:0:0:0:
64,192,71444,1,0,0:0:0:0:
448,192,71760,1,2,0:0:0:0:
192,192,71760,1,0,0:0:0:0:
320,192,71918,1,2,0:0:0:0:
64,192,71918,1,0,0:0:0:0:
192,192,72076,1,0,0:0:0:0:
64,192,72076,1,0,0:0:0:0:
448,192,72076,1,8,0:0:0:0:
320,192,72234,1,2,0:0:0:0:
192,192,72313,1,2,0:0:0:0:
448,192,72392,1,0,0:0:0:30:Finish.wav
64,192,72392,1,8,0:0:0:0:
320,192,72392,1,0,0:0:0:0:
64,192,72707,1,0,0:0:0:0:
448,192,72707,1,0,0:0:0:0:
192,192,72707,1,8,0:0:0:0:
320,192,73023,1,0,0:0:0:0:
192,192,73181,1,2,0:0:0:0:
448,192,73181,1,0,0:0:0:0:
320,192,73339,1,8,0:0:0:0:
448,192,73339,1,0,0:0:0:0:
64,192,73339,1,0,0:0:0:0:
64,192,73655,1,2,0:0:0:0:
320,192,73655,1,0,0:0:0:0:
64,192,73813,1,0,0:0:0:0:
448,192,73970,1,0,0:0:0:0:
320,192,73970,1,0,0:0:0:0:
192,192,73970,1,8,0:0:0:0:
192,192,74128,1,0,0:0:0:0:
64,192,74286,1,4,0:0:0:0:
320,192,74286,1,2,0:0:0:0:
192,192,74444,1,2,0:0:0:0:
448,192,74444,1,0,0:0:0:0:
320,192,74602,1,0,0:0:0:0:
64,192,74602,1,0,0:0:0:0:
192,192,74602,1,8,0:0:0:0:
448,192,74760,128,2,74918:0:0:0:0:
64,192,74918,1,0,0:0:0:0:
192,192,74918,1,0,0:0:0:0:
320,192,74918,1,8,0:0:0:0:
448,192,75076,1,0,0:0:0:0:
320,192,75234,128,2,75392:0:0:0:0:
64,192,75234,1,0,0:0:0:0:
192,192,75392,1,8,0:0:0:0:
64,192,75392,1,0,0:0:0:0:
448,192,75392,1,0,0:0:0:0:
320,192,75549,1,0,0:0:0:0:
448,192,75707,1,0,0:0:0:0:
192,192,75707,128,2,75865:0:0:0:0:
320,192,75865,1,8,0:0:0:0:
448,192,75865,1,0,0:0:0:0:
64,192,75865,1,0,0:0:0:0:
192,192,76023,1,0,0:0:0:0:
320,192,76181,1,0,0:0:0:0:
64,192,76181,1,8,0:0:0:0:
448,192,76181,1,0,0:0:0:0:
64,192,76339,1,0,0:0:0:0:
448,192,76497,1,0,0:0:0:0:
192,192,76497,1,8,0:0:0:0:
320,192,76497,1,0,0:0:0:0:
192,192,76655,1,2,0:0:0:0:
64,192,76813,1,0,0:0:0:0:
320,192,76813,1,8,0:0:0:0:
448,192,76813,1,0,0:0:0:0:
64,192,76970,1,0,0:0:0:0:
192,192,76970,1,2,0:0:0:0:
320,192,77049,1,0,0:0:0:0:
448,192,77128,1,0,0:0:0:0:
192,192,77128,1,8,0:0:0:0:
64,192,77128,128,0,77444:0:0:0:0:
448,192,77444,128,0,78707:0:0:0:0:
192,192,77444,1,0,0:0:0:0:
320,192,77444,1,2,0:0:0:0:
64,192,77760,1,0,0:0:0:0:
320,192,77760,1,0,0:0:0:0:
192,192,77760,1,8,0:0:0:0:
64,192,77918,1,0,0:0:0:0:
320,192,78076,1,0,0:0:0:0:
192,192,78076,1,2,0:0:0:0:
64,192,78234,1,2,0:0:0:0:
320,192,78234,1,0,0:0:0:0:
192,192,78392,1,8,0:0:0:0:
320,192,78392,1,0,0:0:0:0:
64,192,78392,1,0,0:0:0:0:
192,192,78707,128,0,79970:0:0:0:0:
64,192,78707,1,2,0:0:0:0:
448,192,79023,1,0,0:0:0:0:
64,192,79023,1,0,0:0:0:0:
320,192,79023,1,8,0:0:0:0:
448,192,79181,1,0,0:0:0:0:
64,192,79339,1,0,0:0:0:0:
320,192,79339,1,2,0:0:0:0:
320,192,79497,1,2,0:0:0:0:
448,192,79497,1,0,0:0:0:0:
320,192,79655,1,8,0:0:0:0:
448,192,79655,1,0,0:0:0:0:
64,192,79655,1,0,0:0:0:0:
320,192,79970,128,0,81234:0:0:0:0:
448,192,79970,1,2,0:0:0:0:
64,192,80286,1,0,0:0:0:0:
192,192,80286,1,0,0:0:0:0:
448,192,80286,1,8,0:0:0:0:
448,192,80444,1,0,0:0:0:0:
64,192,80602,1,0,0:0:0:0:
192,192,80602,1,2,0:0:0:0:
192,192,80760,1,2,0:0:0:0:
448,192,80760,1,0,0:0:0:0:
64,192,80918,1,0,0:0:0:0:
448,192,80918,1,0,0:0:0:0:
192,192,80918,1,8,0:0:0:0:
64,192,81234,128,0,82497:0:0:0:0:
192,192,81234,1,2,0:0:0:0:
320,192,81549,1,8,0:0:0:0:
448,192,81549,1,0,0:0:0:0:
192,192,81549,1,0,0:0:0:0:
192,192,81707,1,0,0:0:0:0:
320,192,81865,1,2,0:0:0:0:
448,192,81865,1,0,0:0:0:0:
320,192,82023,1,2,0:0:0:0:
192,192,82023,1,0,0:0:0:0:
448,192,82181,1,0,0:0:0:0:
320,192,82181,1,8,0:0:0:0:
192,192,82181,1,0,0:0:0:0:
320,192,82497,128,0,83760:0:0:0:0:
448,192,82497,1,2,0:0:0:0:
192,192,82813,1,8,0:0:0:0:
448,192,82813,1,0,0:0:0:0:
64,192,82813,1,0,0:0:0:0:
448,192,82970,1,0,0:0:0:0:
64,192,83128,1,0,0:0:0:0:
192,192,83128,1,2,0:0:0:0:
192,192,83286,1,2,0:0:0:0:
448,192,83286,1,0,0:0:0:0:
64,192,83444,1,0,0:0:0:0:
192,192,83444,1,8,0:0:0:0:
448,192,83444,1,0,0:0:0:0:
192,192,83760,128,0,85023:0:0:0:0:
64,192,83760,1,2,0:0:0:0:
320,192,84076,1,8,0:0:0:0:
448,192,84076,1,0,0:0:0:0:
64,192,84076,1,0,0:0:0:0:
448,192,84234,1,0,0:0:0:0:
320,192,84392,1,2,0:0:0:0:
64,192,84392,1,0,0:0:0:0:
448,192,84549,1,2,0:0:0:0:
320,192,84549,1,0,0:0:0:0:
320,192,84707,1,8,0:0:0:0:
448,192,84707,1,0,0:0:0:0:
64,192,84707,1,0,0:0:0:0:
448,192,85023,128,0,86286:0:0:0:0:
320,192,85023,1,2,0:0:0:0:
320,192,85339,1,0,0:0:0:0:
64,192,85339,1,0,0:0:0:0:
192,192,85339,1,8,0:0:0:0:
64,192,85497,1,0,0:0:0:0:
192,192,85655,1,2,0:0:0:0:
320,192,85655,1,0,0:0:0:0:
64,192,85813,1,0,0:0:0:0:
192,192,85813,1,2,0:0:0:0:
320,192,85970,1,0,0:0:0:0:
192,192,85970,1,8,0:0:0:0:
64,192,85970,1,0,0:0:0:0:
64,192,86286,1,0,0:0:0:0:
192,192,86286,1,8,0:0:0:0:
320,192,86286,1,0,0:0:0:0:
320,192,86444,1,2,0:0:0:0:
448,192,86444,1,0,0:0:0:0:
192,192,86602,1,0,0:0:0:0:
448,192,86760,1,0,0:0:0:0:
64,192,86760,1,0,0:0:0:0:
320,192,86760,1,8,0:0:0:0:
192,192,86918,1,4,0:0:0:0:
192,192,87076,1,2,0:0:0:0:
448,192,87234,1,0,0:0:0:0:
64,192,87234,1,0,0:0:0:0:
320,192,87234,1,8,0:0:0:0:
320,192,87549,1,8,0:0:0:0:
448,192,87549,128,0,87865:0:0:0:0:
192,192,87549,1,0,0:0:0:0:
64,192,87865,1,2,0:0:0:0:
192,192,87865,1,0,0:0:0:0:
320,192,88023,1,0,0:0:0:0:
192,192,88023,1,2,0:0:0:0:
448,192,88181,1,0,0:0:0:0:
320,192,88181,1,2,0:0:0:0:
192,192,88339,1,2,0:0:0:0:
320,192,88339,1,0,0:0:0:0:
192,192,88497,1,8,0:0:0:0:
64,192,88497,1,0,0:0:0:0:
448,192,88497,1,0,0:0:0:0:
320,192,88813,1,0,0:0:0:0:
64,192,88970,1,0,0:0:0:0:
320,192,88970,1,2,0:0:0:0:
448,192,89128,1,0,0:0:0:0:
320,192,89128,1,8,0:0:0:0:
64,192,89128,1,0,0:0:0:0:
192,192,89286,1,0,0:0:0:0:
448,192,89444,1,0,0:0:0:0:
192,192,89444,1,2,0:0:0:0:
320,192,89602,1,2,0:0:0:0:
64,192,89602,1,0,0:0:0:0:
448,192,89760,1,0,0:0:0:0:
320,192,89760,1,8,0:0:0:0:
64,192,89760,1,0,0:0:0:0:
192,192,90076,1,8,0:0:0:0:
64,192,90076,1,0,0:0:0:0:
448,192,90076,1,0,0:0:0:0:
320,192,90234,1,2,0:0:0:0:
192,192,90234,1,0,0:0:0:0:
448,192,90392,1,2,0:0:0:0:
64,192,90392,1,0,0:0:0:0:
192,192,90549,1,0,0:0:0:0:
320,192,90549,1,2,0:0:0:0:
64,192,90707,1,0,0:0:0:0:
448,192,90707,1,0,0:0:0:0:
320,192,90707,1,8,0:0:0:0:
192,192,90865,1,2,0:0:0:0:
64,192,91023,1,0,0:0:0:0:
192,192,91023,1,8,0:0:0:0:
448,192,91023,1,0,0:0:0:30:Finish.wav
320,192,91339,1,2,0:0:0:0:
192,192,91339,1,0,0:0:0:0:
64,192,91497,1,0,0:0:0:0:
448,192,91497,1,2,0:0:0:0:
192,192,91655,1,0,0:0:0:0:
320,192,91655,1,8,0:0:0:0:
448,192,91655,1,0,0:0:0:0:
192,192,91813,1,0,0:0:0:0:
448,192,91970,1,2,0:0:0:0:
64,192,91970,1,0,0:0:0:0:
320,192,92128,1,2,0:0:0:0:
64,192,92128,1,0,0:0:0:0:
448,192,92286,1,8,0:0:0:0:
192,192,92286,1,0,0:0:0:0:
320,192,92286,128,0,92602:0:0:0:0:
192,192,92602,1,2,0:0:0:0:
64,192,92602,1,0,0:0:0:0:
448,192,92918,1,0,0:0:0:0:
320,192,92918,1,8,0:0:0:0:
64,192,92918,1,0,0:0:0:0:
192,192,93076,1,0,0:0:0:0:
192,192,93234,1,4,0:0:0:0:
448,192,93392,1,2,0:0:0:0:
64,192,93392,1,0,0:0:0:0:
192,192,93549,1,8,0:0:0:0:
64,192,93549,1,0,0:0:0:0:
448,192,93549,1,0,0:0:0:0:
192,192,93865,1,0,0:0:0:0:
320,192,93865,1,2,0:0:0:0:
448,192,94181,1,0,0:0:0:0:
64,192,94181,1,0,0:0:0:0:
320,192,94181,1,8,0:0:0:0:
320,192,94339,1,0,0:0:0:0:
192,192,94497,1,4,0:0:0:0:
448,192,94655,1,2,0:0:0:0:
192,192,94655,1,0,0:0:0:0:
64,192,94813,1,0,0:0:0:0:
320,192,94813,1,8,0:0:0:0:
448,192,94813,1,0,0:0:0:0:
64,192,94970,1,0,0:0:0:0:
192,192,94970,1,2,0:0:0:0:
320,192,95128,1,8,0:0:0:0:
448,192,95128,1,0,0:0:0:0:
192,192,95128,1,0,0:0:0:0:
192,192,95444,1,2,0:0:0:0:
64,192,95444,1,0,0:0:0:0:
448,192,95602,1,0,0:0:0:0:
320,192,95602,1,8,0:0:0:0:
64,192,95602,1,0,0:0:0:0:
448,192,95760,1,4,0:0:0:0:
320,192,95918,1,0,0:0:0:0:
192,192,95918,1,2,0:0:0:0:
448,192,96076,1,0,0:0:0:0:
192,192,96076,1,8,0:0:0:0:
64,192,96076,1,0,0:0:0:0:
448,192,96392,1,0,0:0:0:0:
320,192,96392,1,8,0:0:0:0:
192,192,96392,1,0,0:0:0:0:
64,192,96549,1,0,0:0:0:0:
448,192,96549,1,2,0:0:0:0:
64,192,96707,1,0,0:0:0:0:
192,192,96707,1,8,0:0:0:0:
320,192,96707,1,0,0:0:0:0:
320,192,96865,1,0,0:0:0:0:
192,192,96865,1,2,0:0:0:0:
448,192,97023,1,8,0:0:0:0:
64,192,97023,1,4,0:0:0:0:
192,192,97076,1,0,0:0:0:0:
320,192,97128,1,0,0:0:0:0:
64,192,97181,1,0,0:0:0:0:
448,192,97181,1,2,0:0:0:0:
192,192,97234,1,0,0:0:0:0:
320,192,97286,1,0,0:0:0:0:
64,192,97339,1,8,0:0:0:0:
448,192,97339,1,0,0:0:0:30:Finish.wav
192,192,97339,1,0,0:0:0:0:
448,192,97655,128,0,97970:0:0:0:0:
320,192,97655,1,2,0:0:0:0:
192,192,97655,1,0,0:0:0:0:
192,192,97970,1,8,0:0:0:0:
64,192,97970,1,0,0:0:0:0:
320,192,97970,128,0,98286:0:0:0:0:
64,192,98286,1,2,0:0:0:0:
192,192,98286,128,0,98602:0:0:0:0:
320,192,98444,1,2,0:0:0:0:
448,192,98444,1,0,0:0:0:0:
448,192,98602,1,0,0:0:0:0:
320,192,98602,1,8,0:0:0:0:
64,192,98602,1,0,0:0:0:0:
64,192,98760,128,0,99234:0:0:0:0:
448,192,98760,1,8,0:0:0:0:
192,192,98760,1,0,0:0:0:0:
448,192,99076,1,2,0:0:0:0:
320,192,99076,1,0,0:0:0:0:
448,192,99234,1,0,0:0:0:0:
320,192,99234,1,8,0:0:0:0:
192,192,99234,128,0,99549:0:0:0:0:
448,192,99549,1,8,0:0:0:0:
64,192,99549,1,0,0:0:0:0:
320,192,99549,128,0,99865:0:0:0:0:
64,192,99786,1,2,0:0:0:0:
192,192,99786,1,0,0:0:0:0:
448,192,99865,1,8,0:0:0:0:
64,192,99865,1,0,0:0:0:0:
192,192,99865,1,0,0:0:0:0:
448,192,100181,128,0,101286:0:0:0:0:
320,192,100181,1,8,0:0:0:0:
192,192,100181,1,0,0:0:0:0:
320,192,100497,1,2,0:0:0:0:
192,192,100497,1,0,0:0:0:0:
320,192,100655,1,0,0:0:0:0:
192,192,100655,1,8,0:0:0:0:
64,192,100655,1,0,0:0:0:0:
64,192,100813,1,0,0:0:0:0:
320,192,100970,128,2,101128:0:0:0:0:
192,192,101128,128,8,101286:0:0:0:0:
64,192,101128,1,0,0:0:0:0:
64,192,101286,128,0,102076:0:0:0:0:
448,192,101444,1,0,0:0:0:0:
320,192,101444,1,8,0:0:0:0:
192,192,101444,1,0,0:0:0:0:
192,192,101602,1,2,0:0:0:0:
448,192,101602,1,0,0:0:0:0:
320,192,101760,1,0,0:0:0:0:
192,192,101760,1,8,0:0:0:0:
448,192,101760,1,0,0:0:0:0:
320,192,101918,1,2,0:0:0:0:
448,192,102076,1,8,0:0:0:0:
320,192,102128,1,0,0:0:0:0:
192,192,102181,1,0,0:0:0:0:
64,192,102234,1,0,0:0:0:0:
448,192,102234,1,2,0:0:0:0:
192,192,102313,1,2,0:0:0:0:
320,192,102313,1,0,0:0:0:0:
64,192,102392,1,8,0:0:0:0:
448,192,102392,1,0,0:0:0:30:Finish.wav
320,192,102392,1,0,0:0:0:0:
448,192,102707,128,0,103023:0:0:0:0:
192,192,102707,1,2,0:0:0:0:
320,192,102865,128,0,103023:0:0:0:0:
64,192,103023,128,0,103181:0:0:0:0:
192,192,103023,1,8,0:0:0:0:
192,192,103181,128,0,103339:0:0:0:0:
64,192,103339,128,0,103655:0:0:0:0:
448,192,103339,1,2,0:0:0:0:
448,192,103497,128,0,103655:0:0:0:0:
320,192,103497,1,2,0:0:0:0:
192,192,103655,128,0,103813:0:0:0:0:
320,192,103655,1,8,0:0:0:0:
320,192,103813,128,0,103970:0:0:0:0:
192,192,103970,1,2,0:0:0:0:
64,192,103970,128,0,104286:0:0:0:0:
448,192,103970,1,0,0:0:0:0:
320,192,104128,128,0,104286:0:0:0:0:
448,192,104128,1,2,0:0:0:0:
448,192,104286,128,0,104444:0:0:0:0:
192,192,104286,1,8,0:0:0:0:
192,192,104444,128,0,104602:0:0:0:0:
448,192,104602,1,0,0:0:0:0:
64,192,104602,1,8,0:0:0:0:
320,192,104681,1,2,0:0:0:0:
192,192,104760,1,0,0:0:0:0:
64,192,104760,1,2,0:0:0:0:
448,192,104839,1,2,0:0:0:0:
320,192,104839,1,0,0:0:0:0:
64,192,104918,1,0,0:0:0:0:
192,192,104918,1,8,0:0:0:0:
448,192,104918,1,0,0:0:0:30:Finish.wav
64,192,105234,1,0,0:0:0:0:
448,192,105234,128,0,105392:0:0:0:0:
192,192,105234,1,8,0:0:0:0:
320,192,105392,128,0,105549:0:0:0:0:
192,192,105470,1,0,0:0:0:0:
64,192,105549,128,0,105707:0:0:0:0:
448,192,105549,1,2,0:0:0:0:
192,192,105707,128,0,105865:0:0:0:0:
320,192,105786,1,2,0:0:0:0:
64,192,105865,1,0,0:0:0:0:
448,192,105865,1,8,0:0:0:0:
448,192,106023,128,0,106181:0:0:0:0:
192,192,106023,1,2,0:0:0:0:
320,192,106181,1,2,0:0:0:0:
64,192,106181,1,0,0:0:0:0:
192,192,106339,128,0,107128:0:0:0:0:
64,192,106339,1,0,0:0:0:0:
448,192,106339,1,8,0:0:0:0:
64,192,106813,1,4,0:0:0:0:
448,192,107128,1,0,0:0:0:0:
320,192,107128,1,8,0:0:0:0:
64,192,107128,1,0,0:0:0:0:
448,192,107286,1,0,0:0:0:0:
64,192,107365,1,0,0:0:0:0:
192,192,107365,1,8,0:0:0:0:
448,192,107444,1,8,0:0:0:0:
320,192,107444,1,0,0:0:0:0:
192,192,107523,1,8,0:0:0:0:
64,192,107523,1,0,0:0:0:0:
320,192,107602,1,0,0:0:0:0:
448,192,107602,1,8,0:0:0:0:
192,192,107681,1,8,0:0:0:0:
64,192,107681,1,0,0:0:0:0:
448,192,107760,1,2,0:0:0:0:
320,192,107760,1,0,0:0:0:0:
64,192,107760,1,0,0:0:0:0:
192,192,108076,1,0,0:0:0:0:
64,192,108076,1,0,0:0:0:0:
448,192,108076,1,8,0:0:0:0:
320,192,108234,128,0,108392:0:0:0:0:
448,192,108392,1,0,0:0:0:0:
64,192,108549,128,0,108707:0:0:0:0:
192,192,108549,1,2,0:0:0:0:
448,192,108707,1,0,0:0:0:0:
320,192,108707,1,8,0:0:0:0:
192,192,108707,1,0,0:0:0:0:
320,192,108865,128,0,109023:0:0:0:0:
64,192,109023,1,2,0:0:0:0:
192,192,109023,1,0,0:0:0:0:
448,192,109181,1,0,0:0:0:0:
64,192,109181,1,2,0:0:0:0:
320,192,109339,1,0,0:0:0:0:
192,192,109339,1,8,0:0:0:0:
448,192,109339,1,0,0:0:0:0:
192,192,109497,1,0,0:0:0:0:
320,192,109655,1,0,0:0:0:0:
64,192,109813,1,0,0:0:0:0:
320,192,109813,1,2,0:0:0:0:
64,192,109970,1,0,0:0:0:0:
448,192,109970,1,8,0:0:0:0:
192,192,109970,1,0,0:0:0:0:
448,192,110128,1,0,0:0:0:0:
192,192,110286,128,0,110602:0:0:0:0:
64,192,110286,1,2,0:0:0:0:
448,192,110444,1,0,0:0:0:0:
448,192,110602,1,8,0:0:0:0:
64,192,110602,1,0,0:0:0:0:
320,192,110602,1,0,0:0:0:0:
320,192,110760,128,0,110918:0:0:0:0:
448,192,110918,1,0,0:0:0:0:
64,192,111076,1,2,0:0:0:0:
192,192,111076,128,0,111234:0:0:0:0:
448,192,111234,1,8,0:0:0:0:
64,192,111234,1,0,0:0:0:0:
320,192,111234,1,0,0:0:0:0:
320,192,111392,128,0,111549:0:0:0:0:
192,192,111549,1,2,0:0:0:0:
64,192,111549,1,0,0:0:0:0:
448,192,111707,1,0,0:0:0:0:
320,192,111707,1,2,0:0:0:0:
192,192,111865,1,8,0:0:0:0:
64,192,111865,1,0,0:0:0:0:
448,192,111865,1,0,0:0:0:0:
192,192,112023,1,0,0:0:0:0:
448,192,112181,1,0,0:0:0:0:
320,192,112181,1,2,0:0:0:0:
64,192,112339,1,0,0:0:0:0:
192,192,112339,1,2,0:0:0:0:
448,192,112497,1,0,0:0:0:0:
64,192,112497,1,0,0:0:0:0:
320,192,112497,1,8,0:0:0:0:
64,192,112813,1,0,0:0:0:0:
192,192,112813,1,2,0:0:0:0:
448,192,112970,1,0,0:0:0:0:
320,192,112970,1,2,0:0:0:0:
448,192,113128,1,0,0:0:0:0:
64,192,113128,128,0,113444:0:0:0:0:
320,192,113128,1,8,0:0:0:0:
192,192,113286,128,0,113444:0:0:0:0:
448,192,113444,1,2,0:0:0:0:
320,192,113602,1,2,0:0:0:0:
64,192,113602,1,0,0:0:0:0:
448,192,113760,1,0,0:0:0:0:
320,192,113760,1,8,0:0:0:0:
192,192,113760,128,0,113918:0:0:0:0:
320,192,114076,1,2,0:0:0:0:
64,192,114076,1,0,0:0:0:0:
448,192,114234,1,2,0:0:0:0:
192,192,114234,1,0,0:0:0:0:
192,192,114392,1,0,0:0:0:0:
448,192,114392,1,8,0:0:0:0:
64,192,114392,128,0,114707:0:0:0:0:
320,192,114549,128,0,114707:0:0:0:0:
448,192,114707,128,0,114865:0:0:0:0:
192,192,114865,1,2,0:0:0:0:
64,192,114865,1,0,0:0:0:0:
448,192,115023,1,0,0:0:0:0:
320,192,115023,1,8,0:0:0:0:
64,192,115023,1,0,0:0:0:0:
192,192,115339,1,8,0:0:0:0:
64,192,115339,1,0,0:0:0:0:
448,192,115339,1,0,0:0:0:30:Finish.wav
320,192,115655,1,2,0:0:0:0:
448,192,115655,1,0,0:0:0:0:
192,192,115813,1,0,0:0:0:0:
64,192,115813,1,0,0:0:0:0:
448,192,115813,1,8,0:0:0:0:
448,192,115970,1,0,0:0:0:0:
64,192,116128,1,0,0:0:0:0:
192,192,116128,1,2,0:0:0:0:
64,192,116286,1,0,0:0:0:0:
448,192,116286,1,0,0:0:0:0:
320,192,116286,1,8,0:0:0:0:
64,192,116602,1,0,0:0:0:30:Finish.wav
192,192,116602,1,0,0:0:0:0:
448,192,116602,1,0,0:0:0:0:
448,192,116918,1,0,0:0:0:0:
320,192,116918,1,2,0:0:0:0:
320,192,117076,1,2,0:0:0:0:
448,192,117234,1,0,0:0:0:30:Finish.wav
64,192,117234,1,8,0:0:0:0:
192,192,117234,1,0,0:0:0:0:
320,192,117549,1,2,0:0:0:0:
64,192,117707,1,0,0:0:0:0:
320,192,117707,1,2,0:0:0:0:
448,192,117865,1,8,0:0:0:0:
192,192,117865,1,0,0:0:0:30:Finish.wav
64,192,117865,1,0,0:0:0:0:
192,192,118181,128,0,118813:0:0:0:0:
448,192,118181,1,0,0:0:0:0:
64,192,118497,128,0,118813:0:0:0:0:
320,192,118497,1,0,0:0:0:0:
448,192,118813,128,0,119049:0:0:0:0:
64,192,119128,128,0,119444:0:0:0:0:
320,192,119444,128,0,120076:0:0:0:0:
448,192,119444,1,0,0:0:0:0:
448,192,119760,128,0,120076:0:0:0:0:
192,192,120076,1,0,0:0:0:0:
448,192,120392,1,2,0:0:0:0:
64,192,120392,128,0,120707:0:0:0:0:
320,192,120707,1,8,0:0:0:0:
192,192,120707,1,0,0:0:0:0:
192,192,121023,1,2,0:0:0:0:
448,192,121023,128,0,121339:0:0:0:0:
320,192,121339,1,8,0:0:0:0:
64,192,121339,1,0,0:0:0:0:
448,192,121655,1,2,0:0:0:0:
192,192,121655,128,0,121970:0:0:0:0:
320,192,121970,1,8,0:0:0:0:
64,192,121970,1,0,0:0:0:0:
448,192,122286,1,0,0:0:0:0:
64,192,122286,1,2,0:0:0:0:
192,192,122444,1,2,0:0:0:0:
64,192,122602,1,0,0:0:0:30:Finish.wav
448,192,122602,1,0,0:0:0:0:
320,192,122602,1,8,0:0:0:0:
448,192,122918,1,0,0:0:0:0:
64,192,122918,1,0,0:0:0:0:
192,192,122918,1,0,0:0:0:30:Finish.wav
320,192,123234,1,2,0:0:0:0:
64,192,123234,1,0,0:0:0:0:
192,192,123392,1,2,0:0:0:0:
448,192,123392,1,0,0:0:0:0:
192,192,123549,1,8,0:0:0:0:
64,192,123549,1,0,0:0:0:0:
320,192,123549,1,0,0:0:0:0:
448,192,123707,128,0,123865:0:0:0:0:
320,192,123865,1,2,0:0:0:0:
64,192,123865,1,0,0:0:0:0:
192,192,124023,128,0,124339:0:0:0:0:
448,192,124023,1,2,0:0:0:0:
64,192,124181,128,0,124339:0:0:0:0:
320,192,124181,1,2,0:0:0:0:
448,192,124339,128,0,124497:0:0:0:0:
320,192,124339,1,8,0:0:0:0:
64,192,124497,1,2,0:0:0:0:
192,192,124497,1,0,0:0:0:0:
448,192,124655,1,0,0:0:0:0:
320,192,124655,1,2,0:0:0:0:
192,192,124813,1,8,0:0:0:0:
64,192,124813,1,0,0:0:0:0:
448,192,124813,1,0,0:0:0:0:
320,192,125128,1,0,0:0:0:0:
320,192,125286,1,0,0:0:0:0:
192,192,125444,1,8,0:0:0:0:
64,192,125444,1,0,0:0:0:0:
448,192,125444,1,0,0:0:0:0:
64,192,125602,1,2,0:0:0:0:
192,192,125760,1,0,0:0:0:0:
448,192,125918,1,0,0:0:0:0:
192,192,125918,1,2,0:0:0:0:
448,192,126076,1,0,0:0:0:0:
320,192,126234,1,2,0:0:0:0:
192,192,126234,1,0,0:0:0:0:
448,192,126392,1,0,0:0:0:0:
192,192,126392,1,8,0:0:0:0:
64,192,126392,1,0,0:0:0:0:
448,192,126549,1,2,0:0:0:0:
64,192,126549,1,0,0:0:0:0:
320,192,126707,1,2,0:0:0:0:
192,192,126707,1,0,0:0:0:0:
64,192,126865,1,0,0:0:0:0:
448,192,126865,1,2,0:0:0:0:
64,192,127023,1,4,0:0:0:0:
448,192,127023,128,0,127970:0:0:0:0:
192,192,127181,1,2,0:0:0:0:
320,192,127339,128,0,127970:0:0:0:0:
64,192,127339,1,4,0:0:0:0:
192,192,127497,1,2,0:0:0:0:
64,192,127576,1,2,0:0:0:0:
192,192,127655,128,12,127970:0:0:0:0:
64,192,127970,1,8,0:0:0:0:
320,192,128128,1,2,0:0:0:0:
64,192,128128,1,0,0:0:0:0:
64,192,128286,1,0,0:0:0:0:
448,192,128286,1,8,0:0:0:0:
192,192,128286,1,0,0:0:0:0:
192,192,128444,1,0,0:0:0:0:
320,192,128444,1,2,0:0:0:0:
320,192,128602,1,8,0:0:0:0:
448,192,128602,1,0,0:0:0:0:
64,192,128602,1,0,0:0:0:0:
64,192,128760,1,0,0:0:0:0:
192,192,128760,1,2,0:0:0:0:
64,192,128918,1,0,0:0:0:0:
192,192,128918,1,8,0:0:0:0:
448,192,128918,1,0,0:0:0:0:
448,192,129076,1,0,0:0:0:0:
320,192,129076,1,2,0:0:0:0:
320,192,129234,1,8,0:0:0:0:
448,192,129234,1,0,0:0:0:0:
64,192,129234,1,0,0:0:0:0:
192,192,129392,1,2,0:0:0:0:
64,192,129392,1,0,0:0:0:0:
192,192,129549,1,8,0:0:0:0:
64,192,129549,1,0,0:0:0:0:
448,192,129549,1,0,0:0:0:0:
192,192,129707,1,2,0:0:0:0:
448,192,129707,1,0,0:0:0:0:
320,192,129865,1,8,0:0:0:0:
448,192,129865,1,0,0:0:0:0:
64,192,129865,1,0,0:0:0:0:
320,192,130023,1,2,0:0:0:0:
64,192,130023,1,0,0:0:0:0:
192,192,130181,1,8,0:0:0:0:
64,192,130181,1,0,0:0:0:0:
448,192,130181,1,0,0:0:0:0:
192,192,130339,1,0,0:0:0:0:
320,192,130339,1,2,0:0:0:0:
320,192,130497,1,8,0:0:0:0:
448,192,130497,1,0,0:0:0:0:
64,192,130497,1,0,0:0:0:0:
320,192,130655,1,2,0:0:0:0:
64,192,130655,1,0,0:0:0:0:
192,192,130813,1,8,0:0:0:0:
64,192,130813,1,0,0:0:0:0:
448,192,130813,1,0,0:0:0:0:
320,192,130970,1,2,0:0:0:0:
192,192,130970,1,0,0:0:0:0:
320,192,131128,1,8,0:0:0:0:
448,192,131128,1,0,0:0:0:0:
64,192,131128,1,0,0:0:0:0:
192,192,131286,1,2,0:0:0:0:
64,192,131286,1,0,0:0:0:0:
192,192,131444,1,8,0:0:0:0:
64,192,131444,1,0,0:0:0:0:
448,192,131444,1,0,0:0:0:0:
192,192,131602,1,8,0:0:0:0:
320,192,131602,1,0,0:0:0:0:
448,192,131602,1,0,0:0:0:0:
64,192,131760,128,0,132076:0:0:0:0:
320,192,131918,128,0,132076:0:0:0:0:
448,192,132076,128,0,132234:0:0:0:0:
192,192,132234,128,0,132392:0:0:0:0:
64,192,132392,128,0,132707:0:0:0:0:
320,192,132549,128,0,132707:0:0:0:0:
448,192,132707,128,0,132865:0:0:0:0:
192,192,132707,1,4,0:0:0:0:
320,192,132865,128,0,133023:0:0:0:0:
64,192,133023,128,0,134286:0:0:0:0:
192,192,133023,1,2,0:0:0:0:
448,192,133023,1,0,0:0:0:30:Finish.wav
448,192,133339,1,0,0:0:0:0:
320,192,133339,1,8,0:0:0:0:
192,192,133339,1,0,0:0:0:0:
192,192,133497,1,0,0:0:0:0:
448,192,133655,1,0,0:0:0:0:
320,192,133655,1,2,0:0:0:0:
320,192,133813,1,2,0:0:0:0:
192,192,133813,1,0,0:0:0:0:
448,192,133970,1,0,0:0:0:0:
320,192,133970,1,8,0:0:0:0:
192,192,133970,1,0,0:0:0:0:
320,192,134286,128,0,135549:0:0:0:0:
448,192,134286,1,2,0:0:0:0:
192,192,134602,1,0,0:0:0:0:
64,192,134602,1,0,0:0:0:0:
448,192,134602,1,8,0:0:0:0:
64,192,134760,1,0,0:0:0:0:
192,192,134918,1,2,0:0:0:0:
448,192,134918,1,0,0:0:0:0:
192,192,135076,1,2,0:0:0:0:
64,192,135076,1,0,0:0:0:0:
448,192,135234,1,0,0:0:0:0:
64,192,135234,1,0,0:0:0:0:
192,192,135234,1,8,0:0:0:0:
192,192,135549,128,0,136813:0:0:0:0:
448,192,135549,1,2,0:0:0:0:
64,192,135865,1,0,0:0:0:0:
320,192,135865,1,8,0:0:0:0:
448,192,135865,1,0,0:0:0:0:
64,192,136023,1,0,0:0:0:0:
448,192,136181,1,0,0:0:0:0:
320,192,136181,1,2,0:0:0:0:
320,192,136339,1,2,0:0:0:0:
64,192,136339,1,0,0:0:0:0:
448,192,136497,1,0,0:0:0:0:
320,192,136497,1,8,0:0:0:0:
64,192,136497,1,0,0:0:0:0:
448,192,136813,128,0,138076:0:0:0:0:
320,192,136813,1,2,0:0:0:0:
192,192,137128,1,8,0:0:0:0:
64,192,137128,1,0,0:0:0:0:
320,192,137128,1,0,0:0:0:0:
320,192,137286,1,0,0:0:0:0:
64,192,137444,1,2,0:0:0:0:
192,192,137444,1,0,0:0:0:0:
320,192,137602,1,0,0:0:0:0:
64,192,137602,1,2,0:0:0:0:
192,192,137760,1,0,0:0:0:0:
320,192,137760,1,0,0:0:0:0:
64,192,137760,1,8,0:0:0:0:
192,192,138076,128,0,139339:0:0:0:0:
64,192,138076,1,2,0:0:0:0:
448,192,138392,1,0,0:0:0:0:
320,192,138392,1,8,0:0:0:0:
64,192,138392,1,0,0:0:0:0:
64,192,138549,1,0,0:0:0:0:
320,192,138707,1,2,0:0:0:0:
448,192,138707,1,0,0:0:0:0:
64,192,138865,1,0,0:0:0:0:
320,192,138865,1,2,0:0:0:0:
448,192,139023,1,0,0:0:0:0:
64,192,139023,1,0,0:0:0:0:
320,192,139023,1,8,0:0:0:0:
320,192,139339,128,0,140602:0:0:0:0:
448,192,139339,1,2,0:0:0:0:
192,192,139655,1,8,0:0:0:0:
64,192,139655,1,0,0:0:0:0:
448,192,139655,1,0,0:0:0:0:
448,192,139813,1,0,0:0:0:0:
192,192,139970,1,2,0:0:0:0:
64,192,139970,1,0,0:0:0:0:
448,192,140128,1,0,0:0:0:0:
192,192,140128,1,2,0:0:0:0:
64,192,140286,1,0,0:0:0:0:
192,192,140286,1,8,0:0:0:0:
448,192,140286,1,0,0:0:0:0:
64,192,140602,128,0,141865:0:0:0:0:
192,192,140602,1,2,0:0:0:0:
448,192,140918,1,0,0:0:0:0:
320,192,140918,1,8,0:0:0:0:
192,192,140918,1,0,0:0:0:0:
448,192,141076,1,0,0:0:0:0:
320,192,141234,1,2,0:0:0:0:
192,192,141234,1,0,0:0:0:0:
448,192,141392,1,0,0:0:0:0:
320,192,141392,1,2,0:0:0:0:
320,192,141549,1,8,0:0:0:0:
192,192,141549,1,0,0:0:0:0:
448,192,141549,1,0,0:0:0:0:
448,192,141865,1,0,0:0:0:0:
320,192,141865,1,8,0:0:0:0:
192,192,141865,1,0,0:0:0:0:
192,192,142023,1,2,0:0:0:0:
64,192,142023,1,0,0:0:0:0:
448,192,142181,1,0,0:0:0:0:
448,192,142339,1,0,0:0:0:0:
320,192,142339,1,8,0:0:0:0:
64,192,142339,1,0,0:0:0:0:
192,192,142497,1,0,0:0:0:0:
192,192,142655,1,0,0:0:0:0:
320,192,142655,1,2,0:0:0:0:
448,192,142813,1,8,0:0:0:0:
64,192,142813,1,0,0:0:0:0:
320,192,142813,1,0,0:0:0:0:
448,192,143128,1,0,0:0:0:0:
192,192,143128,1,2,0:0:0:0:
64,192,143128,1,0,0:0:0:0:
320,192,143444,1,8,0:0:0:0:
64,192,143444,1,0,0:0:0:0:
448,192,143444,1,0,0:0:0:0:
320,192,143602,1,0,0:0:0:0:
448,192,143760,1,2,0:0:0:0:
64,192,143760,1,0,0:0:0:0:
320,192,143918,1,2,0:0:0:0:
192,192,143918,1,0,0:0:0:0:
64,192,144076,1,0,0:0:0:0:
320,192,144076,1,8,0:0:0:0:
448,192,144076,1,0,0:0:0:0:
192,192,144392,1,2,0:0:0:0:
64,192,144392,1,0,0:0:0:0:
448,192,144549,1,0,0:0:0:0:
320,192,144549,1,2,0:0:0:0:
192,192,144707,1,8,0:0:0:0:
64,192,144707,1,0,0:0:0:0:
448,192,144707,1,0,0:0:0:0:
448,192,145023,1,0,0:0:0:0:
320,192,145023,1,2,0:0:0:0:
320,192,145181,1,2,0:0:0:0:
192,192,145181,1,0,0:0:0:0:
64,192,145339,1,0,0:0:0:0:
448,192,145339,1,0,0:0:0:0:
192,192,145339,1,8,0:0:0:0:
320,192,145655,1,2,0:0:0:0:
64,192,145655,1,0,0:0:0:0:
64,192,145970,1,0,0:0:0:0:
192,192,145970,1,8,0:0:0:0:
448,192,145970,1,0,0:0:0:0:
192,192,146128,1,0,0:0:0:0:
64,192,146286,1,0,0:0:0:0:
320,192,146286,1,2,0:0:0:0:
448,192,146444,1,2,0:0:0:0:
192,192,146444,1,0,0:0:0:0:
320,192,146602,1,0,0:0:0:0:
64,192,146602,1,0,0:0:0:0:
448,192,146602,1,8,0:0:0:0:
448,192,146918,1,0,0:0:0:0:
320,192,146918,1,2,0:0:0:0:
192,192,147076,1,2,0:0:0:0:
64,192,147076,1,0,0:0:0:0:
448,192,147234,1,0,0:0:0:0:
320,192,147234,1,8,0:0:0:0:
64,192,147234,1,0,0:0:0:0:
448,192,147549,1,2,0:0:0:0:
192,192,147549,1,0,0:0:0:0:
320,192,147707,1,2,0:0:0:0:
64,192,147707,1,0,0:0:0:0:
64,192,147865,1,0,0:0:0:0:
192,192,147865,1,0,0:0:0:0:
448,192,147865,1,8,0:0:0:0:
320,192,148023,1,2,0:0:0:0:
192,192,148102,1,2,0:0:0:0:
448,192,148181,1,0,0:0:0:30:Finish.wav
64,192,148181,1,0,0:0:0:0:
320,192,148181,1,8,0:0:0:0:
192,192,148497,1,8,0:0:0:0:
64,192,148497,1,0,0:0:0:0:
448,192,148497,1,0,0:0:0:0:
320,192,148813,1,0,0:0:0:0:
320,192,148970,1,2,0:0:0:0:
192,192,148970,1,0,0:0:0:0:
64,192,149128,1,0,0:0:0:0:
448,192,149128,1,0,0:0:0:0:
192,192,149128,1,8,0:0:0:0:
192,192,149444,1,2,0:0:0:0:
64,192,149444,1,0,0:0:0:0:
320,192,149602,1,0,0:0:0:0:
448,192,149760,1,0,0:0:0:0:
64,192,149760,1,0,0:0:0:0:
320,192,149760,1,8,0:0:0:0:
192,192,149918,1,0,0:0:0:0:
448,192,150076,1,2,0:0:0:0:
192,192,150076,1,0,0:0:0:0:
64,192,150234,1,0,0:0:0:0:
320,192,150234,1,2,0:0:0:0:
448,192,150392,1,8,0:0:0:0:
64,192,150392,1,0,0:0:0:0:
320,192,150392,1,0,0:0:0:0:
192,192,150549,128,0,150707:0:0:0:0:
448,192,150707,1,0,0:0:0:0:
320,192,150707,1,8,0:0:0:0:
64,192,150707,1,0,0:0:0:0:
192,192,150865,1,0,0:0:0:0:
320,192,151023,128,0,151181:0:0:0:0:
64,192,151023,1,2,0:0:0:0:
64,192,151181,1,0,0:0:0:0:
192,192,151181,1,8,0:0:0:0:
448,192,151181,1,0,0:0:0:0:
320,192,151339,1,0,0:0:0:0:
192,192,151497,128,0,151655:0:0:0:0:
448,192,151497,1,2,0:0:0:0:
320,192,151655,1,8,0:0:0:0:
448,192,151655,1,0,0:0:0:0:
64,192,151655,1,0,0:0:0:0:
320,192,151813,1,0,0:0:0:0:
192,192,151970,1,0,0:0:0:0:
64,192,151970,1,8,0:0:0:0:
448,192,151970,1,0,0:0:0:0:
448,192,152128,1,2,0:0:0:0:
64,192,152128,1,0,0:0:0:0:
320,192,152286,1,8,0:0:0:0:
192,192,152286,1,0,0:0:0:0:
64,192,152286,1,0,0:0:0:0:
320,192,152444,1,2,0:0:0:0:
448,192,152602,1,0,0:0:0:0:
320,192,152602,1,8,0:0:0:0:
192,192,152602,1,0,0:0:0:0:
448,192,152760,1,2,0:0:0:0:
64,192,152760,1,0,0:0:0:0:
320,192,152839,1,2,0:0:0:0:
192,192,152918,1,8,0:0:0:0:
448,192,152918,1,0,0:0:0:0:
64,192,152918,1,0,0:0:0:0:
320,192,153076,1,0,0:0:0:0:
448,192,153234,128,0,154497:0:0:0:30:Finish.wav
64,192,153234,1,2,0:0:0:0:
192,192,153234,1,0,0:0:0:0:
320,192,153549,1,0,0:0:0:0:
192,192,153549,1,8,0:0:0:0:
64,192,153549,1,0,0:0:0:0:
64,192,153707,1,0,0:0:0:0:
320,192,153865,1,0,0:0:0:0:
192,192,153865,1,2,0:0:0:0:
192,192,154023,1,2,0:0:0:0:
64,192,154023,1,0,0:0:0:0:
320,192,154181,1,0,0:0:0:0:
192,192,154181,1,8,0:0:0:0:
64,192,154181,1,0,0:0:0:0:
192,192,154497,128,0,155760:0:0:0:0:
320,192,154497,1,2,0:0:0:0:
64,192,154813,1,0,0:0:0:0:
320,192,154813,1,8,0:0:0:0:
448,192,154813,1,0,0:0:0:0:
64,192,154970,1,0,0:0:0:0:
448,192,155128,1,2,0:0:0:0:
320,192,155128,1,0,0:0:0:0:
448,192,155286,1,2,0:0:0:0:
64,192,155286,1,0,0:0:0:0:
64,192,155444,1,0,0:0:0:0:
320,192,155444,1,8,0:0:0:0:
448,192,155444,1,0,0:0:0:0:
320,192,155760,128,0,157023:0:0:0:0:
64,192,155760,1,2,0:0:0:0:
448,192,156076,1,0,0:0:0:0:
64,192,156076,1,0,0:0:0:0:
192,192,156076,1,8,0:0:0:0:
64,192,156234,1,0,0:0:0:0:
448,192,156392,1,0,0:0:0:0:
192,192,156392,1,2,0:0:0:0:
192,192,156549,1,2,0:0:0:0:
64,192,156549,1,0,0:0:0:0:
448,192,156707,1,0,0:0:0:0:
192,192,156707,1,8,0:0:0:0:
64,192,156707,1,0,0:0:0:0:
64,192,157023,128,0,158286:0:0:0:0:
448,192,157023,1,2,0:0:0:0:
192,192,157339,1,0,0:0:0:0:
320,192,157339,1,8,0:0:0:0:
448,192,157339,1,0,0:0:0:0:
448,192,157497,1,0,0:0:0:0:
320,192,157655,1,2,0:0:0:0:
192,192,157655,1,0,0:0:0:0:
448,192,157813,1,0,0:0:0:0:
320,192,157813,1,2,0:0:0:0:
192,192,157970,1,0,0:0:0:0:
448,192,157970,1,0,0:0:0:0:
320,192,157970,1,8,0:0:0:0:
320,192,158286,128,0,159549:0:0:0:0:
192,192,158286,1,2,0:0:0:0:
448,192,158602,1,0,0:0:0:0:
192,192,158602,1,8,0:0:0:0:
64,192,158602,1,0,0:0:0:0:
448,192,158760,1,0,0:0:0:0:
64,192,158918,1,0,0:0:0:0:
192,192,158918,1,2,0:0:0:0:
448,192,159076,1,0,0:0:0:0:
192,192,159076,1,2,0:0:0:0:
64,192,159234,1,0,0:0:0:0:
192,192,159234,1,8,0:0:0:0:
448,192,159234,1,0,0:0:0:0:
192,192,159549,128,0,160813:0:0:0:0:
64,192,159549,1,2,0:0:0:0:
448,192,159865,1,0,0:0:0:0:
320,192,159865,1,8,0:0:0:0:
64,192,159865,1,0,0:0:0:0:
64,192,160023,1,0,0:0:0:0:
448,192,160181,1,2,0:0:0:0:
320,192,160181,1,0,0:0:0:0:
64,192,160339,1,0,0:0:0:0:
448,192,160339,1,2,0:0:0:0:
320,192,160497,1,8,0:0:0:0:
64,192,160497,1,0,0:0:0:0:
448,192,160497,1,0,0:0:0:0:
448,192,160813,128,0,162076:0:0:0:0:
320,192,160813,1,2,0:0:0:0:
192,192,161128,1,8,0:0:0:0:
64,192,161128,1,0,0:0:0:0:
320,192,161128,1,0,0:0:0:0:
64,192,161286,1,0,0:0:0:0:
320,192,161444,1,0,0:0:0:0:
192,192,161444,1,2,0:0:0:0:
192,192,161602,1,2,0:0:0:0:
64,192,161602,1,0,0:0:0:0:
320,192,161760,1,0,0:0:0:0:
192,192,161760,1,8,0:0:0:0:
64,192,161760,1,0,0:0:0:0:
192,192,162076,1,8,0:0:0:0:
64,192,162076,1,0,0:0:0:0:
320,192,162076,1,0,0:0:0:0:
320,192,162234,1,2,0:0:0:0:
448,192,162234,1,0,0:0:0:0:
64,192,162392,1,4,0:0:0:0:
64,192,162549,1,0,0:0:0:0:
448,192,162549,1,2,0:0:0:0:
192,192,162707,1,4,0:0:0:0:
448,192,162865,1,2,0:0:0:0:
192,192,162865,1,0,0:0:0:0:
320,192,163023,1,8,0:0:0:0:
192,192,163023,1,0,0:0:0:0:
64,192,163023,1,0,0:0:0:0:
448,192,163339,1,0,0:0:0:0:
192,192,163339,1,0,0:0:0:0:
320,192,163339,1,8,0:0:0:0:
64,192,163655,1,0,0:0:0:0:
192,192,163655,1,2,0:0:0:0:
320,192,163813,1,8,0:0:0:0:
448,192,163813,1,0,0:0:0:0:
64,192,163813,1,0,0:0:0:0:
320,192,163970,1,2,0:0:0:0:
64,192,164128,1,2,0:0:0:0:
64,192,164286,1,8,0:0:0:0:
448,192,164286,128,0,164918:0:0:0:0:
192,192,164286,1,0,0:0:0:0:
320,192,164760,1,2,0:0:0:0:
320,192,164918,1,8,0:0:0:0:
64,192,164918,1,0,0:0:0:0:
320,192,165234,1,2,0:0:0:0:
448,192,165234,1,0,0:0:0:0:
192,192,165392,1,2,0:0:0:0:
64,192,165392,1,0,0:0:0:0:
448,192,165549,1,0,0:0:0:0:
320,192,165549,1,8,0:0:0:0:
64,192,165549,1,0,0:0:0:0:
192,192,165865,1,8,0:0:0:0:
64,192,165865,1,0,0:0:0:0:
448,192,166023,1,0,0:0:0:0:
320,192,166023,1,2,0:0:0:0:
192,192,166181,1,2,0:0:0:0:
64,192,166181,1,0,0:0:0:0:
320,192,166339,1,2,0:0:0:0:
192,192,166339,1,0,0:0:0:0:
448,192,166497,1,0,0:0:0:0:
320,192,166497,1,8,0:0:0:0:
64,192,166497,1,0,0:0:0:0:
192,192,166655,1,2,0:0:0:0:
320,192,166655,1,0,0:0:0:0:
192,192,166813,1,8,0:0:0:0:
64,192,166813,1,0,0:0:0:0:
448,192,166813,1,0,0:0:0:0:
448,192,167128,1,0,0:0:0:0:
192,192,167128,1,2,0:0:0:0:
64,192,167286,1,2,0:0:0:0:
320,192,167286,1,0,0:0:0:0:
448,192,167444,1,0,0:0:0:0:
320,192,167444,1,8,0:0:0:0:
192,192,167444,1,0,0:0:0:0:
320,192,167760,1,2,0:0:0:0:
64,192,167760,1,0,0:0:0:0:
448,192,167918,1,2,0:0:0:0:
192,192,167918,1,0,0:0:0:0:
192,192,168076,1,0,0:0:0:0:
64,192,168076,1,0,0:0:0:0:
320,192,168076,1,8,0:0:0:0:
448,192,168234,1,2,0:0:0:0:
320,192,168313,1,2,0:0:0:0:
192,192,168392,1,8,0:0:0:0:
64,192,168392,1,0,0:0:0:30:Finish.wav
448,192,168392,1,0,0:0:0:0:
320,192,168549,1,0,0:0:0:0:
320,192,168707,1,0,0:0:0:0:
192,192,168707,1,8,0:0:0:0:
64,192,168707,1,0,0:0:0:0:
448,192,168865,1,0,0:0:0:0:
448,192,169023,1,2,0:0:0:0:
192,192,169181,1,0,0:0:0:0:
64,192,169181,1,2,0:0:0:0:
448,192,169339,1,0,0:0:0:0:
320,192,169339,1,0,0:0:0:0:
192,192,169339,1,8,0:0:0:0:
64,192,169497,1,0,0:0:0:0:
320,192,169655,1,2,0:0:0:0:
64,192,169655,1,0,0:0:0:0:
320,192,169813,1,0,0:0:0:0:
448,192,169970,1,8,0:0:0:0:
192,192,169970,1,0,0:0:0:0:
64,192,169970,1,0,0:0:0:0:
448,192,170128,1,0,0:0:0:0:
64,192,170286,1,0,0:0:0:0:
448,192,170286,1,2,0:0:0:0:
192,192,170444,1,0,0:0:0:0:
320,192,170444,1,2,0:0:0:0:
320,192,170602,1,8,0:0:0:0:
64,192,170602,1,0,0:0:0:0:
448,192,170602,1,0,0:0:0:0:
192,192,170760,1,0,0:0:0:0:
448,192,170918,1,0,0:0:0:30:Finish.wav
192,192,170918,1,8,0:0:0:0:
64,192,170918,1,0,0:0:0:0:
448,192,171076,1,0,0:0:0:0:
192,192,171234,1,2,0:0:0:0:
64,192,171234,1,0,0:0:0:0:
448,192,171392,1,0,0:0:0:0:
320,192,171392,1,8,0:0:0:0:
64,192,171392,1,0,0:0:0:0:
64,192,171549,1,0,0:0:0:0:
320,192,171707,1,0,0:0:0:0:
192,192,171707,1,2,0:0:0:0:
192,192,171865,1,8,0:0:0:0:
64,192,171865,1,0,0:0:0:0:
448,192,171865,1,0,0:0:0:0:
448,192,172181,1,0,0:0:0:0:
320,192,172181,1,8,0:0:0:0:
64,192,172181,1,0,0:0:0:0:
320,192,172339,1,0,0:0:0:0:
192,192,172339,1,2,0:0:0:0:
64,192,172497,1,0,0:0:0:0:
192,192,172497,1,8,0:0:0:0:
448,192,172497,1,0,0:0:0:0:
320,192,172655,1,0,0:0:0:0:
64,192,172655,1,2,0:0:0:0:
448,192,172813,1,0,0:0:0:0:
320,192,172813,1,8,0:0:0:0:
192,192,172813,1,0,0:0:0:0:
320,192,172970,1,0,0:0:0:0:
192,192,172970,1,8,0:0:0:0:
64,192,172970,1,0,0:0:0:0:
448,192,173128,1,0,0:0:0:0:
320,192,173286,1,8,0:0:0:0:
448,192,173286,1,0,0:0:0:0:
64,192,173286,1,0,0:0:0:0:
192,192,173602,1,2,0:0:0:0:
320,192,173681,1,0,0:0:0:0:
192,192,173760,1,8,0:0:0:0:
64,192,173760,1,0,0:0:0:0:
448,192,173760,1,0,0:0:0:0:
320,192,173918,1,0,0:0:0:0:
64,192,174076,1,0,0:0:0:0:
448,192,174076,1,2,0:0:0:0:
192,192,174234,1,0,0:0:0:0:
320,192,174234,1,2,0:0:0:0:
448,192,174392,1,0,0:0:0:0:
64,192,174392,1,0,0:0:0:0:
192,192,174392,1,8,0:0:0:0:
448,192,174549,1,2,0:0:0:0:
320,192,174549,1,0,0:0:0:0:
192,192,174865,1,2,0:0:0:0:
64,192,174865,1,0,0:0:0:0:
64,192,175023,1,0,0:0:0:0:
320,192,175023,1,8,0:0:0:0:
448,192,175023,1,0,0:0:0:0:
192,192,175181,1,0,0:0:0:0:
192,192,175339,1,0,0:0:0:0:
448,192,175339,1,2,0:0:0:0:
320,192,175497,1,2,0:0:0:0:
64,192,175497,1,0,0:0:0:0:
192,192,175655,1,0,0:0:0:0:
64,192,175655,1,0,0:0:0:0:
448,192,175655,1,8,0:0:0:0:
192,192,175813,1,0,0:0:0:30:Finish.wav
320,192,175813,128,0,176128:0:0:0:0:
448,192,175813,1,0,0:0:0:0:
64,192,176128,1,2,0:0:0:0:
192,192,176128,1,0,0:0:0:0:
448,192,176286,1,0,0:0:0:0:
320,192,176286,1,0,0:0:0:0:
64,192,176286,1,8,0:0:0:0:
192,192,176444,1,0,0:0:0:0:
448,192,176602,1,0,0:0:0:0:
192,192,176602,1,2,0:0:0:0:
320,192,176760,1,2,0:0:0:0:
64,192,176760,1,0,0:0:0:0:
192,192,176918,1,8,0:0:0:0:
64,192,176918,1,0,0:0:0:0:
448,192,176918,1,0,0:0:0:0:
448,192,177076,1,0,0:0:0:0:
320,192,177076,1,2,0:0:0:0:
192,192,177234,1,0,0:0:0:0:
192,192,177392,1,2,0:0:0:0:
64,192,177392,1,0,0:0:0:0:
448,192,177549,1,0,0:0:0:0:
320,192,177549,1,8,0:0:0:0:
64,192,177549,1,0,0:0:0:0:
192,192,177707,1,0,0:0:0:0:
192,192,177865,1,2,0:0:0:0:
448,192,177865,1,0,0:0:0:0:
320,192,178023,1,2,0:0:0:0:
64,192,178023,1,0,0:0:0:0:
448,192,178181,1,0,0:0:0:0:
320,192,178181,1,8,0:0:0:0:
192,192,178181,1,0,0:0:0:0:
448,192,178339,1,0,0:0:0:0:
64,192,178339,128,0,178655:0:0:0:0:
320,192,178339,1,8,0:0:0:0:
448,192,178655,1,2,0:0:0:0:
320,192,178734,1,2,0:0:0:0:
448,192,178813,1,0,0:0:0:0:
192,192,178813,1,8,0:0:0:0:
64,192,178813,1,0,0:0:0:0:
192,192,178970,1,0,0:0:0:0:
448,192,179128,1,0,0:0:0:0:
320,192,179128,1,2,0:0:0:0:
192,192,179286,1,2,0:0:0:0:
64,192,179286,1,0,0:0:0:0:
448,192,179444,1,0,0:0:0:0:
320,192,179444,1,8,0:0:0:0:
64,192,179444,1,0,0:0:0:0:
192,192,179602,128,0,179918:0:0:0:30:Finish.wav
64,192,179602,1,0,0:0:0:0:
448,192,179602,1,0,0:0:0:0:
448,192,179918,1,2,0:0:0:0:
320,192,179918,1,0,0:0:0:0:
320,192,180076,1,8,0:0:0:0:
64,192,180076,1,0,0:0:0:0:
192,192,180076,1,0,0:0:0:0:
448,192,180234,1,0,0:0:0:0:
320,192,180392,1,2,0:0:0:0:
64,192,180392,1,0,0:0:0:0:
192,192,180549,1,2,0:0:0:0:
448,192,180549,1,0,0:0:0:0:
64,192,180707,1,0,0:0:0:0:
320,192,180707,1,8,0:0:0:0:
448,192,180707,1,0,0:0:0:0:
192,192,180865,1,0,0:0:0:0:
320,192,180865,128,0,181181:0:0:0:30:Finish.wav
64,192,180865,1,0,0:0:0:0:
64,192,181181,1,2,0:0:0:0:
192,192,181260,1,2,0:0:0:0:
448,192,181339,1,0,0:0:0:30:Finish.wav
320,192,181339,1,8,0:0:0:0:
64,192,181339,1,0,0:0:0:0:
448,192,181497,1,0,0:0:0:0:
320,192,181655,1,2,0:0:0:0:
192,192,181655,1,0,0:0:0:0:
448,192,181813,1,2,0:0:0:0:
64,192,181813,1,0,0:0:0:0:
320,192,181970,1,8,0:0:0:0:
192,192,181970,1,0,0:0:0:0:
64,192,181970,1,0,0:0:0:0:
192,192,182128,1,0,0:0:0:30:Finish.wav
448,192,182128,1,2,0:0:0:0:
320,192,182128,1,0,0:0:0:0:
64,192,182286,1,0,0:0:0:0:
320,192,182444,1,2,0:0:0:0:
448,192,182444,1,0,0:0:0:0:
192,192,182602,1,8,0:0:0:0:
64,192,182602,1,0,0:0:0:0:
320,192,182602,1,0,0:0:0:0:
448,192,182760,1,2,0:0:0:0:
64,192,182760,1,0,0:0:0:30:Finish.wav
320,192,183076,1,2,0:0:0:0:
192,192,183076,1,0,0:0:0:0:
448,192,183392,1,2,0:0:0:0:
64,192,183392,1,0,0:0:0:30:Finish.wav
448,192,183549,1,0,0:0:0:0:
64,192,183707,1,0,0:0:0:0:
192,192,183707,1,2,0:0:0:0:
448,192,183865,1,0,0:0:0:0:
320,192,183865,1,8,0:0:0:0:
64,192,183865,1,0,0:0:0:0:
192,192,184023,1,0,0:0:0:0:
192,192,184181,1,2,0:0:0:0:
64,192,184339,1,2,0:0:0:0:
64,192,184497,1,8,0:0:0:0:
320,192,184497,1,0,0:0:0:0:
448,192,184497,1,0,0:0:0:0:
192,192,184655,1,0,0:0:0:0:
448,192,184813,1,0,0:0:0:0:
192,192,184813,1,2,0:0:0:0:
320,192,184970,1,0,0:0:0:0:
64,192,185128,1,0,0:0:0:0:
320,192,185128,1,8,0:0:0:0:
448,192,185128,1,0,0:0:0:0:
192,192,185286,1,0,0:0:0:0:
192,192,185444,1,2,0:0:0:0:
448,192,185444,1,0,0:0:0:0:
192,192,185602,1,2,0:0:0:0:
64,192,185602,1,0,0:0:0:0:
448,192,185760,1,0,0:0:0:0:
320,192,185760,1,8,0:0:0:0:
64,192,185760,1,0,0:0:0:0:
320,192,186076,1,2,0:0:0:0:
64,192,186076,1,0,0:0:0:0:
64,192,186234,1,0,0:0:0:0:
448,192,186392,1,0,0:0:0:0:
320,192,186392,1,0,0:0:0:0:
192,192,186392,1,8,0:0:0:0:
320,192,186549,1,0,0:0:0:0:
320,192,186707,1,2,0:0:0:0:
192,192,186707,1,0,0:0:0:0:
448,192,186865,1,2,0:0:0:0:
64,192,186865,1,0,0:0:0:0:
320,192,187023,1,8,0:0:0:0:
192,192,187023,1,0,0:0:0:0:
64,192,187023,1,0,0:0:0:0:
448,192,187181,1,0,0:0:0:0:
448,192,187339,1,0,0:0:0:0:
320,192,187339,1,2,0:0:0:0:
192,192,187497,1,2,0:0:0:0:
64,192,187497,1,0,0:0:0:0:
448,192,187655,1,0,0:0:0:0:
320,192,187655,1,8,0:0:0:0:
192,192,187655,1,0,0:0:0:0:
192,192,187970,1,2,0:0:0:0:
64,192,187970,1,0,0:0:0:0:
448,192,188128,1,0,0:0:0:0:
320,192,188128,1,2,0:0:0:0:
192,192,188286,1,8,0:0:0:0:
64,192,188286,1,0,0:0:0:0:
320,192,188286,1,0,0:0:0:0:
448,192,188444,1,0,0:0:0:0:
320,192,188444,1,8,0:0:0:0:
64,192,188444,1,0,0:0:0:0:
192,192,188602,1,8,0:0:0:0:
64,192,188602,1,0,0:0:0:0:
448,192,188602,1,0,0:0:0:30:Finish.wav
320,192,188760,1,0,0:0:0:0:
448,192,188918,1,0,0:0:0:0:
64,192,188918,1,0,0:0:0:0:
320,192,188918,1,8,0:0:0:0:
192,192,189076,1,0,0:0:0:0:
192,192,189234,1,2,0:0:0:0:
448,192,189234,1,0,0:0:0:0:
192,192,189392,1,2,0:0:0:0:
320,192,189549,1,8,0:0:0:0:
448,192,189549,1,0,0:0:0:0:
64,192,189549,1,0,0:0:0:0:
64,192,189865,1,0,0:0:0:0:
448,192,189865,1,2,0:0:0:0:
320,192,190023,1,2,0:0:0:0:
192,192,190023,1,0,0:0:0:0:
192,192,190181,1,8,0:0:0:0:
64,192,190181,1,0,0:0:0:0:
448,192,190181,1,0,0:0:0:0:
320,192,190339,1,0,0:0:0:0:
320,192,190497,1,0,0:0:0:0:
192,192,190655,1,2,0:0:0:0:
64,192,190655,1,0,0:0:0:0:
64,192,190813,1,0,0:0:0:0:
320,192,190813,1,8,0:0:0:0:
448,192,190813,1,0,0:0:0:0:
192,192,191128,1,8,0:0:0:0:
64,192,191128,1,0,0:0:0:0:
448,192,191128,1,0,0:0:0:30:Finish.wav
192,192,191286,1,0,0:0:0:0:
448,192,191444,1,2,0:0:0:0:
64,192,191444,1,0,0:0:0:0:
320,192,191602,1,8,0:0:0:0:
448,192,191602,1,0,0:0:0:0:
64,192,191602,1,0,0:0:0:0:
192,192,191760,1,0,0:0:0:0:
320,192,191918,1,2,0:0:0:0:
192,192,191918,1,0,0:0:0:0:
448,192,192076,1,0,0:0:0:30:Finish.wav
64,192,192076,1,0,0:0:0:0:
320,192,192076,1,8,0:0:0:0:
192,192,192234,1,0,0:0:0:0:
448,192,192392,1,2,0:0:0:0:
64,192,192392,1,0,0:0:0:0:
192,192,192549,1,8,0:0:0:0:
64,192,192549,1,0,0:0:0:0:
320,192,192628,1,8,0:0:0:0:
448,192,192707,1,2,0:0:0:0:
64,192,192707,1,0,0:0:0:0:
320,192,192786,1,0,0:0:0:0:
192,192,192786,1,2,0:0:0:0:
64,192,192865,1,0,0:0:0:0:
448,192,192865,1,8,0:0:0:0:
192,192,192944,1,8,0:0:0:0:
320,192,192944,1,0,0:0:0:0:
64,192,193023,1,0,0:0:0:0:
448,192,193023,1,2,0:0:0:0:
192,192,193102,1,2,0:0:0:0:
320,192,193181,1,0,0:0:0:0:
448,192,193181,1,8,0:0:0:0:
64,192,193260,1,8,0:0:0:0:
192,192,193260,1,0,0:0:0:0:
320,192,193339,1,0,0:0:0:0:
448,192,193339,1,2,0:0:0:0:
64,192,193418,1,2,0:0:0:0:
192,192,193418,1,0,0:0:0:0:
320,192,193497,1,0,0:0:0:0:
448,192,193497,1,8,0:0:0:0:
192,192,193576,1,8,0:0:0:0:
64,192,193576,1,0,0:0:0:0:
64,192,193655,1,0,0:0:0:0:
320,192,193655,1,2,0:0:0:0:
448,192,193655,128,0,196181:0:0:0:30:Finish.wav
192,192,193970,1,2,0:0:0:0:
320,192,193970,1,0,0:0:0:0:
192,192,194128,1,8,0:0:0:0:
64,192,194128,1,0,0:0:0:0:
320,192,194128,1,0,0:0:0:0:
192,192,194444,1,2,0:0:0:0:
64,192,194444,1,0,0:0:0:0:
192,192,194602,1,8,0:0:0:0:
64,192,194602,1,0,0:0:0:0:
320,192,194602,1,0,0:0:0:0:
64,192,194918,1,0,0:0:0:0:
192,192,194918,1,2,0:0:0:0:
192,192,195076,1,8,0:0:0:0:
64,192,195076,1,0,0:0:0:0:
320,192,195076,1,0,0:0:0:0:
192,192,195392,1,2,0:0:0:0:
320,192,195392,1,0,0:0:0:0:
64,192,195549,1,0,0:0:0:0:
192,192,195549,1,8,0:0:0:0:
320,192,195549,1,0,0:0:0:0:
320,192,195865,1,2,0:0:0:0:
64,192,195865,128,0,196181:0:0:0:0:
320,192,196181,128,8,196339:0:0:0:0:
192,192,196181,1,0,0:0:0:0:
192,192,196339,128,0,196497:0:0:0:0:
64,192,196497,1,2,0:0:0:0:
448,192,196497,128,0,196655:0:0:0:0:
192,192,196655,128,0,196813:0:0:0:0:
320,192,196655,1,8,0:0:0:0:
64,192,196655,1,0,0:0:0:0:
320,192,196813,128,0,196970:0:0:0:0:
64,192,196970,128,0,197128:0:0:0:0:
448,192,196970,1,2,0:0:0:0:
320,192,197128,128,0,197286:0:0:0:0:
448,192,197128,1,8,0:0:0:0:
192,192,197128,1,0,0:0:0:0:
192,192,197286,128,0,197444:0:0:0:0:
64,192,197444,1,2,0:0:0:0:
448,192,197444,128,0,197602:0:0:0:0:
192,192,197602,128,0,197760:0:0:0:0:
320,192,197602,1,2,0:0:0:0:
320,192,197760,128,4,197918:0:0:0:0:
448,192,197918,1,2,0:0:0:0:
64,192,197918,128,0,198076:0:0:0:0:
320,192,198076,128,0,198234:0:0:0:0:
192,192,198076,1,8,0:0:0:0:
448,192,198076,1,0,0:0:0:0:
192,192,198234,128,0,198392:0:0:0:0:
64,192,198392,1,0,0:0:0:30:Finish.wav
448,192,198392,128,8,198549:0:0:0:0:
320,192,198392,1,0,0:0:0:0:
64,192,198549,128,0,198707:0:0:0:0:
320,192,198707,128,2,199181:0:0:0:0:
192,192,198707,1,0,0:0:0:0:
448,192,199023,1,2,0:0:0:0:
64,192,199023,1,0,0:0:0:0:
192,192,199181,128,0,199970:0:0:0:0:
448,192,199181,1,8,0:0:0:0:
64,192,199181,1,0,0:0:0:0:
448,192,199497,1,0,0:0:0:0:
320,192,199497,1,2,0:0:0:0:
448,192,199655,1,0,0:0:0:0:
320,192,199655,1,8,0:0:0:0:
64,192,199655,1,0,0:0:0:0:
448,192,199970,128,0,200444:0:0:0:0:
320,192,199970,1,2,0:0:0:0:
64,192,200128,1,2,0:0:0:0:
192,192,200128,1,0,0:0:0:0:
320,192,200286,1,4,0:0:0:0:
64,192,200444,128,0,200918:0:0:0:0:
448,192,200602,1,0,0:0:0:0:
320,192,200602,1,8,0:0:0:0:
192,192,200602,1,0,0:0:0:0:
320,192,200760,1,0,0:0:0:0:
448,192,200918,128,8,201076:0:0:0:0:
192,192,200918,1,0,0:0:0:0:
320,192,200918,1,0,0:0:0:0:
192,192,201076,128,0,201234:0:0:0:0:
320,192,201234,128,8,201392:0:0:0:0:
64,192,201234,1,0,0:0:0:0:
448,192,201234,1,0,0:0:0:0:
64,192,201392,128,0,201549:0:0:0:0:
192,192,201549,1,0,0:0:0:0:
448,192,201549,128,2,201865:0:0:0:0:
64,192,201707,1,0,0:0:0:0:
320,192,201707,1,8,0:0:0:0:
192,192,201707,1,0,0:0:0:0:
64,192,201865,128,4,202023:0:0:0:0:
320,192,202023,128,0,202181:0:0:0:0:
192,192,202023,1,2,0:0:0:0:
192,192,202181,128,0,202339:0:0:0:0:
448,192,202181,1,8,0:0:0:0:
64,192,202181,1,0,0:0:0:0:
448,192,202339,128,0,202497:0:0:0:0:
320,192,202497,128,0,202813:0:0:0:0:
64,192,202497,1,0,0:0:0:0:
192,192,202497,1,8,0:0:0:0:
64,192,202655,1,2,0:0:0:0:
448,192,202655,1,0,0:0:0:0:
192,192,202813,128,2,203128:0:0:0:0:
448,192,202813,1,0,0:0:0:0:
448,192,203128,1,0,0:0:0:0:
320,192,203128,1,8,0:0:0:0:
64,192,203181,1,2,0:0:0:0:
192,192,203234,1,0,0:0:0:0:
448,192,203286,1,0,0:0:0:0:
320,192,203339,1,0,0:0:0:0:
64,192,203392,1,0,0:0:0:0:
192,192,203444,128,0,203760:0:0:0:0:
448,192,203444,1,8,0:0:0:0:
320,192,203444,1,0,0:0:0:0:
448,192,203760,128,2,204076:0:0:0:0:
64,192,203760,1,0,0:0:0:30:Finish.wav
320,192,203918,128,0,204076:0:0:0:0:
64,192,204076,128,0,204392:0:0:0:0:
192,192,204076,1,8,0:0:0:0:
448,192,204234,128,0,204392:0:0:0:0:
192,192,204392,128,0,204549:0:0:0:0:
320,192,204392,1,2,0:0:0:0:
64,192,204549,128,0,204707:0:0:0:0:
448,192,204549,1,2,0:0:0:0:
192,192,204707,128,0,205023:0:0:0:0:
320,192,204707,1,0,0:0:0:0:
448,192,204707,1,8,0:0:0:0:
320,192,204865,128,2,205023:0:0:0:0:
64,192,205023,128,0,205181:0:0:0:0:
448,192,205023,1,4,0:0:0:0:
320,192,205181,128,0,205339:0:0:0:0:
192,192,205181,1,2,0:0:0:0:
192,192,205339,1,8,0:0:0:0:
64,192,205339,128,0,205655:0:0:0:0:
448,192,205339,1,0,0:0:0:0:
448,192,205497,128,0,205655:0:0:0:0:
320,192,205655,128,0,205813:0:0:0:0:
192,192,205655,1,2,0:0:0:0:
448,192,205813,128,0,205970:0:0:0:0:
64,192,205813,1,2,0:0:0:0:
192,192,205970,128,0,206286:0:0:0:0:
320,192,205970,1,8,0:0:0:0:
64,192,205970,1,0,0:0:0:0:
64,192,206128,128,0,206286:0:0:0:0:
448,192,206286,1,8,0:0:0:0:
320,192,206286,128,0,206602:0:0:0:0:
448,192,206444,128,0,206602:0:0:0:0:
192,192,206602,1,2,0:0:0:0:
64,192,206602,128,0,206760:0:0:0:0:
448,192,206760,1,8,0:0:0:0:
192,192,206760,128,0,206918:0:0:0:0:
320,192,206760,1,0,0:0:0:0:
320,192,206918,128,0,207234:0:0:0:0:
64,192,206918,1,8,0:0:0:0:
64,192,207076,128,2,207234:0:0:0:0:
192,192,207234,1,8,0:0:0:0:
448,192,207234,128,0,207549:0:0:0:0:
320,192,207392,1,2,0:0:0:0:
64,192,207392,1,0,0:0:0:0:
192,192,207549,128,0,208813:0:0:0:0:
320,192,207549,128,0,208813:0:0:0:30:Finish.wav
64,192,207549,1,8,0:0:0:0:
448,192,208813,1,4,0:0:0:0:
64,192,210392,1,4,0:0:0:0:
192,192,210707,1,4,0:0:0:0:
448,192,211339,128,4,212602:0:0:0:0:
320,192,211339,1,0,0:0:0:0:
192,192,212602,128,0,213865:0:0:0:0:
64,192,212602,1,4,0:0:0:0:
320,192,213234,128,4,213865:0:0:0:0:
64,192,213865,128,4,215128:0:0:0:0:
448,192,213865,1,0,0:0:0:0:
320,192,215128,1,4,0:0:0:0:
448,192,215444,1,4,0:0:0:0:
64,192,215760,128,0,216392:0:0:0:0:
320,192,215760,1,4,0:0:0:0:
192,192,216076,1,4,0:0:0:0:
320,192,216392,1,4,0:0:0:0:
448,192,216392,128,0,217497:0:0:0:0:
64,192,217497,1,2,0:0:0:0:
192,192,217497,1,0,0:0:0:0:
320,192,217576,1,2,0:0:0:0:
448,192,217576,1,0,0:0:0:0:
192,192,217655,1,8,0:0:0:0:
64,192,217655,1,0,0:0:0:0:
320,192,217655,1,0,0:0:0:0:
448,192,217813,1,2,0:0:0:0:
192,192,217813,1,0,0:0:0:0:
64,192,217970,1,0,0:0:0:0:
320,192,217970,1,2,0:0:0:0:
448,192,218128,1,2,0:0:0:0:
192,192,218128,1,0,0:0:0:0:
64,192,218286,1,0,0:0:0:0:
320,192,218286,1,2,0:0:0:0:
448,192,218444,1,2,0:0:0:0:
192,192,218444,1,0,0:0:0:0:
448,192,218602,1,0,0:0:0:0:
320,192,218602,1,8,0:0:0:0:
64,192,218602,1,0,0:0:0:0:
320,192,218918,1,0,0:0:0:30:Finish.wav
64,192,218918,1,2,0:0:0:0:
192,192,218918,1,0,0:0:0:0:
448,192,219234,1,0,0:0:0:0:
192,192,219234,1,2,0:0:0:0:
320,192,219549,1,2,0:0:0:0:
64,192,219549,1,0,0:0:0:0:
448,192,219865,1,0,0:0:0:0:
192,192,219865,1,2,0:0:0:0:
192,192,220181,1,2,0:0:0:0:
64,192,220181,1,0,0:0:0:0:
448,192,220497,1,0,0:0:0:0:
320,192,220497,1,2,0:0:0:0:
192,192,220813,1,2,0:0:0:0:
64,192,220813,1,0,0:0:0:0:
448,192,221128,1,0,0:0:0:0:
320,192,221128,1,2,0:0:0:0:
192,192,221286,1,2,0:0:0:0:
320,192,221365,1,2,0:0:0:0:
448,192,221444,1,0,0:0:0:30:Finish.wav
64,192,221444,1,0,0:0:0:0:
192,192,221444,1,8,0:0:0:0:
320,192,221760,1,2,0:0:0:0:
192,192,221760,1,0,0:0:0:0:
448,192,222076,1,2,0:0:0:0:
64,192,222076,1,0,0:0:0:0:
320,192,222392,1,2,0:0:0:0:
192,192,222392,1,0,0:0:0:0:
64,192,222549,1,0,0:0:0:0:
448,192,222549,1,0,0:0:0:0:
192,192,222549,128,8,222707:0:0:0:0:
320,192,222707,1,2,0:0:0:0:
64,192,222707,1,0,0:0:0:0:
448,192,223023,1,0,0:0:0:0:
320,192,223023,1,2,0:0:0:0:
192,192,223339,1,2,0:0:0:0:
64,192,223339,1,0,0:0:0:0:
448,192,223655,1,0,0:0:0:0:
320,192,223655,1,2,0:0:0:0:
192,192,223813,1,2,0:0:0:0:
320,192,223892,1,2,0:0:0:0:
64,192,223970,1,0,0:0:0:0:
448,192,223970,1,0,0:0:0:30:Finish.wav
192,192,223970,1,8,0:0:0:0:
320,192,224286,1,2,0:0:0:0:
192,192,224286,1,0,0:0:0:0:
448,192,224444,1,8,0:0:0:0:
64,192,224444,1,0,0:0:0:0:
320,192,224444,128,0,224602:0:0:0:0:
192,192,224602,1,2,0:0:0:0:
64,192,224602,1,0,0:0:0:0:
448,192,224918,1,0,0:0:0:0:
192,192,224918,1,8,0:0:0:0:
64,192,224918,1,0,0:0:0:0:
320,192,225234,1,2,0:0:0:0:
448,192,225234,1,0,0:0:0:0:
192,192,225549,1,2,0:0:0:0:
64,192,225549,1,0,0:0:0:0:
448,192,225707,1,0,0:0:0:0:
320,192,225707,1,8,0:0:0:0:
64,192,225707,1,0,0:0:0:0:
192,192,225865,128,2,226181:0:0:0:0:
448,192,226181,128,0,226497:0:0:0:0:
64,192,226181,1,0,0:0:0:0:
320,192,226181,1,8,0:0:0:0:
64,192,226497,1,2,0:0:0:0:
320,192,226497,1,0,0:0:0:0:
320,192,226655,1,0,0:0:0:0:
64,192,226813,1,2,0:0:0:0:
448,192,226813,1,0,0:0:0:0:
320,192,226970,1,0,0:0:0:0:
192,192,226970,1,8,0:0:0:0:
192,192,227128,1,0,0:0:0:0:
64,192,227286,1,2,0:0:0:0:
64,192,227444,1,0,0:0:0:0:
448,192,227444,1,8,0:0:0:0:
320,192,227602,1,2,0:0:0:0:
192,192,227681,1,2,0:0:0:0:
448,192,227760,1,0,0:0:0:30:Finish.wav
320,192,227760,1,8,0:0:0:0:
64,192,227760,1,0,0:0:0:0:
448,192,229023,1,0,0:0:0:30:Finish.wav
320,192,229023,1,2,0:0:0:0:
64,192,229023,1,0,0:0:0:0:
192,192,229181,1,0,0:0:0:0:
192,192,229339,1,8,0:0:0:0:
64,192,229339,1,0,0:0:0:0:
448,192,229339,1,0,0:0:0:0:
448,192,229497,1,0,0:0:0:0:
64,192,229655,1,0,0:0:0:0:
320,192,229655,1,2,0:0:0:0:
320,192,229813,1,2,0:0:0:0:
192,192,229813,1,0,0:0:0:0:
448,192,229970,1,0,0:0:0:0:
320,192,229970,1,8,0:0:0:0:
64,192,229970,1,0,0:0:0:0:
64,192,230128,1,0,0:0:0:0:
64,192,230286,1,0,0:0:0:0:
320,192,230286,1,2,0:0:0:0:
320,192,230444,1,0,0:0:0:0:
64,192,230602,1,0,0:0:0:0:
192,192,230602,1,8,0:0:0:0:
448,192,230602,1,0,0:0:0:0:
192,192,230760,1,0,0:0:0:0:
448,192,230918,1,2,0:0:0:0:
192,192,230918,1,0,0:0:0:0:
64,192,231076,1,0,0:0:0:0:
320,192,231076,1,2,0:0:0:0:
320,192,231234,1,8,0:0:0:0:
448,192,231234,1,0,0:0:0:0:
192,192,231234,1,0,0:0:0:0:
192,192,231392,1,0,0:0:0:0:
320,192,231549,1,2,0:0:0:0:
64,192,231549,1,0,0:0:0:0:
320,192,231707,1,0,0:0:0:0:
64,192,231865,1,0,0:0:0:0:
448,192,231865,1,8,0:0:0:0:
192,192,231865,1,0,0:0:0:0:
448,192,232023,1,0,0:0:0:0:
192,192,232181,1,2,0:0:0:0:
64,192,232181,1,0,0:0:0:0:
448,192,232339,1,0,0:0:0:0:
320,192,232339,1,2,0:0:0:0:
192,192,232497,1,8,0:0:0:0:
64,192,232497,1,0,0:0:0:0:
448,192,232497,1,0,0:0:0:0:
448,192,232655,1,0,0:0:0:0:
192,192,232813,1,0,0:0:0:0:
320,192,232813,1,2,0:0:0:0:
64,192,232970,1,0,0:0:0:0:
448,192,233128,1,0,0:0:0:0:
320,192,233128,1,8,0:0:0:0:
64,192,233128,1,0,0:0:0:0:
64,192,233286,1,0,0:0:0:0:
320,192,233444,1,2,0:0:0:0:
448,192,233444,1,0,0:0:0:0:
64,192,233602,1,0,0:0:0:0:
192,192,233602,1,2,0:0:0:0:
320,192,233760,1,8,0:0:0:0:
448,192,233760,1,0,0:0:0:0:
64,192,233760,1,0,0:0:0:0:
320,192,233918,1,0,0:0:0:0:
192,192,234076,1,2,0:0:0:0:
64,192,234076,1,0,0:0:0:0:
448,192,234234,1,0,0:0:0:0:
448,192,234392,1,0,0:0:0:0:
320,192,234392,1,8,0:0:0:0:
192,192,234392,1,0,0:0:0:0:
192,192,234549,1,0,0:0:0:0:
192,192,234707,1,0,0:0:0:0:
320,192,234707,1,2,0:0:0:0:
64,192,234865,1,0,0:0:0:0:
448,192,234865,1,2,0:0:0:0:
192,192,235023,1,0,0:0:0:0:
64,192,235023,1,0,0:0:0:0:
448,192,235023,1,8,0:0:0:0:
320,192,235181,1,0,0:0:0:0:
320,192,235339,1,2,0:0:0:0:
64,192,235339,1,0,0:0:0:0:
192,192,235497,1,0,0:0:0:0:
448,192,235655,1,0,0:0:0:0:
320,192,235655,1,8,0:0:0:0:
192,192,235655,1,0,0:0:0:0:
320,192,235813,1,0,0:0:0:0:
64,192,235970,1,0,0:0:0:0:
192,192,235970,1,2,0:0:0:0:
448,192,236128,1,0,0:0:0:0:
320,192,236128,1,2,0:0:0:0:
320,192,236286,1,0,0:0:0:0:
192,192,236286,1,8,0:0:0:0:
64,192,236286,1,0,0:0:0:0:
448,192,236444,1,0,0:0:0:0:
448,192,236602,1,2,0:0:0:0:
64,192,236602,1,0,0:0:0:0:
64,192,236760,1,0,0:0:0:0:
448,192,236918,1,0,0:0:0:0:
320,192,236918,1,8,0:0:0:0:
192,192,236918,1,0,0:0:0:0:
192,192,237076,1,0,0:0:0:0:
448,192,237234,1,2,0:0:0:0:
192,192,237234,1,0,0:0:0:0:
320,192,237392,1,2,0:0:0:0:
64,192,237392,1,0,0:0:0:0:
192,192,237549,1,0,0:0:0:0:
64,192,237549,1,0,0:0:0:0:
448,192,237549,1,8,0:0:0:0:
320,192,237707,1,0,0:0:0:0:
448,192,237865,1,0,0:0:0:30:Finish.wav
320,192,237865,1,8,0:0:0:0:
64,192,237865,1,0,0:0:0:0:
192,192,238023,1,0,0:0:0:0:
448,192,238023,1,2,0:0:0:0:
192,192,238181,1,0,0:0:0:0:
320,192,238339,1,8,0:0:0:0:
448,192,238339,1,0,0:0:0:0:
64,192,238339,1,0,0:0:0:0:
64,192,238497,1,0,0:0:0:0:
64,192,238655,1,2,0:0:0:0:
320,192,238813,1,0,0:0:0:0:
192,192,238813,1,8,0:0:0:0:
448,192,238813,1,0,0:0:0:0:
448,192,239128,1,0,0:0:0:30:Finish.wav
64,192,239128,1,0,0:0:0:0:
192,192,239128,1,2,0:0:0:0:
320,192,239444,1,2,0:0:0:0:
192,192,239444,1,0,0:0:0:0:
64,192,239602,1,0,0:0:0:0:
448,192,239602,1,2,0:0:0:0:
448,192,239760,1,2,0:0:0:0:
192,192,239918,1,2,0:0:0:0:
64,192,239918,1,0,0:0:0:0:
448,192,240076,1,0,0:0:0:30:Finish.wav
320,192,240076,1,8,0:0:0:0:
64,192,240076,1,0,0:0:0:0:
320,192,240392,1,0,0:0:0:0:
192,192,240549,1,0,0:0:0:0:
320,192,240549,1,2,0:0:0:0:
64,192,240707,1,0,0:0:0:0:
192,192,240707,1,8,0:0:0:0:
448,192,240707,1,0,0:0:0:0:
320,192,241023,1,2,0:0:0:0:
320,192,241181,1,2,0:0:0:0:
64,192,241181,1,0,0:0:0:0:
448,192,241339,1,0,0:0:0:0:
192,192,241339,1,0,0:0:0:0:
64,192,241339,1,8,0:0:0:0:
320,192,241655,1,8,0:0:0:0:
192,192,241655,1,0,0:0:0:0:
64,192,241655,1,0,0:0:0:0:
448,192,241813,1,2,0:0:0:0:
320,192,241813,1,0,0:0:0:0:
320,192,241970,1,2,0:0:0:0:
192,192,241970,1,0,0:0:0:0:
64,192,242128,1,0,0:0:0:0:
192,192,242128,1,2,0:0:0:0:
192,192,242286,1,0,0:0:0:0:
320,192,242286,1,8,0:0:0:0:
448,192,242286,1,0,0:0:0:0:
448,192,242444,1,2,0:0:0:0:
64,192,242444,1,0,0:0:0:0:
320,192,242602,1,8,0:0:0:0:
64,192,242602,1,0,0:0:0:0:
448,192,242602,1,0,0:0:0:30:Finish.wav
192,192,242918,1,0,0:0:0:0:
192,192,243076,1,0,0:0:0:0:
320,192,243076,1,2,0:0:0:0:
192,192,243234,1,8,0:0:0:0:
64,192,243234,1,0,0:0:0:0:
448,192,243234,1,0,0:0:0:0:
320,192,243392,1,0,0:0:0:0:
448,192,243549,1,0,0:0:0:0:
320,192,243549,1,2,0:0:0:0:
64,192,243707,1,0,0:0:0:0:
192,192,243707,1,2,0:0:0:0:
64,192,243865,1,0,0:0:0:0:
320,192,243865,1,8,0:0:0:0:
448,192,243865,1,0,0:0:0:30:Finish.wav
192,192,244181,1,2,0:0:0:0:
64,192,244181,1,0,0:0:0:0:
320,192,244181,1,0,0:0:0:0:
448,192,244339,1,2,0:0:0:0:
64,192,244339,1,0,0:0:0:0:
320,192,244497,1,8,0:0:0:0:
448,192,244497,1,0,0:0:0:0:
192,192,244497,1,0,0:0:0:0:
64,192,244655,1,0,0:0:0:0:
64,192,244813,1,0,0:0:0:0:
448,192,244970,1,0,0:0:0:0:
320,192,244970,1,2,0:0:0:0:
192,192,245128,1,8,0:0:0:0:
64,192,245128,1,0,0:0:0:0:
448,192,245128,1,0,0:0:0:0:
64,192,245286,1,0,0:0:0:0:
448,192,245444,1,0,0:0:0:0:
192,192,245444,1,2,0:0:0:0:
64,192,245602,1,0,0:0:0:0:
320,192,245602,1,2,0:0:0:0:
320,192,245760,1,8,0:0:0:0:
64,192,245760,1,0,0:0:0:0:
448,192,245760,1,0,0:0:0:0:
448,192,245918,1,0,0:0:0:0:
192,192,246076,1,0,0:0:0:0:
192,192,246234,1,2,0:0:0:0:
64,192,246392,1,0,0:0:0:0:
320,192,246392,1,8,0:0:0:0:
448,192,246392,1,0,0:0:0:0:
192,192,246549,1,0,0:0:0:0:
192,192,246707,1,0,0:0:0:0:
64,192,246707,1,8,0:0:0:0:
448,192,246707,1,4,0:0:0:0:
448,192,246865,1,0,0:0:0:0:
320,192,247023,1,2,0:0:0:0:
192,192,247023,1,0,0:0:0:0:
448,192,247181,1,0,0:0:0:0:
64,192,247181,1,0,0:0:0:0:
320,192,247181,1,8,0:0:0:0:
320,192,247339,1,4,0:0:0:0:
192,192,247497,1,0,0:0:0:0:
448,192,247497,1,2,0:0:0:0:
192,192,247655,1,0,0:0:0:0:
64,192,247655,1,0,0:0:0:0:
448,192,247655,1,8,0:0:0:0:
448,192,247970,1,0,0:0:0:0:
320,192,247970,1,8,0:0:0:0:
192,192,247970,1,0,0:0:0:0:
64,192,248128,1,0,0:0:0:0:
448,192,248286,1,0,0:0:0:0:
64,192,248286,1,2,0:0:0:0:
192,192,248444,1,8,0:0:0:0:
64,192,248444,1,0,0:0:0:0:
448,192,248444,1,0,0:0:0:0:
320,192,248602,1,0,0:0:0:0:
320,192,248760,1,2,0:0:0:0:
64,192,248918,1,0,0:0:0:0:
448,192,248918,1,8,0:0:0:0:
192,192,248918,1,0,0:0:0:0:
320,192,249234,1,0,0:0:0:30:Finish.wav
64,192,249234,1,8,0:0:0:0:
448,192,249234,1,0,0:0:0:0:
320,192,249392,1,0,0:0:0:0:
192,192,249549,1,2,0:0:0:0:
64,192,249549,1,0,0:0:0:0:
448,192,249707,1,0,0:0:0:0:
320,192,249707,1,8,0:0:0:0:
64,192,249707,1,0,0:0:0:0:
192,192,249865,1,0,0:0:0:0:
320,192,249865,1,2,0:0:0:0:
448,192,250023,1,0,0:0:0:0:
192,192,250181,1,0,0:0:0:0:
64,192,250181,1,0,0:0:0:0:
448,192,250181,1,8,0:0:0:0:
320,192,250339,1,0,0:0:0:0:
448,192,250497,1,8,0:0:0:0:
320,192,250497,1,0,0:0:0:30:Finish.wav
64,192,250497,1,0,0:0:0:0:
64,192,250655,1,0,0:0:0:0:
448,192,250813,1,0,0:0:0:0:
320,192,250813,1,2,0:0:0:0:
192,192,250970,1,8,0:0:0:0:
64,192,250970,1,0,0:0:0:0:
448,192,250970,1,0,0:0:0:0:
192,192,251128,1,2,0:0:0:0:
320,192,251128,1,0,0:0:0:0:
64,192,251286,1,0,0:0:0:0:
64,192,251444,1,0,0:0:0:0:
320,192,251444,1,8,0:0:0:0:
448,192,251444,1,0,0:0:0:0:
320,192,251602,1,0,0:0:0:0:
448,192,251760,1,0,0:0:0:30:Finish.wav
64,192,251760,1,8,0:0:0:0:
192,192,251760,1,0,0:0:0:0:
192,192,251918,1,0,0:0:0:0:
64,192,252076,1,2,0:0:0:0:
448,192,252076,1,0,0:0:0:0:
192,192,252234,1,8,0:0:0:0:
64,192,252234,1,0,0:0:0:0:
448,192,252234,1,0,0:0:0:0:
320,192,252392,1,2,0:0:0:0:
320,192,252549,1,0,0:0:0:0:
320,192,252707,1,8,0:0:0:0:
64,192,252707,1,0,0:0:0:0:
448,192,252707,1,0,0:0:0:0:
192,192,253023,1,8,0:0:0:0:
64,192,253023,1,0,0:0:0:0:
448,192,253023,1,0,0:0:0:30:Finish.wav
192,192,253339,1,2,0:0:0:0:
448,192,253339,1,0,0:0:0:0:
320,192,253497,1,8,0:0:0:0:
64,192,253497,1,0,0:0:0:0:
448,192,253497,1,0,0:0:0:30:Finish.wav
448,192,253655,1,0,0:0:0:0:
64,192,253813,1,2,0:0:0:0:
192,192,253892,1,2,0:0:0:0:
448,192,253970,1,0,0:0:0:0:
320,192,253970,1,8,0:0:0:0:
64,192,253970,1,0,0:0:0:0:
64,192,254286,1,0,0:0:0:0:
192,192,254286,1,2,0:0:0:0:
448,192,254444,1,8,0:0:0:0:
320,192,254444,1,0,0:0:0:0:
320,192,254602,1,8,0:0:0:0:
64,192,254602,1,0,0:0:0:0:
448,192,254760,1,2,0:0:0:0:
192,192,254760,1,0,0:0:0:0:
448,192,254918,1,2,0:0:0:0:
64,192,254918,1,0,0:0:0:0:
320,192,255076,1,2,0:0:0:0:
192,192,255076,1,0,0:0:0:0:
64,192,255234,1,0,0:0:0:30:Finish.wav
192,192,255234,1,8,0:0:0:0:
448,192,255234,128,0,259339:0:0:0:0:
64,192,256497,128,0,256813:0:0:0:0:
192,192,256655,128,0,256813:0:0:0:0:
320,192,256813,128,0,259339:0:0:0:0:
64,192,259339,128,0,259970:0:0:0:0:
192,192,259339,1,0,0:0:0:40:Finish.wav
448,192,259497,1,0,0:0:0:0:
192,192,259655,128,0,259970:0:0:0:0:
320,192,259655,1,2,0:0:0:0:
320,192,259813,1,8,0:0:0:0:
448,192,259813,1,0,0:0:0:0:
320,192,259970,128,0,260444:0:0:0:0:
448,192,259970,1,2,0:0:0:0:
64,192,260128,1,2,0:0:0:0:
448,192,260286,1,0,0:0:0:0:
192,192,260286,1,8,0:0:0:0:
64,192,260444,128,0,260918:0:0:0:0:
448,192,260444,1,0,0:0:0:0:
192,192,260602,1,2,0:0:0:0:
448,192,260760,1,0,0:0:0:0:
320,192,260760,1,8,0:0:0:0:
448,192,260918,128,0,261865:0:0:0:0:
192,192,260918,1,2,0:0:0:0:
320,192,261076,1,2,0:0:0:0:
320,192,261234,128,0,261865:0:0:0:0:
192,192,261234,1,8,0:0:0:0:
64,192,261234,1,0,0:0:0:0:
64,192,261392,1,0,0:0:0:0:
192,192,261549,1,8,0:0:0:0:
64,192,261549,1,0,0:0:0:0:
192,192,261707,1,0,0:0:0:0:
64,192,261865,128,0,263286:0:0:0:0:
192,192,261865,1,8,0:0:0:0:
448,192,262023,1,2,0:0:0:0:
320,192,262181,1,2,0:0:0:0:
192,192,262339,1,8,0:0:0:0:
448,192,262339,1,0,0:0:0:0:
320,192,262497,1,2,0:0:0:0:
448,192,262655,128,0,262813:0:0:0:0:
192,192,262655,1,2,0:0:0:0:
320,192,262813,128,8,262970:0:0:0:0:
192,192,262970,128,2,263286:0:0:0:0:
320,192,263128,1,2,0:0:0:0:
448,192,263286,1,8,0:0:0:0:
320,192,263339,1,0,0:0:0:0:
192,192,263392,1,0,0:0:0:0:
448,192,263444,1,2,0:0:0:0:
64,192,263444,1,0,0:0:0:0:
320,192,263497,1,0,0:0:0:0:
192,192,263549,1,0,0:0:0:0:
448,192,263602,1,2,0:0:0:0:
64,192,263602,1,0,0:0:0:0:
320,192,263655,1,0,0:0:0:0:
192,192,263707,1,0,0:0:0:0:
320,192,263760,1,0,0:0:0:0:
448,192,263760,1,8,0:0:0:0:
64,192,263760,1,0,0:0:0:0:
192,192,263918,1,0,0:0:0:0:
64,192,263918,1,2,0:0:0:0:
448,192,264076,1,0,0:0:0:0:
64,192,264076,1,0,0:0:0:0:
320,192,264076,1,8,0:0:0:0:
192,192,264234,1,0,0:0:0:0:
64,192,264392,128,0,264707:0:0:0:0:
448,192,264392,1,0,0:0:0:0:
320,192,264392,1,8,0:0:0:0:
192,192,264549,128,2,264707:0:0:0:0:
448,192,264707,128,0,264865:0:0:0:0:
320,192,264707,1,2,0:0:0:0:
320,192,264865,128,8,265023:0:0:0:0:
192,192,264865,1,0,0:0:0:0:
64,192,264865,1,0,0:0:0:0:
192,192,265023,128,0,265339:0:0:0:0:
448,192,265023,1,2,0:0:0:0:
448,192,265181,128,0,265339:0:0:0:0:
64,192,265181,1,2,0:0:0:0:
64,192,265339,128,0,265497:0:0:0:0:
320,192,265339,1,8,0:0:0:0:
320,192,265497,128,0,265655:0:0:0:0:
448,192,265497,1,2,0:0:0:0:
448,192,265655,128,0,265970:0:0:0:0:
192,192,265655,1,2,0:0:0:0:
192,192,265813,128,0,265970:0:0:0:0:
64,192,265813,1,8,0:0:0:0:
320,192,265813,1,0,0:0:0:0:
64,192,265970,128,0,266128:0:0:0:0:
320,192,265970,1,2,0:0:0:0:
448,192,266128,128,0,266918:0:0:0:0:
192,192,266128,1,2,0:0:0:0:
320,192,266286,1,8,0:0:0:0:
64,192,266286,1,0,0:0:0:0:
192,192,266444,1,2,0:0:0:0:
320,192,266602,1,8,0:0:0:0:
64,192,266602,1,0,0:0:0:0:
192,192,266760,1,0,0:0:0:0:
64,192,266918,1,0,0:0:0:0:
320,192,266918,1,2,0:0:0:0:
192,192,266997,1,0,0:0:0:0:
64,192,267076,1,0,0:0:0:0:
320,192,267155,1,8,0:0:0:0:
448,192,267155,1,0,0:0:0:0:
192,192,267234,1,2,0:0:0:0:
64,192,267234,1,0,0:0:0:0:
320,192,267313,1,0,0:0:0:0:
448,192,267392,1,0,0:0:0:0:
192,192,267470,1,8,0:0:0:0:
320,192,267470,1,0,0:0:0:0:
64,192,267549,1,0,0:0:0:0:
448,192,267549,1,2,0:0:0:0:
320,192,267707,128,0,267865:0:0:0:0:
192,192,267865,1,2,0:0:0:0:
448,192,268023,128,0,269286:0:0:0:30:Finish.wav
64,192,268023,1,0,0:0:0:0:
320,192,268023,1,8,0:0:0:0:
192,192,268813,1,8,0:0:0:0:
64,192,268813,1,0,0:0:0:0:
320,192,268970,1,8,0:0:0:0:
64,192,268970,1,0,0:0:0:0:
192,192,269128,1,0,0:0:0:0:
320,192,269128,1,2,0:0:0:0:
64,192,269286,128,0,277023:0:0:0:0:
192,192,269286,128,0,274497:0:0:0:30:Finish.wav
320,192,269286,1,8,0:0:0:0:
320,192,271970,1,0,0:0:0:8:normal-hitnormal.wav
448,192,272023,1,4,0:0:0:8:normal-hitnormal.wav
