osu file format v14

[General]
AudioFilename: audio.mp3
AudioLeadIn: 0
PreviewTime: 49919
Countdown: 0
SampleSet: Soft
StackLeniency: 0.3
Mode: 0
LetterboxInBreaks: 0
WidescreenStoryboard: 1

[Editor]
Bookmarks: 14285,18486,29288,38891,43692,48493,60346,69949
DistanceSpacing: 0.5
BeatDivisor: 4
GridSize: 4
TimelineZoom: 2.699999

[Metadata]
Title:Brave Freak Out -TV ver.-
TitleUnicode:Brave Freak Out -TV ver.-
Artist:LiSA
ArtistUnicode:LiSA
Creator:_DT3
Version:Another
Source:クオリディア・コード
Tags:Qualidea Code OP Opening Risa Oribe Tomoya Tabuchi Koichiro Takahashi 10th Single ShogunMoon Astarte Mir LCFC LowComboFC Plaudible Lasse A_r_M_i_N Armin Kibbleru
BeatmapID:1492637
BeatmapSetID:582520

[Difficulty]
HPDrainRate:7
CircleSize:4
OverallDifficulty:8.3
ApproachRate:9.2
SliderMultiplier:1.8
SliderTickRate:1

[Events]
//Background and Video events
Video,0,"OP video.avi"
0,0,"the+bg[1].jpg",0,0
//Break Periods
//Storyboard Layer 0 (Background)
//Storyboard Layer 1 (Fail)
//Storyboard Layer 2 (Pass)
//Storyboard Layer 3 (Foreground)
//Storyboard Sound Samples

[TimingPoints]
482,292.682926829268,4,2,10,70,1,0
1506,352.941176470588,4,2,11,70,1,0
1506,-176.991150442478,4,2,11,70,0,0
1682,300.075018754689,4,2,10,70,1,0
1832,-100,4,2,10,5,0,0
3932,-100,4,2,11,70,0,0
4232,-100,4,2,10,70,0,0
5132,-200,4,2,10,70,0,0
6183,-200,4,2,10,70,0,0
6332,-100,4,2,2,90,0,0
6633,-100,4,2,1,75,0,0
7008,-100,4,2,1,5,0,0
7083,-100,4,2,1,75,0,0
8733,-100,4,2,1,90,0,0
8958,-100,4,2,1,5,0,0
9033,-100,4,2,1,75,0,0
9408,-100,4,2,1,5,0,0
9483,-100,4,2,1,75,0,0
11134,-100,4,2,2,90,0,0
11434,-100,4,2,1,75,0,0
11809,-100,4,2,1,5,0,0
11884,-100,4,2,1,75,0,0
13534,-100,4,2,1,90,0,0
14885,-90.9090909090909,4,2,1,75,0,0
15485,-200,4,2,1,90,0,0
16085,-200,4,2,22,25,0,0
17135,-200,4,2,22,25,0,0
18186,-133.333333333333,4,2,22,55,0,0
18411,-133.333333333333,4,2,22,5,0,0
18486,-133.333333333333,4,2,3,55,0,0
27713,-133.333333333333,4,2,3,5,0,0
27788,-133.333333333333,4,2,3,55,0,0
28088,-113.636363636364,4,2,3,75,0,0
28688,-90.9090909090909,4,2,1,75,0,0
29288,-100,4,2,1,60,0,0
31164,-100,4,2,1,5,0,0
31239,-100,4,2,1,60,0,0
36715,-100,4,2,1,5,0,0
36790,-90.9090909090909,4,2,1,60,0,0
38291,-100,4,2,1,75,0,0
38516,-100,4,2,1,5,0,0
38591,-100,4,2,1,70,0,0
38666,-100,4,2,1,5,0,0
38741,-100,4,2,1,65,0,0
38816,-100,4,2,1,5,0,0
38891,-151.515151515152,4,2,4,45,0,0
40841,-100,4,2,1,60,0,0
41216,-100,4,2,1,5,0,0
41291,-151.515151515152,4,2,4,45,0,0
42942,-66.6666666666667,4,2,1,55,0,0
43092,-66.6666666666667,4,2,1,75,0,0
43242,-66.6666666666667,4,2,1,5,0,0
43317,-66.6666666666667,4,2,1,60,0,0
43467,-66.6666666666667,4,2,1,5,0,0
43542,-66.6666666666667,4,2,1,60,0,0
43692,-90.9090909090909,4,2,4,50,0,0
44892,-90.9090909090909,4,2,4,60,0,0
46093,-80,4,2,1,75,0,0
48493,-33.3333333333333,4,2,1,85,0,0
48531,-33.3333333333333,4,2,1,5,0,0
48943,-33.3333333333333,4,2,1,85,0,0
48981,-33.3333333333333,4,2,1,5,0,0
49393,-33.3333333333333,4,2,1,65,0,0
49431,-33.3333333333333,4,2,1,5,0,0
49543,-100,4,2,1,60,0,0
50144,-100,4,2,1,5,0,0
50294,-100,4,2,1,60,0,0
50744,-90.9090909090909,4,2,2,90,0,1
51044,-90.9090909090909,4,2,1,80,0,1
51419,-90.9090909090909,4,2,1,5,0,1
51494,-90.9090909090909,4,2,1,80,0,1
53144,-90.9090909090909,4,2,1,90,0,1
53444,-90.9090909090909,4,2,1,80,0,1
53820,-90.9090909090909,4,2,1,5,0,1
53895,-90.9090909090909,4,2,1,80,0,1
55020,-90.9090909090909,4,2,1,5,0,1
55095,-90.9090909090909,4,2,1,80,0,1
55545,-90.9090909090909,4,2,1,90,0,1
55845,-90.9090909090909,4,2,1,80,0,1
56220,-90.9090909090909,4,2,1,5,0,1
56295,-90.9090909090909,4,2,1,80,0,1
57946,-90.9090909090909,4,2,1,90,0,1
58246,-90.9090909090909,4,2,1,80,0,1
58621,-90.9090909090909,4,2,1,5,0,1
58696,-90.9090909090909,4,2,1,80,0,1
59446,-90.9090909090909,4,2,1,75,0,1
60346,-90.9090909090909,4,2,2,90,0,1
60646,-90.9090909090909,4,2,1,80,0,1
61021,-90.9090909090909,4,2,1,5,0,1
61096,-90.9090909090909,4,2,1,80,0,1
62747,-90.9090909090909,4,2,1,90,0,1
63047,-90.9090909090909,4,2,1,80,0,1
63422,-90.9090909090909,4,2,1,5,0,1
63497,-90.9090909090909,4,2,1,80,0,1
65147,-90.9090909090909,4,2,1,90,0,1
65447,-90.9090909090909,4,2,1,80,0,1
65823,-90.9090909090909,4,2,1,5,0,1
65898,-90.9090909090909,4,2,1,80,0,1
67023,-90.9090909090909,4,2,1,5,0,1
67098,-90.9090909090909,4,2,1,80,0,1
67548,-90.9090909090909,4,2,1,90,0,1
68898,-80,4,2,1,75,0,1
69498,-100,4,2,1,80,0,0
69949,-100,4,2,1,65,0,0
70174,-100,4,2,1,5,0,0
70249,-100,4,2,1,65,0,0
74750,-90.9090909090909,4,2,2,90,0,1
75050,-90.9090909090909,4,2,1,80,0,1
75425,-90.9090909090909,4,2,1,5,0,1
75500,-90.9090909090909,4,2,1,80,0,1
77150,-90.9090909090909,4,2,1,90,0,1
78501,-90.9090909090909,4,2,1,75,0,1
79101,-90.9090909090909,4,2,1,80,0,0
79551,-90.9090909090909,4,2,1,90,0,0
79851,-90.9090909090909,4,2,1,80,0,0
81651,-90.9090909090909,4,2,1,75,0,0
81952,-90.9090909090909,4,2,1,90,0,0
82252,-90.9090909090909,4,2,1,80,0,0
84352,-90.9090909090909,4,2,1,90,0,0
84652,-90.9090909090909,4,2,1,80,0,0
86753,-90.9090909090909,4,2,1,90,0,0
87053,-90.9090909090909,4,2,1,80,0,0
87953,-200,4,2,1,60,0,0
88103,-200,4,2,2,50,0,0
88253,-200,4,2,1,40,0,0
88403,-200,4,2,2,30,0,0
88553,-200,4,2,1,20,0,0
88703,-200,4,2,2,10,0,0

[Colours]
Combo1 : 250,180,120
Combo2 : 130,200,230
Combo3 : 255,230,140
Combo4 : 250,190,230

[HitObjects]
359,217,482,5,12,1:1:0:0:
359,217,555,1,0,3:0:0:0:
359,217,628,2,0,L|362:172,1,45,0|0,3:0|3:0,3:0:0:0:
250,39,774,2,0,L|253:83,1,45,12|0,1:1|3:0,0:0:0:0:
215,182,921,2,0,L|259:185,1,45,0|0,3:0|3:0,3:0:0:0:
393,73,1067,2,0,L|348:76,1,45,12|0,1:1|3:0,0:0:0:0:
149,100,1213,1,0,3:0:0:0:
149,100,1286,1,0,3:0:0:0:
149,100,1360,1,0,3:0:0:0:
213,350,1506,6,0,B|205:310|225:282|225:282|201:242|201:242|221:210|213:166,1,180.5,4|0,0:2|0:0,0:0:0:0:
215,182,3932,6,0,B|221:210|201:242|201:242|225:282|225:282|205:310|213:350,1,180,12|0,0:0|0:0,0:0:0:0:
97,231,4382,1,12,1:1:0:0:
318,260,4532,1,0,0:0:0:0:
318,260,4607,1,0,0:0:0:0:
318,260,4682,1,12,1:0:0:0:
231,55,4832,1,12,1:0:0:0:
215,182,4982,1,0,1:0:0:0:
358,71,5132,5,12,1:1:0:0:
356,82,5432,1,2,0:0:0:0:
358,93,5733,2,0,L|406:88,1,45
356,103,6033,1,2,0:0:0:0:
466,243,6183,1,2,0:0:0:0:
290,267,6333,6,0,B|242:243|198:267|198:267|154:291|116:271,1,180,6|2,0:0|0:0,0:0:0:0:
2,310,6783,2,0,P|67:315|117:273,1,135,8|0,0:0|0:0,0:0:0:0:
290,267,7083,2,0,P|246:276|203:265,1,90,2|2,0:0|0:0,0:0:0:0:
153,116,7383,1,8,0:0:0:0:
166,377,7533,1,0,0:0:0:0:
166,377,7683,6,0,L|161:287,1,90,2|2,0:0|0:0,0:0:0:0:
377,317,7983,2,0,L|381:227,1,90,8|2,0:0|0:0,0:0:0:0:
374,220,8208,1,2,0:0:0:0:
367,213,8283,2,0,L|362:123,1,90,2|2,0:0|0:0,0:0:0:0:
222,13,8583,1,8,0:0:0:0:
198,189,8733,6,0,B|207:243|207:243|189:273|189:273|196:317,1,135,6|0,0:0|0:0,0:0:0:0:
204,352,9033,1,2,0:0:0:0:
395,296,9183,2,0,P|336:324|275:300,1,135,8|0,0:0|0:0,0:0:0:0:
105,313,9483,2,0,B|119:224,1,90,2|2,0:0|0:0,0:0:0:0:
152,1,9784,1,8,0:0:0:0:
31,90,9934,1,2,0:0:0:0:
38,99,10009,1,2,0:0:0:0:
44,107,10084,6,0,B|133:111,1,90,2|0,0:0|0:0,0:0:0:0:
358,120,10384,1,8,0:0:0:0:
257,9,10534,1,2,0:0:0:0:
249,17,10609,1,2,0:0:0:0:
241,24,10684,2,0,L|245:114,1,90,2|0,0:0|0:0,0:0:0:0:
237,289,10984,1,8,0:0:0:0:
88,192,11134,6,0,B|139:201|139:201|171:178|171:178|258:193,1,180,6|2,0:0|0:0,0:0:0:0:
381,212,11584,2,0,B|319:176|319:176|257:192,1,135,8|0,0:0|0:0,0:0:0:0:
88,192,11884,2,0,B|129:168|129:168|170:179,1,90,2|2,0:0|0:0,0:0:0:0:
230,64,12184,1,8,0:0:0:0:
201,261,12334,1,0,0:0:0:0:
201,261,12484,6,0,L|206:351,1,90,2|2,0:0|0:0,0:0:0:0:
384,122,12784,2,0,L|380:212,1,90,8|2,0:0|0:0,0:0:0:0:
387,219,13009,1,2,0:0:0:0:
394,226,13084,2,0,L|399:316,1,90,2|2,0:0|0:0,0:0:0:0:
268,193,13384,1,8,0:0:0:0:
228,366,13534,6,0,P|180:299|77:314,1,180,6|0,0:0|0:0,0:0:0:0:
138,378,13985,5,8,0:0:0:0:
268,193,14135,1,2,0:0:0:0:
143,363,14285,5,8,0:0:0:0:
182,140,14435,1,2,0:0:0:0:
148,348,14585,5,8,0:0:0:0:
83,129,14735,2,0,L|87:173,1,45,2|2,0:0|0:0,0:0:0:0:
163,252,14885,5,8,3:2:0:0:
170,258,14960,1,0,3:2:0:0:
177,264,15035,2,0,L|232:259,1,49.5000015106202,8|0,3:2|3:2,0:2:0:0:
270,92,15185,5,2,3:2:0:0:
277,86,15260,1,0,3:2:0:0:
284,80,15335,2,0,L|339:84,1,49.5000015106202,2|0,3:2|3:2,0:2:0:0:
456,192,15485,5,8,0:2:0:0:
456,192,15635,1,8,0:2:0:0:
256,192,16085,5,2,0:0:0:0:
256,192,17185,6,0,L|256:208,2,15,2|2|2,0:0|0:0|0:0,0:0:0:0:
256,192,18036,6,0,L|253:160,1,22.5,0|0,0:0|0:0,0:0:0:0:
360,192,18186,2,0,L|351:292,1,101.250003862381,0|0,0:0|0:0,0:0:0:0:
197,348,18486,6,0,L|190:268,1,67.5000025749208,2|0,0:0|0:0,0:0:0:0:
185,344,18786,2,0,L|178:264,1,67.5000025749208,2|0,0:0|0:0,0:0:0:0:
173,340,19086,2,0,L|166:260,1,67.5000025749208,2|0,0:0|0:0,0:0:0:0:
153,104,19386,1,2,0:0:0:0:
153,104,19536,1,8,0:0:0:0:
162,205,19686,5,2,0:0:0:0:
162,205,19836,2,0,L|167:272,1,67.5000025749208,0|8,0:0|0:0,0:0:0:0:
254,248,20136,2,0,L|248:315,1,67.5000025749208,0|2,0:0|0:0,0:0:0:0:
337,189,20436,2,0,L|342:256,1,67.5000025749208,0|8,0:0|0:0,0:0:0:0:
429,232,20736,1,0,0:0:0:0:
328,88,20886,6,0,L|248:94,1,67.5000025749208,2|0,0:0|0:0,0:0:0:0:
324,100,21186,2,0,L|244:106,1,67.5000025749208,2|0,0:0|0:0,0:0:0:0:
320,112,21486,2,0,L|240:118,1,67.5000025749208,2|0,0:0|0:0,0:0:0:0:
87,130,21787,1,2,0:0:0:0:
87,130,21937,1,8,0:0:0:0:
252,117,22087,5,2,0:0:0:0:
180,266,22237,2,0,L|175:199,1,67.5000025749208,0|8,0:0|0:0,0:0:0:0:
350,185,22537,2,0,L|345:253,1,67.5000025749208,0|2,0:0|0:0,0:0:0:0:
267,292,22837,5,8,0:0:0:0:
252,117,22987,1,8,0:0:0:0:
267,292,23137,1,8,0:0:0:0:
107,217,23287,6,0,L|27:223,1,67.5000025749208,2|0,0:0|0:0,0:0:0:0:
103,229,23587,2,0,L|23:235,1,67.5000025749208,2|0,0:0|0:0,0:0:0:0:
99,241,23887,2,0,L|19:247,1,67.5000025749208,2|0,0:0|0:0,0:0:0:0:
143,140,24187,2,0,L|223:146,1,67.5000025749208,8|0,0:0|0:0,0:0:0:0:
279,218,24487,6,0,L|359:212,1,67.5000025749208,2|0,0:0|0:0,0:0:0:0:
283,206,24787,2,0,L|363:200,1,67.5000025749208,2|0,0:0|0:0,0:0:0:0:
287,194,25087,2,0,L|367:188,1,67.5000025749208,2|0,0:0|0:0,0:0:0:0:
449,294,25387,2,0,L|382:289,1,67.5000025749208,8|0,0:0|0:0,0:0:0:0:
191,288,25688,5,2,0:0:0:0:
191,288,25838,1,0,0:0:0:0:
157,157,25988,1,2,0:0:0:0:
287,194,26138,1,8,0:0:0:0:
190,287,26288,2,0,L|258:293,1,67.5000025749208,2|0,0:0|0:0,0:0:0:0:
354,188,26588,2,0,L|287:194,1,67.5000025749208,8|0,0:0|0:0,0:0:0:0:
211,77,26888,6,0,B|215:97|200:121|200:121|218:151|218:151|203:172|209:202,1,135.000005149842,2|2,0:0|0:0,0:0:0:0:
310,347,27338,1,8,0:0:0:0:
385,187,27488,1,2,0:0:0:0:
383,176,27788,1,8,0:0:0:0:
385,165,28088,5,8,0:0:0:0:
200,295,28238,1,2,0:0:0:0:
370,170,28388,5,8,0:0:0:0:
147,209,28538,1,2,0:0:0:0:
259,190,28688,5,8,3:2:0:0:
265,183,28763,1,0,3:2:0:0:
271,176,28838,2,0,L|266:121,1,49.5000015106202,8|0,3:2|3:2,0:2:0:0:
373,292,28988,6,0,L|369:347,1,49.5000015106202,2|0,3:2|3:2,0:2:0:0:
288,175,29138,2,0,L|284:120,1,49.5000015106202,2|0,3:2|3:2,0:2:0:0:
475,176,29288,5,6,0:0:0:0:
475,176,29438,1,2,0:0:0:0:
364,88,29588,2,0,P|365:43|372:0,1,90,8|2,0:0|0:0,0:0:0:0:
372,0,29889,1,2,0:0:0:0:
271,176,30039,2,0,P|262:131|247:89,1,90,8|0,0:0|0:0,0:0:0:0:
373,292,30339,6,0,P|388:249|410:210,1,90,8|0,0:0|0:0,0:0:0:0:
226,358,30639,1,2,0:0:0:0:
226,358,30789,2,0,P|202:319|174:284,2,90,8|0|0,0:0|0:0|0:0,0:0:0:0:
354,279,31239,1,2,0:0:0:0:
354,279,31389,2,0,P|369:236|391:197,1,90,8|0,0:0|0:0,0:0:0:0:
210,115,31689,5,2,0:0:0:0:
210,115,31839,1,2,0:0:0:0:
222,300,31989,2,0,L|126:292,1,90,8|0,0:0|0:0,0:0:0:0:
133,292,32289,1,2,0:0:0:0:
391,198,32439,2,0,L|295:207,1,90,8|0,0:0|0:0,0:0:0:0:
493,379,32739,6,0,B|373:369|373:369|406:360|425:325,1,180,8|2,0:0|0:0,0:0:0:0:
352,278,33189,1,8,0:2:0:0:
351,292,33339,1,0,0:0:0:0:
468,214,33489,1,2,0:0:0:0:
467,200,33639,1,2,0:0:0:0:
303,140,33790,1,8,0:0:0:0:
488,51,33940,2,0,L|432:46,1,45,2|2,0:2|0:0,0:0:0:0:
303,140,34090,5,2,0:0:0:0:
303,140,34240,1,2,0:0:0:0:
391,233,34390,2,0,P|436:234|479:241,1,90,8|0,0:0|0:0,0:0:0:0:
480,241,34690,1,2,0:0:0:0:
303,140,34840,2,0,P|348:131|390:116,1,90,8|0,0:0|0:0,0:0:0:0:
187,242,35140,6,0,P|230:257|269:279,1,90,8|0,0:0|0:0,0:0:0:0:
121,95,35440,1,2,0:0:0:0:
121,95,35590,2,0,P|160:71|195:43,1,90,8|0,0:0|0:0,0:0:0:0:
200,223,35890,2,0,P|243:238|282:260,1,90,0|2,0:0|0:0,0:0:0:0:
312,160,36190,2,0,P|356:152|399:137,1,90,8|0,0:0|0:0,0:0:0:0:
482,337,36490,6,0,P|419:302|344:335,1,135,8|0,0:0|0:0,0:0:0:0:
353,343,36790,2,0,L|237:332,1,99.0000030212403,8|0,0:0|0:0,0:0:0:0:
315,241,37090,2,0,L|199:230,1,99.0000030212403,8|0,0:0|0:0,0:0:0:0:
276,138,37390,2,0,L|160:127,1,99.0000030212403,8|0,0:0|0:0,0:0:0:0:
363,259,37691,5,8,0:0:0:0:
178,129,37841,1,2,0:0:0:0:
348,254,37991,5,8,0:0:0:0:
125,215,38141,1,2,0:0:0:0:
237,234,38291,5,8,3:2:0:0:
243,241,38366,1,0,3:0:0:0:
249,248,38441,2,0,L|243:308,1,45,8|0,3:2|0:0,0:0:0:0:
352,209,38591,2,0,L|346:269,1,45,2|0,3:2|0:0,0:0:0:0:
455,170,38741,2,0,L|449:230,1,45,2|0,3:2|0:0,0:0:0:0:
366,98,38891,6,0,B|326:90|326:90|310:98|310:98|294:106|294:106|246:98,3,118.799999637451,2|2|2|2,0:0|0:0|0:0|0:0,0:0:0:0:
158,170,39941,1,0,0:0:0:0:
158,170,40091,2,0,L|146:34,2,118.799999637451,2|2|2,0:0|0:0|0:0,0:0:0:0:
265,220,40841,6,0,L|261:264,1,45,2|2,0:0|0:0,0:0:0:0:
80,333,40991,2,0,P|144:309|208:341,1,135,8|0,0:0|0:0,0:0:0:0:
292,341,41291,6,0,B|332:349|332:349|348:341|348:341|364:333|364:333|412:341,3,118.799999637451,2|2|2|2,0:0|0:0|0:0|0:0,0:0:0:0:
500,269,42342,1,0,0:0:0:0:
500,269,42492,2,0,L|511:133,1,118.799999637451,2|2,0:0|0:0,0:0:0:0:
346,49,42942,1,0,0:0:0:0:
346,49,43017,1,0,0:0:0:0:
346,49,43092,6,0,B|355:97|355:97|346:116|346:116|336:135|336:135|342:177,1,135.000005149842,8|0,0:0|0:0,0:0:0:0:
377,308,43317,6,0,P|315:246|245:263,1,135.000005149842,8|0,0:0|0:0,0:0:0:0:
296,328,43542,5,8,0:0:0:0:
156,305,43692,5,2,0:0:0:0:
244,16,44142,1,2,0:0:0:0:
451,237,44592,1,2,0:0:0:0:
116,134,44892,5,2,0:0:0:0:
323,356,45342,1,2,0:0:0:0:
411,66,45793,1,2,0:0:0:0:
156,305,46093,5,12,0:0:0:0:
314,154,46243,1,2,0:0:0:0:
314,154,46393,1,2,0:0:0:0:
130,197,46543,5,12,0:0:0:0:
339,261,46693,1,2,0:0:0:0:
339,261,46843,1,2,0:0:0:0:
155,305,46993,2,0,P|100:304|52:276,1,112.5,12|2,0:0|0:0,0:0:0:0:
81,33,47293,5,12,0:0:0:0:
219,164,47443,1,2,0:0:0:0:
219,164,47593,1,2,0:0:0:0:
59,130,47743,5,12,0:0:0:0:
247,72,47893,1,2,0:0:0:0:
247,72,48043,1,2,0:0:0:0:
81,33,48193,1,12,0:0:0:0:
410,42,48343,1,2,0:0:0:0:
410,42,48418,1,2,0:0:0:0:
410,42,48493,6,0,L|415:109,1,67.5000025749208,14|0,1:2|0:0,0:0:0:0:
445,121,48943,6,0,L|439:188,1,67.5000025749208,14|0,1:2|0:0,0:0:0:0:
410,200,49393,6,0,L|415:267,1,67.5000025749208,14|0,1:2|0:0,0:0:0:0:
445,279,50294,5,0,0:0:0:0:
445,279,50444,1,0,0:0:0:0:
290,252,50744,6,0,B|218:264|218:264|178:240|178:240|98:252,1,198.000006042481,6|0,0:0|0:0,0:0:0:0:
28,199,51194,2,0,B|80:227|80:227|167:215,1,148.50000453186,8|0,0:0|0:0,0:0:0:0:
321,273,51494,2,0,L|223:289,1,99.0000030212403,2|2,0:0|0:0,0:0:0:0:
97,140,51794,1,8,0:0:0:0:
97,140,51944,1,0,0:0:0:0:
191,309,52094,5,2,0:0:0:0:
291,143,52244,2,0,L|389:159,1,99.0000030212403,0|8,0:0|0:0,0:0:0:0:
258,313,52544,2,0,L|160:329,1,99.0000030212403,0|2,0:0|0:0,0:0:0:0:
357,139,52844,2,0,L|259:123,1,99.0000030212403,2|8,0:0|0:0,0:0:0:0:
415,333,53144,6,0,B|343:345|343:345|303:321|303:321|225:332,1,198.000006042481,6|0,0:0|0:0,0:0:0:0:
344,158,53594,1,8,0:0:0:0:
342,169,53895,2,0,L|358:267,1,99.0000030212403,2|2,0:0|0:0,0:0:0:0:
372,363,54195,1,8,0:0:0:0:
225,332,54345,6,0,L|241:234,1,99.0000030212403,0|2,0:0|0:0,0:0:0:0:
440,263,54645,1,0,0:0:0:0:
440,263,54795,2,0,L|424:165,1,99.0000030212403,8|0,0:0|0:0,0:0:0:0:
317,137,55095,1,2,0:0:0:0:
240,234,55245,1,2,0:0:0:0:
424,165,55395,1,8,0:0:0:0:
399,356,55545,6,0,B|387:284|387:284|411:244|411:244|400:166,1,198.000006042481,4|2,0:0|0:0,0:0:0:0:
270,380,55995,2,0,P|329:338|399:355,1,148.50000453186,8|0,0:0|0:0,0:0:0:0:
490,339,56295,2,0,P|444:331|398:356,1,99.0000030212403,2|2,0:0|0:0,0:0:0:0:
400,166,56595,1,8,0:0:0:0:
399,354,56745,1,0,0:0:0:0:
235,70,56895,5,2,0:0:0:0:
144,241,57045,2,0,P|192:234|234:257,1,99.0000030212403,0|8,0:0|0:0,0:0:0:0:
479,120,57345,2,0,P|432:129|399:166,1,99.0000030212403,0|2,0:0|0:0,0:0:0:0:
177,0,57645,2,0,P|217:23|236:72,1,99.0000030212403,2|8,0:0|0:0,0:0:0:0:
328,331,57946,6,0,B|334:297|315:261|315:261|339:221|339:221|320:182|328:143,1,198.000006042481,6|2,0:0|0:0,0:0:0:0:
373,16,58396,1,8,0:0:0:0:
373,16,58696,1,2,0:0:0:0:
416,247,58846,1,8,0:0:0:0:
194,168,58996,1,8,0:0:0:0:
328,145,59146,1,6,0:0:0:0:
328,145,59446,5,2,0:2:0:0:
328,145,59521,1,2,0:2:0:0:
328,145,59596,2,0,L|331:195,1,49.5000015106202,10|0,3:2|3:0,0:0:0:0:
219,323,59746,2,0,L|222:275,1,49.5000015106202,8|0,3:2|3:0,0:0:0:0:
184,180,59896,2,0,L|232:177,1,49.5000015106202,2|0,3:2|3:0,0:0:0:0:
362,289,60046,2,0,L|312:286,1,49.5000015106202,2|0,3:2|3:0,0:0:0:0:
118,262,60196,1,2,0:2:0:0:
118,262,60271,1,2,0:0:0:0:
118,262,60346,6,0,B|130:190|130:190|106:150|106:150|118:70,1,198.000006042481,6|2,0:0|0:0,0:0:0:0:
65,0,60796,2,0,B|93:52|93:52|81:139,1,148.50000453186,8|0,0:0|0:0,0:0:0:0:
139,293,61096,2,0,L|155:195,1,99.0000030212403,2|2,0:0|0:0,0:0:0:0:
6,69,61396,1,8,0:0:0:0:
6,69,61546,1,0,0:0:0:0:
9,263,61697,5,2,0:0:0:0:
174,164,61847,1,0,0:0:0:0:
177,358,61997,1,8,0:0:0:0:
90,212,62147,2,0,L|74:114,1,99.0000030212403,0|2,0:0|0:0,0:0:0:0:
259,211,62447,2,0,L|275:113,1,99.0000030212403,2|8,0:0|0:0,0:0:0:0:
177,358,62747,6,0,B|188:280|188:280|164:240|164:240|176:168,1,198.000006042481,6|2,0:0|0:0,0:0:0:0:
351,239,63196,1,8,0:0:0:0:
340,241,63497,2,0,L|242:225,1,99.0000030212403,2|2,0:0|0:0,0:0:0:0:
106,310,63797,1,8,0:0:0:0:
364,120,63947,6,0,P|316:133|267:136,1,99.0000030212403,0|2,0:0|0:0,0:0:0:0:
309,345,64247,2,0,P|265:324|217:314,1,99.0000030212403,0|8,0:0|0:0,0:0:0:0:
135,194,64547,2,0,P|95:223|51:244,1,99.0000030212403,0|2,0:0|0:0,0:0:0:0:
313,327,64847,2,0,P|269:306|221:296,1,99.0000030212403,2|8,0:0|0:0,0:0:0:0:
135,6,65147,6,0,B|130:45|146:84|146:84|122:124|122:124|141:160|134:196,1,198.000006042481,6|2,0:0|0:0,0:0:0:0:
107,353,65597,1,8,0:0:0:0:
105,342,65898,1,2,0:0:0:0:
135,194,66048,1,2,0:0:0:0:
248,293,66198,2,0,L|264:195,1,99.0000030212403,8|0,0:0|0:0,0:0:0:0:
233,47,66498,5,2,0:0:0:0:
264,195,66648,1,2,0:0:0:0:
376,96,66798,2,0,L|392:194,1,99.0000030212403,8|0,0:0|0:0,0:0:0:0:
278,208,67098,2,0,L|262:306,1,99.0000030212403,2|2,0:0|0:0,0:0:0:0:
343,362,67398,1,8,0:0:0:0:
443,228,67548,6,0,B|432:151|432:151|456:111|456:111|444:39,1,198.000006042481,6|2,0:0|0:0,0:0:0:0:
434,38,67923,1,2,0:0:0:0:
424,37,67998,2,0,L|326:53,1,99.0000030212403,8|2,0:0|0:0,0:0:0:0:
142,183,68298,5,8,0:0:0:0:
327,53,68448,1,2,0:0:0:0:
157,178,68598,5,8,0:0:0:0:
380,139,68748,1,2,0:0:0:0:
268,158,68898,5,8,3:2:0:0:
262,165,68973,1,0,3:0:0:0:
256,172,69048,2,0,L|261:228,1,56.25,8|0,3:2|3:0,0:0:0:0:
166,70,69198,5,2,3:2:0:0:
160,63,69273,1,0,3:0:0:0:
154,56,69348,2,0,L|158:0,1,56.25,2|0,3:2|3:0,0:0:0:0:
16,192,69498,5,8,0:2:0:0:
16,192,69648,1,2,0:2:0:0:
120,328,69949,6,0,L|210:320,1,90,2|0,0:0|0:0,0:0:0:0:
339,165,70249,2,0,L|249:157,1,90,2|2,0:0|0:0,0:0:0:0:
131,312,70549,2,0,L|221:304,1,90,0|8,0:0|0:0,0:0:0:0:
260,141,70849,2,0,L|350:149,1,90,2|0,0:0|0:0,0:0:0:0:
234,289,71149,6,0,P|163:238|81:265,1,180,2|8,0:0|0:0,0:0:0:0:
1,305,71599,2,0,L|8:215,1,90,0|2,0:0|0:0,0:0:0:0:
86,176,71899,2,0,L|78:86,1,90,8|2,0:0|0:0,0:0:0:0:
1,47,72199,1,8,0:0:0:0:
155,37,72349,6,0,B|215:47|215:47|253:24|253:24|327:34,1,180,2|2,0:0|0:0,0:0:0:0:
412,80,72799,1,2,0:0:0:0:
410,69,73099,2,0,L|321:54,1,90,8|0,0:0|0:0,0:0:0:0:
232,38,73399,1,0,0:0:0:0:
66,123,73549,6,0,B|126:112|126:112|164:135|164:135|238:125,1,180,2|8,0:0|0:0,0:0:0:0:
321,91,73999,1,0,0:0:0:0:
325,277,74150,1,2,0:0:0:0:
325,277,74225,1,2,0:0:0:0:
325,277,74300,1,8,0:0:0:0:
321,91,74450,1,2,0:0:0:0:
162,188,74600,1,8,0:0:0:0:
376,182,74750,6,0,B|388:254|388:254|364:294|364:294|376:374,1,198.000006042481,6|2,0:0|0:0,0:0:0:0:
139,171,75200,1,8,0:0:0:0:
305,234,75350,1,0,0:0:0:0:
168,346,75500,2,0,L|152:248,1,99.0000030212403,2|2,0:0|0:0,0:0:0:0:
305,108,75800,1,8,0:0:0:0:
139,171,75950,1,0,0:0:0:0:
276,283,76100,6,0,L|292:185,1,99.0000030212403,2|2,0:0|0:0,0:0:0:0:
139,45,76400,1,8,0:0:0:0:
305,108,76550,1,0,0:0:0:0:
240,28,76700,2,0,L|224:126,1,99.0000030212403,2|2,0:0|0:0,0:0:0:0:
211,203,77000,1,8,0:0:0:0:
392,56,77150,6,0,B|404:128|404:128|380:168|380:168|392:248,1,198.000006042481,6|2,0:0|0:0,0:0:0:0:
153,289,77600,5,8,0:0:0:0:
338,159,77750,1,2,0:0:0:0:
168,284,77900,5,8,0:0:0:0:
391,245,78050,1,2,0:0:0:0:
183,279,78200,5,8,0:0:0:0:
402,344,78350,1,2,0:0:0:0:
279,264,78500,5,8,3:2:0:0:
273,257,78575,1,0,3:0:0:0:
267,250,78650,2,0,L|272:195,1,49.5000015106202,8|0,3:2|3:0,0:0:0:0:
439,157,78800,5,2,3:2:0:0:
445,150,78875,1,0,3:0:0:0:
451,143,78950,2,0,L|447:88,1,49.5000015106202,2|0,3:2|3:0,0:0:0:0:
208,33,79101,5,8,0:0:0:0:
208,33,79251,1,8,0:0:0:0:
358,101,79551,6,0,B|305:74|256:101|256:101|208:127|166:105,1,198.000006042481,6|2,0:0|0:0,0:0:0:0:
37,141,80001,2,0,P|109:148|168:106,1,148.50000453186,8|8,0:0|0:0,0:0:0:0:
81,44,80301,1,2,0:0:0:0:
157,215,80451,1,2,0:0:0:0:
268,64,80601,1,8,0:0:0:0:
157,215,80751,1,0,0:0:0:0:
157,215,80901,6,0,L|173:117,1,99.0000030212403,2|2,0:0|0:0,0:0:0:0:
359,332,81201,2,0,L|343:234,1,99.0000030212403,8|2,0:0|0:0,0:0:0:0:
132,375,81501,1,8,0:0:0:0:
24,242,81651,1,8,3:2:0:0:
51,216,81726,1,8,3:2:0:0:
85,202,81801,1,8,3:2:0:0:
122,202,81876,1,8,3:2:0:0:
157,215,81952,6,0,B|218:225|218:225|256:198|256:198|361:216,1,198.000006042481,6|2,0:0|0:0,0:0:0:0:
478,240,82402,2,0,B|403:196|403:196|329:216,1,148.50000453186,8|8,0:0|0:0,0:0:0:0:
389,306,82702,1,2,0:0:0:0:
239,204,82852,1,2,0:0:0:0:
402,125,83002,1,8,0:0:0:0:
314,345,83152,6,0,B|303:267|303:267|327:227|327:227|315:155,1,198.000006042481,6|2,0:0|0:0,0:0:0:0:
419,4,83602,2,0,L|403:102,1,99.0000030212403,8|0,0:0|0:0,0:0:0:0:
403,115,83827,1,8,0:0:0:0:
402,125,83902,1,2,0:0:0:0:
239,204,84052,1,2,0:0:0:0:
252,23,84202,1,8,0:0:0:0:
392,283,84352,6,0,B|339:256|290:283|290:283|242:309|200:287,1,198.000006042481,2|2,0:0|0:0,0:0:0:0:
0,325,84802,2,0,P|47:329|87:301,1,99.0000030212403,8|2,0:0|0:0,0:0:0:0:
118,97,85102,2,0,L|134:195,1,99.0000030212403,8|2,0:0|0:0,0:0:0:0:
203,288,85402,1,2,0:0:0:0:
326,119,85552,6,0,P|398:112|466:215,1,198.000006042481,6|8,0:0|0:0,0:0:0:0:
467,214,85928,1,8,0:0:0:0:
465,223,86003,1,8,0:0:0:0:
294,355,86153,1,8,0:0:0:0:
369,201,86303,1,8,0:0:0:0:
200,212,86453,1,8,0:0:0:0:
290,259,86603,1,8,0:0:0:0:
291,69,86753,6,0,B|303:141|303:141|279:181|279:181|290:259,1,198.000006042481,6|2,0:0|0:0,0:0:0:0:
292,268,87128,1,2,0:0:0:0:
295,278,87203,1,8,0:0:0:0:
473,170,87353,1,2,0:0:0:0:
291,69,87503,1,8,0:0:0:0:
353,172,87653,1,8,0:0:0:0:
353,172,87803,1,8,0:0:0:0:
171,72,87953,6,2,B|184:116|156:158|156:158|185:206|185:206|161:243|172:300,1,225,6|0,0:0|0:0,0:0:0:0:
