osu file format v14

[General]
AudioFilename: audio.mp3
AudioLeadIn: 0
PreviewTime: 50219
Countdown: 0
SampleSet: Soft
StackLeniency: 0.7
Mode: 3
LetterboxInBreaks: 0
SpecialStyle: 0
WidescreenStoryboard: 0

[Editor]
DistanceSpacing: 1.1
BeatDivisor: 4
GridSize: 4
TimelineZoom: 1.9

[Metadata]
Title:Brave Freak Out -TV ver.-
TitleUnicode:Brave Freak Out -TV ver.-
Artist:LiSA
ArtistUnicode:LiSA
Creator:Verniy_Chan
Version:NM Lv.8
Source:クオリディア・コード
Tags:Qualidea Code OP Opening Risa Oribe Tomoya Tabuchi Koichiro Takahashi 10th Single Kyousuke-
BeatmapID:1032262
BeatmapSetID:483862

[Difficulty]
HPDrainRate:7.5
CircleSize:5
OverallDifficulty:7
ApproachRate:5
SliderMultiplier:1.4
SliderTickRate:1

[Events]
//Background and Video events
0,0,"Verniy_Chan Original BG Edit.jpg",0,0
Video,0,"OP video.avi"
//Break Periods
//Storyboard Layer 0 (Background)
//Storyboard Layer 1 (Fail)
//Storyboard Layer 2 (Pass)
//Storyboard Layer 3 (Foreground)
//Storyboard Sound Samples

[TimingPoints]
482,292.682926829268,4,2,1,50,1,0
482,-102.040816326531,4,2,1,50,0,0
1506,352.941176470588,4,2,1,50,1,0
1506,-84.7457627118644,4,2,1,50,0,0
1682,300.075018754689,4,2,1,50,1,0
16085,-100,4,2,1,25,0,0
18186,-100,4,2,1,50,0,0
50744,-100,4,2,1,50,0,1
69949,-100,4,2,1,50,0,0

[HitObjects]
153,192,482,5,2,0:0:0:0:
358,192,628,1,2,0:0:0:0:
51,192,774,1,8,0:0:0:0:
256,192,774,1,0,0:0:0:0:
460,192,921,1,2,0:0:0:0:
256,192,1067,1,2,0:0:0:0:
51,192,1213,1,2,0:0:0:0:
358,192,1360,1,0,0:0:0:0:
153,192,1360,1,8,0:0:0:0:
51,192,1506,1,2,0:0:0:0:
460,192,1506,128,4,1982:0:0:0:0:
256,192,1982,1,0,0:0:0:0:
358,192,2282,1,0,0:0:0:0:
460,192,2582,1,0,0:0:0:0:
256,192,2732,128,0,3032:0:0:0:0:
51,192,3032,1,0,0:0:0:0:
153,192,3182,1,0,0:0:0:0:
256,192,3332,1,0,0:0:0:0:
358,192,3482,1,0,0:0:0:0:
51,192,3632,128,0,3932:0:0:0:0:
256,192,3932,1,2,0:0:0:0:
460,192,3932,1,4,0:0:0:0:
358,192,4232,1,2,0:0:0:0:
460,192,4382,1,8,0:0:0:0:
153,192,4382,1,0,0:0:0:0:
256,192,4532,1,2,0:0:0:0:
64,192,4682,1,8,0:0:0:0:
358,192,4682,1,0,0:0:0:0:
153,192,4832,1,2,0:0:0:0:
460,192,4982,1,8,0:0:0:0:
256,192,4982,1,0,0:0:0:0:
358,192,5132,128,0,5432:0:0:0:0:
51,192,5132,1,2,0:0:0:0:
153,192,5432,1,0,0:0:0:0:
256,192,5733,1,0,0:0:0:0:
358,192,5883,1,0,0:0:0:0:
460,192,6033,128,0,6333:0:0:0:0:
256,192,6333,1,2,0:0:0:0:
51,192,6333,1,4,0:0:0:0:
358,192,6633,1,2,0:0:0:0:
153,192,6783,1,8,0:0:0:0:
460,192,6783,1,0,0:0:0:0:
256,192,7083,1,2,0:0:0:0:
153,192,7233,1,2,0:0:0:0:
51,192,7383,1,8,0:0:0:0:
460,192,7383,1,0,0:0:0:0:
256,192,7683,1,2,0:0:0:0:
358,192,7833,1,2,0:0:0:0:
460,192,7983,1,8,0:0:0:0:
51,192,7983,1,0,0:0:0:0:
153,192,8133,1,2,0:0:0:0:
256,192,8433,1,2,0:0:0:0:
358,192,8583,1,8,0:0:0:0:
51,192,8583,1,0,0:0:0:0:
153,192,8733,1,2,0:0:0:0:
460,192,8733,1,4,0:0:0:0:
256,192,9033,1,2,0:0:0:0:
153,192,9183,1,8,0:0:0:0:
358,192,9183,1,0,0:0:0:0:
460,192,9483,1,2,0:0:0:0:
358,192,9633,1,2,0:0:0:0:
256,192,9784,1,8,0:0:0:0:
51,192,9784,1,0,0:0:0:0:
460,192,9934,1,2,0:0:0:0:
153,192,10234,1,2,0:0:0:0:
51,192,10384,1,8,0:0:0:0:
460,192,10384,1,0,0:0:0:0:
256,192,10534,1,2,0:0:0:0:
51,192,10834,1,2,0:0:0:0:
358,192,10984,1,8,0:0:0:0:
153,192,10984,1,0,0:0:0:0:
460,192,11134,1,4,0:0:0:0:
256,192,11134,1,2,0:0:0:0:
51,192,11434,1,2,0:0:0:0:
153,192,11584,1,0,0:0:0:0:
358,192,11584,1,8,0:0:0:0:
256,192,11884,1,2,0:0:0:0:
153,192,12034,1,2,0:0:0:0:
51,192,12184,1,8,0:0:0:0:
460,192,12184,1,0,0:0:0:0:
256,192,12484,1,2,0:0:0:0:
358,192,12634,1,2,0:0:0:0:
460,192,12784,1,8,0:0:0:0:
153,192,12784,1,0,0:0:0:0:
51,192,12934,1,2,0:0:0:0:
256,192,13234,1,2,0:0:0:0:
358,192,13384,1,8,0:0:0:0:
153,192,13384,1,0,0:0:0:0:
460,192,13534,1,2,0:0:0:0:
51,192,13534,1,4,0:0:0:0:
358,192,13835,1,2,0:0:0:0:
256,192,13985,1,8,0:0:0:0:
51,192,13985,1,0,0:0:0:0:
460,192,14135,1,2,0:0:0:0:
153,192,14285,1,8,0:0:0:0:
358,192,14285,1,0,0:0:0:0:
51,192,14435,1,2,0:0:0:0:
256,192,14585,1,0,0:0:0:0:
460,192,14585,1,8,0:0:0:0:
358,192,14735,1,2,0:0:0:0:
153,192,14885,1,8,0:0:0:0:
256,192,15035,1,2,0:0:0:0:
358,192,15185,1,2,0:0:0:0:
460,192,15335,1,2,0:0:0:0:
51,192,15485,1,8,0:0:0:0:
256,192,15485,1,0,0:0:0:0:
358,192,15635,1,8,0:0:0:0:
153,192,15635,1,0,0:0:0:0:
256,192,16085,128,0,17135:0:0:0:0:
51,192,17135,128,0,17285:0:0:0:0:
460,192,17285,1,0,0:0:0:0:
256,192,18186,1,4,0:0:0:0:
51,192,18486,1,2,0:0:0:0:
460,192,18486,128,4,20886:0:0:0:0:
358,192,18786,1,2,0:0:0:0:
153,192,19086,1,2,0:0:0:0:
51,192,19386,1,2,0:0:0:0:
256,192,19536,1,8,0:0:0:0:
358,192,19536,1,0,0:0:0:0:
153,192,19686,1,2,0:0:0:0:
51,192,19986,1,8,0:0:0:0:
256,192,19986,1,0,0:0:0:0:
358,192,20286,1,2,0:0:0:0:
51,192,20586,1,0,0:0:0:0:
153,192,20586,1,8,0:0:0:0:
256,192,20886,1,2,0:0:0:0:
51,192,20886,128,0,22687:0:0:0:0:
153,192,21186,1,2,0:0:0:0:
358,192,21486,1,2,0:0:0:0:
460,192,21787,1,2,0:0:0:0:
256,192,21937,1,0,0:0:0:0:
153,192,21937,1,8,0:0:0:0:
358,192,22087,1,2,0:0:0:0:
153,192,22387,1,8,0:0:0:0:
460,192,22387,1,0,0:0:0:0:
256,192,22687,1,2,0:0:0:0:
460,192,22837,1,8,0:0:0:0:
358,192,22837,1,0,0:0:0:0:
153,192,22987,1,8,0:0:0:0:
51,192,22987,1,0,0:0:0:0:
460,192,23137,1,0,0:0:0:0:
358,192,23137,1,8,0:0:0:0:
256,192,23287,1,4,0:0:0:0:
51,192,23287,1,2,0:0:0:0:
153,192,23587,1,2,0:0:0:0:
358,192,23887,1,2,0:0:0:0:
51,192,24187,1,8,0:0:0:0:
256,192,24187,1,0,0:0:0:0:
460,192,24487,1,2,0:0:0:0:
153,192,24787,1,2,0:0:0:0:
358,192,25087,1,2,0:0:0:0:
460,192,25387,1,8,0:0:0:0:
256,192,25387,1,0,0:0:0:0:
51,192,25688,1,2,0:0:0:0:
358,192,25988,1,2,0:0:0:0:
153,192,26138,1,8,0:0:0:0:
460,192,26138,1,0,0:0:0:0:
256,192,26288,1,2,0:0:0:0:
153,192,26588,1,0,0:0:0:0:
358,192,26588,1,8,0:0:0:0:
51,192,26888,1,2,0:0:0:0:
460,192,27188,1,2,0:0:0:0:
153,192,27338,1,8,0:0:0:0:
358,192,27338,1,0,0:0:0:0:
51,192,27488,1,2,0:0:0:0:
256,192,27788,1,0,0:0:0:0:
460,192,27788,1,8,0:0:0:0:
358,192,28088,1,0,0:0:0:0:
51,192,28088,1,8,0:0:0:0:
153,192,28238,1,2,0:0:0:0:
256,192,28388,1,8,0:0:0:0:
460,192,28388,1,0,0:0:0:0:
51,192,28538,1,2,0:0:0:0:
358,192,28688,1,8,0:0:0:0:
256,192,28838,1,2,0:0:0:0:
153,192,28988,1,2,0:0:0:0:
51,192,29138,1,2,0:0:0:0:
256,192,29288,1,2,0:0:0:0:
460,192,29288,1,4,0:0:0:0:
358,192,29438,1,2,0:0:0:0:
153,192,29588,1,0,0:0:0:0:
460,192,29588,1,8,0:0:0:0:
256,192,29889,1,2,0:0:0:0:
358,192,30039,1,8,0:0:0:0:
153,192,30039,1,0,0:0:0:0:
153,192,30339,1,8,0:0:0:0:
358,192,30339,1,0,0:0:0:0:
51,192,30639,1,2,0:0:0:0:
460,192,30789,1,8,0:0:0:0:
256,192,30789,1,0,0:0:0:0:
358,192,31089,1,0,0:0:0:0:
153,192,31239,1,2,0:0:0:0:
51,192,31389,1,8,0:0:0:0:
460,192,31389,1,0,0:0:0:0:
256,192,31689,1,2,0:0:0:0:
358,192,31839,1,2,0:0:0:0:
460,192,31989,1,0,0:0:0:0:
153,192,31989,1,8,0:0:0:0:
51,192,32289,1,2,0:0:0:0:
256,192,32439,1,8,0:0:0:0:
460,192,32439,1,0,0:0:0:0:
256,192,32739,1,8,0:0:0:0:
460,192,32739,1,0,0:0:0:0:
358,192,33039,1,2,0:0:0:0:
153,192,33189,1,8,0:0:0:0:
51,192,33189,1,0,0:0:0:0:
256,192,33489,1,2,0:0:0:0:
460,192,33639,1,2,0:0:0:0:
358,192,33790,1,0,0:0:0:0:
51,192,33790,128,8,34090:0:0:0:0:
256,192,34090,1,2,0:0:0:0:
460,192,34090,1,4,0:0:0:0:
153,192,34240,1,2,0:0:0:0:
51,192,34390,1,8,0:0:0:0:
358,192,34390,1,0,0:0:0:0:
460,192,34690,1,2,0:0:0:0:
256,192,34840,1,8,0:0:0:0:
51,192,34840,1,0,0:0:0:0:
256,192,35140,1,8,0:0:0:0:
51,192,35140,1,0,0:0:0:0:
153,192,35440,1,2,0:0:0:0:
460,192,35590,1,8,0:0:0:0:
358,192,35590,1,0,0:0:0:0:
256,192,35890,1,0,0:0:0:0:
153,192,36040,1,2,0:0:0:0:
51,192,36190,1,8,0:0:0:0:
460,192,36190,1,0,0:0:0:0:
358,192,36340,1,2,0:0:0:0:
51,192,36490,1,8,0:0:0:0:
256,192,36490,1,0,0:0:0:0:
153,192,36790,1,8,0:0:0:0:
358,192,36790,1,0,0:0:0:0:
460,192,37090,1,0,0:0:0:0:
256,192,37090,1,8,0:0:0:0:
51,192,37240,1,2,0:0:0:0:
358,192,37390,1,8,0:0:0:0:
153,192,37390,1,0,0:0:0:0:
460,192,37540,1,2,0:0:0:0:
51,192,37691,1,8,0:0:0:0:
256,192,37691,1,0,0:0:0:0:
358,192,37841,1,2,0:0:0:0:
51,192,37991,1,8,0:0:0:0:
460,192,37991,1,0,0:0:0:0:
153,192,38141,1,2,0:0:0:0:
460,192,38291,1,8,0:0:0:0:
358,192,38441,1,8,0:0:0:0:
256,192,38591,1,8,0:0:0:0:
153,192,38741,1,8,0:0:0:0:
51,192,38891,1,4,0:0:0:0:
460,192,38891,1,2,0:0:0:0:
256,192,39191,1,2,0:0:0:0:
460,192,39341,1,2,0:0:0:0:
51,192,39491,1,2,0:0:0:0:
358,192,39791,1,2,0:0:0:0:
153,192,40091,1,2,0:0:0:0:
256,192,40391,1,2,0:0:0:0:
358,192,40691,1,2,0:0:0:0:
153,192,40841,1,2,0:0:0:0:
460,192,40991,1,4,0:0:0:0:
51,192,40991,1,8,0:0:0:0:
358,192,41291,1,2,0:0:0:0:
256,192,41591,1,2,0:0:0:0:
51,192,41892,1,2,0:0:0:0:
460,192,42192,1,2,0:0:0:0:
358,192,42492,1,2,0:0:0:0:
153,192,42792,1,2,0:0:0:0:
460,192,42942,1,2,0:0:0:0:
256,192,43092,1,0,0:0:0:0:
51,192,43092,1,8,0:0:0:0:
153,192,43317,1,8,0:0:0:0:
358,192,43317,1,0,0:0:0:0:
256,192,43542,1,8,0:0:0:0:
460,192,43542,1,0,0:0:0:0:
51,192,43692,1,4,0:0:0:0:
358,192,43692,1,2,0:0:0:0:
256,192,44142,1,2,0:0:0:0:
460,192,44142,1,4,0:0:0:0:
153,192,44592,1,2,0:0:0:0:
358,192,44592,1,4,0:0:0:0:
460,192,44892,1,2,0:0:0:0:
51,192,44892,1,4,0:0:0:0:
153,192,45342,1,2,0:0:0:0:
358,192,45342,1,4,0:0:0:0:
51,192,45793,1,2,0:0:0:0:
256,192,45793,1,4,0:0:0:0:
358,192,46093,1,8,0:0:0:0:
460,192,46093,1,0,0:0:0:0:
51,192,46243,1,2,0:0:0:0:
358,192,46393,1,2,0:0:0:0:
256,192,46543,1,8,0:0:0:0:
51,192,46543,1,0,0:0:0:0:
460,192,46693,1,2,0:0:0:0:
153,192,46843,1,2,0:0:0:0:
256,192,46993,1,8,0:0:0:0:
460,192,46993,1,0,0:0:0:0:
358,192,47143,1,2,0:0:0:0:
51,192,47293,1,8,0:0:0:0:
153,192,47293,1,0,0:0:0:0:
460,192,47443,1,2,0:0:0:0:
153,192,47593,1,2,0:0:0:0:
256,192,47743,1,8,0:0:0:0:
460,192,47743,1,0,0:0:0:0:
51,192,47893,1,2,0:0:0:0:
358,192,48043,1,2,0:0:0:0:
51,192,48193,1,8,0:0:0:0:
256,192,48193,1,0,0:0:0:0:
153,192,48343,1,2,0:0:0:0:
460,192,48493,1,8,0:0:0:0:
358,192,48493,1,0,0:0:0:0:
358,192,48943,1,0,0:0:0:0:
153,192,48943,1,8,0:0:0:0:
460,192,49393,1,8,0:0:0:0:
51,192,49393,1,0,0:0:0:0:
51,192,50744,5,2,0:0:0:0:
460,192,50744,1,4,0:0:0:0:
256,192,50744,1,8,0:0:0:0:
358,192,51044,1,2,0:0:0:0:
153,192,51194,1,8,0:0:0:0:
51,192,51194,1,0,0:0:0:0:
460,192,51494,1,2,0:0:0:0:
358,192,51644,1,2,0:0:0:0:
256,192,51794,1,8,0:0:0:0:
51,192,51794,1,0,0:0:0:0:
153,192,52094,1,2,0:0:0:0:
358,192,52244,1,2,0:0:0:0:
51,192,52394,1,8,0:0:0:0:
460,192,52394,1,0,0:0:0:0:
256,192,52694,1,2,0:0:0:0:
153,192,52844,1,2,0:0:0:0:
51,192,52994,1,8,0:0:0:0:
460,192,52994,1,0,0:0:0:0:
358,192,53144,1,2,0:0:0:0:
153,192,53144,1,4,0:0:0:0:
51,192,53444,1,2,0:0:0:0:
358,192,53594,1,8,0:0:0:0:
460,192,53594,1,0,0:0:0:0:
256,192,53895,1,2,0:0:0:0:
358,192,54045,1,2,0:0:0:0:
51,192,54195,1,8,0:0:0:0:
460,192,54195,1,0,0:0:0:0:
153,192,54495,1,2,0:0:0:0:
358,192,54645,1,2,0:0:0:0:
51,192,54795,1,8,0:0:0:0:
256,192,54795,1,0,0:0:0:0:
460,192,55095,1,2,0:0:0:0:
51,192,55245,1,2,0:0:0:0:
358,192,55395,1,8,0:0:0:0:
153,192,55395,1,0,0:0:0:0:
460,192,55545,1,4,0:0:0:0:
51,192,55545,1,2,0:0:0:0:
256,192,55845,1,2,0:0:0:0:
153,192,55995,1,8,0:0:0:0:
460,192,55995,1,0,0:0:0:0:
51,192,56295,128,2,57796:0:0:0:0:
358,192,56295,1,0,0:0:0:0:
153,192,56445,1,2,0:0:0:0:
256,192,56595,1,0,0:0:0:0:
460,192,56595,1,8,0:0:0:0:
358,192,56895,1,2,0:0:0:0:
256,192,57045,1,2,0:0:0:0:
358,192,57195,1,8,0:0:0:0:
460,192,57195,1,0,0:0:0:0:
153,192,57495,1,2,0:0:0:0:
358,192,57645,1,2,0:0:0:0:
256,192,57796,1,8,0:0:0:0:
460,192,57796,1,0,0:0:0:0:
358,192,57946,1,2,0:0:0:0:
153,192,57946,1,4,0:0:0:0:
51,192,58246,1,2,0:0:0:0:
256,192,58396,1,8,0:0:0:0:
460,192,58396,1,0,0:0:0:0:
153,192,58696,1,2,0:0:0:0:
460,192,58846,1,8,0:0:0:0:
358,192,58846,1,0,0:0:0:0:
51,192,58996,1,8,0:0:0:0:
153,192,58996,1,0,0:0:0:0:
256,192,59146,128,2,59446:0:0:0:0:
460,192,59146,1,4,0:0:0:0:
51,192,59446,1,2,0:0:0:0:
153,192,59596,1,2,0:0:0:0:
256,192,59746,1,2,0:0:0:0:
358,192,59896,1,8,0:0:0:0:
460,192,59896,1,0,0:0:0:0:
153,192,60046,1,2,0:0:0:0:
460,192,60196,1,0,0:0:0:0:
358,192,60196,1,8,0:0:0:0:
51,192,60346,1,2,0:0:0:0:
256,192,60346,1,4,0:0:0:0:
358,192,60646,1,2,0:0:0:0:
51,192,60796,1,8,0:0:0:0:
153,192,60796,1,0,0:0:0:0:
460,192,61096,1,2,0:0:0:0:
358,192,61246,1,2,0:0:0:0:
256,192,61396,1,0,0:0:0:0:
51,192,61396,1,8,0:0:0:0:
153,192,61697,1,2,0:0:0:0:
358,192,61847,1,2,0:0:0:0:
460,192,61997,1,8,0:0:0:0:
51,192,61997,1,0,0:0:0:0:
256,192,62297,1,2,0:0:0:0:
51,192,62447,1,2,0:0:0:0:
358,192,62597,1,0,0:0:0:0:
153,192,62597,1,8,0:0:0:0:
460,192,62747,1,2,0:0:0:0:
51,192,62747,1,4,0:0:0:0:
256,192,63047,1,2,0:0:0:0:
358,192,63197,1,8,0:0:0:0:
460,192,63197,1,0,0:0:0:0:
51,192,63497,1,2,0:0:0:0:
153,192,63647,1,2,0:0:0:0:
256,192,63797,1,8,0:0:0:0:
460,192,63797,1,0,0:0:0:0:
358,192,64097,1,2,0:0:0:0:
153,192,64247,1,2,0:0:0:0:
51,192,64397,1,8,0:0:0:0:
256,192,64397,1,0,0:0:0:0:
460,192,64697,1,2,0:0:0:0:
358,192,64847,1,2,0:0:0:0:
256,192,64997,1,8,0:0:0:0:
51,192,64997,1,0,0:0:0:0:
153,192,65147,1,4,0:0:0:0:
358,192,65147,1,2,0:0:0:0:
51,192,65447,1,2,0:0:0:0:
256,192,65597,1,8,0:0:0:0:
460,192,65597,128,0,67398:0:0:0:0:
153,192,65898,1,2,0:0:0:0:
256,192,66048,1,2,0:0:0:0:
358,192,66198,1,8,0:0:0:0:
51,192,66198,1,0,0:0:0:0:
153,192,66498,1,2,0:0:0:0:
358,192,66648,1,2,0:0:0:0:
256,192,66798,1,0,0:0:0:0:
51,192,66798,1,8,0:0:0:0:
153,192,67098,1,2,0:0:0:0:
358,192,67248,1,2,0:0:0:0:
256,192,67398,1,8,0:0:0:0:
153,192,67398,1,0,0:0:0:0:
51,192,67548,1,4,0:0:0:0:
358,192,67548,1,2,0:0:0:0:
256,192,67848,1,2,0:0:0:0:
153,192,67998,1,0,0:0:0:0:
358,192,67998,1,8,0:0:0:0:
51,192,68148,1,2,0:0:0:0:
460,192,68298,1,8,0:0:0:0:
256,192,68298,1,0,0:0:0:0:
51,192,68448,1,2,0:0:0:0:
358,192,68598,1,8,0:0:0:0:
153,192,68598,1,0,0:0:0:0:
460,192,68748,1,2,0:0:0:0:
51,192,68898,1,8,0:0:0:0:
153,192,69048,1,2,0:0:0:0:
256,192,69198,1,2,0:0:0:0:
358,192,69348,1,2,0:0:0:0:
51,192,69498,1,0,0:0:0:0:
153,192,69498,1,8,0:0:0:0:
460,192,69648,1,2,0:0:0:0:
358,192,69648,1,0,0:0:0:0:
51,192,69949,1,2,0:0:0:0:
460,192,69949,1,4,0:0:0:0:
256,192,70249,1,2,0:0:0:0:
460,192,70399,1,2,0:0:0:0:
358,192,70699,1,8,0:0:0:0:
153,192,70699,1,0,0:0:0:0:
51,192,71149,1,2,0:0:0:0:
460,192,71449,1,8,0:0:0:0:
256,192,71449,1,0,0:0:0:0:
153,192,71749,1,2,0:0:0:0:
358,192,71899,1,8,0:0:0:0:
460,192,71899,1,0,0:0:0:0:
153,192,72049,1,2,0:0:0:0:
358,192,72199,1,0,0:0:0:0:
460,192,72199,1,8,0:0:0:0:
51,192,72349,1,4,0:0:0:0:
256,192,72349,1,2,0:0:0:0:
358,192,72649,1,2,0:0:0:0:
153,192,72799,1,2,0:0:0:0:
460,192,73099,1,8,0:0:0:0:
256,192,73099,1,0,0:0:0:0:
51,192,73549,1,2,0:0:0:0:
256,192,73850,1,8,0:0:0:0:
460,192,73850,1,0,0:0:0:0:
358,192,74150,1,2,0:0:0:0:
153,192,74300,1,8,0:0:0:0:
51,192,74300,1,0,0:0:0:0:
358,192,74450,1,2,0:0:0:0:
153,192,74600,1,8,0:0:0:0:
51,192,74600,1,0,0:0:0:0:
256,192,74750,1,2,0:0:0:0:
460,192,74750,128,4,75800:0:0:0:0:
51,192,75050,1,2,0:0:0:0:
153,192,75200,1,8,0:0:0:0:
358,192,75200,1,0,0:0:0:0:
256,192,75500,1,2,0:0:0:0:
153,192,75650,1,2,0:0:0:0:
51,192,75800,1,8,0:0:0:0:
358,192,75800,1,0,0:0:0:0:
256,192,76100,1,2,0:0:0:0:
358,192,76250,1,2,0:0:0:0:
460,192,76400,1,8,0:0:0:0:
51,192,76400,1,0,0:0:0:0:
358,192,76700,1,2,0:0:0:0:
256,192,76850,1,2,0:0:0:0:
153,192,77000,1,8,0:0:0:0:
358,192,77000,1,0,0:0:0:0:
460,192,77150,1,4,0:0:0:0:
51,192,77150,1,2,0:0:0:0:
256,192,77450,1,2,0:0:0:0:
358,192,77600,1,8,0:0:0:0:
153,192,77600,1,0,0:0:0:0:
460,192,77751,1,2,0:0:0:0:
256,192,77901,1,8,0:0:0:0:
51,192,77901,1,0,0:0:0:0:
460,192,78051,1,2,0:0:0:0:
358,192,78201,1,8,0:0:0:0:
153,192,78201,1,0,0:0:0:0:
51,192,78351,1,2,0:0:0:0:
460,192,78501,1,8,0:0:0:0:
358,192,78651,1,2,0:0:0:0:
256,192,78801,1,2,0:0:0:0:
153,192,78951,1,2,0:0:0:0:
51,192,79101,1,8,0:0:0:0:
460,192,79101,1,0,0:0:0:0:
460,192,79251,1,8,0:0:0:0:
51,192,79251,1,0,0:0:0:0:
153,192,79551,1,2,0:0:0:0:
358,192,79551,128,4,79851:0:0:0:0:
51,192,79851,1,2,0:0:0:0:
256,192,80001,1,8,0:0:0:0:
460,192,80001,1,0,0:0:0:0:
358,192,80226,1,8,0:0:0:0:
153,192,80301,1,2,0:0:0:0:
51,192,80601,1,8,0:0:0:0:
460,192,80601,1,0,0:0:0:0:
256,192,80751,128,0,81051:0:0:0:0:
460,192,81051,1,2,0:0:0:0:
153,192,81201,1,8,0:0:0:0:
358,192,81351,1,2,0:0:0:0:
51,192,81501,1,8,0:0:0:0:
153,192,81651,1,8,0:0:0:0:
256,192,81802,1,8,0:0:0:0:
358,192,81952,1,4,0:0:0:0:
51,192,81952,1,2,0:0:0:0:
153,192,82252,1,2,0:0:0:0:
460,192,82402,1,0,0:0:0:0:
256,192,82402,1,8,0:0:0:0:
358,192,82627,1,8,0:0:0:0:
153,192,82702,1,2,0:0:0:0:
358,192,83002,1,0,0:0:0:0:
51,192,83002,1,8,0:0:0:0:
460,192,83152,1,2,0:0:0:0:
256,192,83152,128,4,83452:0:0:0:0:
51,192,83452,1,2,0:0:0:0:
358,192,83602,1,8,0:0:0:0:
153,192,83752,1,0,0:0:0:0:
460,192,83902,1,2,0:0:0:0:
358,192,84052,1,2,0:0:0:0:
256,192,84202,1,8,0:0:0:0:
460,192,84352,1,4,0:0:0:0:
153,192,84352,1,2,0:0:0:0:
358,192,84652,1,2,0:0:0:0:
256,192,84802,1,8,0:0:0:0:
51,192,84802,1,0,0:0:0:0:
460,192,84952,1,2,0:0:0:0:
358,192,85102,1,8,0:0:0:0:
256,192,85252,1,8,0:0:0:0:
153,192,85402,1,8,0:0:0:0:
460,192,85552,1,2,0:0:0:0:
51,192,85552,128,4,85853:0:0:0:0:
256,192,85853,1,8,0:0:0:0:
358,192,86003,1,8,0:0:0:0:
460,192,86153,1,8,0:0:0:0:
153,192,86303,1,8,0:0:0:0:
256,192,86453,1,8,0:0:0:0:
358,192,86603,1,8,0:0:0:0:
460,192,86753,1,2,0:0:0:0:
51,192,86753,1,4,0:0:0:0:
256,192,87053,5,2,0:0:0:0:
358,192,87203,1,8,0:0:0:0:
153,192,87203,1,0,0:0:0:0:
51,192,87353,1,2,0:0:0:0:
460,192,87503,1,8,0:0:0:0:
358,192,87503,1,0,0:0:0:0:
153,192,87653,1,8,0:0:0:0:
51,192,87653,1,0,0:0:0:0:
460,192,87803,1,8,0:0:0:0:
153,192,87953,128,4,88703:0:0:0:0:
358,192,87953,128,2,88703:0:0:0:0:
