osu file format v14

[General]
AudioFilename: audio.mp3
AudioLeadIn: 0
PreviewTime: 50568
Countdown: 0
SampleSet: Soft
StackLeniency: 0.2
Mode: 3
LetterboxInBreaks: 0
SpecialStyle: 0
WidescreenStoryboard: 1

[Editor]
DistanceSpacing: 1
BeatDivisor: 4
GridSize: 4
TimelineZoom: 3.899998

[Metadata]
Title:Brave Freak Out -TV ver.-
TitleUnicode:Brave Freak Out -TV ver.-
Artist:LiSA
ArtistUnicode:LiSA
Creator:Ochasan
Version:Insane
Source:Qualidea Code
Tags:Qualidea Code 1st Opening Theme Song TV Size Lisa 10th Single Album
BeatmapID:1043048
BeatmapSetID:489365

[Difficulty]
HPDrainRate:8
CircleSize:4
OverallDifficulty:8
ApproachRate:0
SliderMultiplier:1.4
SliderTickRate:1

[Events]
//Background and Video events
Video,0,"qcvid.avi"
0,0,"BG.png",0,0
//Break Periods
//Storyboard Layer 0 (Background)
//Storyboard Layer 1 (Fail)
//Storyboard Layer 2 (Pass)
//Storyboard Layer 3 (Foreground)
//Storyboard Layer 4 (Overlay)
//Storyboard Sound Samples

[TimingPoints]
831,292.682926829268,4,2,1,40,1,0
831,-102.040816326531,4,2,1,40,0,0
1855,352.941176470588,4,2,1,40,1,0
1855,-84.7457627118644,4,2,1,40,0,0
1881,-100,4,2,1,40,0,0
2031,300.075018754689,4,2,1,40,1,0
2031,-100,4,2,1,40,0,0
16434,-105.263157894737,4,2,1,40,0,0
18835,-100,4,2,1,40,0,0
29637,-99.009900990099,4,2,1,40,0,0
34431,-98.0392156862745,4,2,1,40,0,0
36831,-97.0873786407767,4,2,1,40,0,0
39240,-96.1538461538461,4,2,1,40,0,0
44041,-95.2380952380952,4,2,1,40,0,0
49742,-100,4,2,1,40,0,0
51093,-95.2380952380952,4,2,1,40,0,1
79900,-96.1538461538461,4,2,1,40,0,0
82301,-97.0873786407767,4,2,1,40,0,0
84701,-98.0392156862745,4,2,1,40,0,0
87102,-99.009900990099,4,2,1,40,0,0
88302,-100,4,2,1,40,0,0

[HitObjects]
320,192,831,5,2,2:0:0:0:
448,192,831,1,0,2:0:0:0:
192,192,904,1,2,2:0:0:0:
64,192,977,1,2,2:0:0:0:
448,192,1050,1,2,2:0:0:0:
320,192,1123,1,8,2:0:0:0:
64,192,1123,1,2,2:0:0:0:
192,192,1196,1,2,2:0:0:0:
448,192,1270,1,2,2:0:0:0:
320,192,1343,1,2,2:0:0:0:
192,192,1416,1,2,2:0:0:0:
320,192,1489,1,2,2:0:0:0:
448,192,1562,1,2,2:0:0:0:
64,192,1635,1,2,2:0:0:0:
448,192,1709,1,8,2:0:0:0:
192,192,1709,1,2,2:0:0:0:
448,192,1855,1,0,2:0:0:0:
192,192,1855,1,4,2:0:0:0:
64,192,1855,1,8,2:0:0:0:
448,192,2181,1,0,2:0:0:0:
64,192,2331,1,0,2:0:0:0:
320,192,2631,1,0,2:0:0:0:
192,192,2931,1,0,2:0:0:0:
448,192,3081,128,0,3381:2:0:0:0:
64,192,3381,1,0,2:0:0:0:
320,192,3531,1,0,2:0:0:0:
192,192,3681,1,0,2:0:0:0:
448,192,3831,1,0,2:0:0:0:
320,192,3981,128,0,4281:2:0:0:0:
64,192,4281,1,0,2:0:0:0:
192,192,4281,1,4,2:0:0:0:
448,192,4281,1,8,2:0:0:0:
64,192,4581,1,2,2:0:0:0:
448,192,4731,1,8,2:0:0:0:
192,192,4731,1,2,2:0:0:0:
64,192,4881,1,2,2:0:0:0:
192,192,4956,1,2,2:0:0:0:
448,192,5031,1,2,2:0:0:0:
320,192,5031,1,8,2:0:0:0:
192,192,5181,1,2,2:0:0:0:
64,192,5331,1,2,2:0:0:0:
448,192,5331,1,8,2:0:0:0:
192,192,5481,1,8,2:0:0:0:
448,192,5481,1,4,2:0:0:0:
64,192,5481,128,0,5781:2:0:0:0:
64,192,6682,1,0,2:0:0:0:
320,192,6682,1,8,2:0:0:0:
448,192,6682,1,4,2:0:0:0:
320,192,6982,1,0,2:0:0:0:
192,192,6982,1,2,2:0:0:0:
192,192,7132,1,8,2:0:0:0:
64,192,7132,1,0,2:0:0:0:
448,192,7132,1,2,2:0:0:0:
64,192,7432,1,2,2:0:0:0:
448,192,7432,1,0,2:0:0:0:
192,192,7582,1,2,2:0:0:0:
320,192,7582,1,0,2:0:0:0:
64,192,7732,1,2,2:0:0:0:
320,192,7732,1,8,2:0:0:0:
448,192,7732,1,0,2:0:0:0:
64,192,8032,1,0,2:0:0:0:
448,192,8032,1,2,2:0:0:0:
320,192,8182,1,2,2:0:0:0:
192,192,8182,1,0,2:0:0:0:
192,192,8332,1,8,2:0:0:0:
64,192,8332,1,0,2:0:0:0:
448,192,8332,1,2,2:0:0:0:
320,192,8482,1,2,2:0:0:0:
192,192,8557,1,2,2:0:0:0:
320,192,8782,1,2,2:0:0:0:
448,192,8932,1,2,2:0:0:0:
64,192,8932,1,8,2:0:0:0:
192,192,8932,1,0,2:0:0:0:
64,192,9082,1,4,2:0:0:0:
192,192,9082,1,0,2:0:0:0:
320,192,9082,1,8,2:0:0:0:
320,192,9382,1,2,2:0:0:0:
448,192,9382,1,0,2:0:0:0:
64,192,9532,1,0,2:0:0:0:
192,192,9532,1,8,2:0:0:0:
448,192,9532,1,2,2:0:0:0:
192,192,9832,1,2,2:0:0:0:
320,192,9832,1,0,2:0:0:0:
64,192,9982,1,2,2:0:0:0:
448,192,9982,1,0,2:0:0:0:
320,192,10133,1,8,2:0:0:0:
192,192,10133,1,2,2:0:0:0:
448,192,10133,1,0,2:0:0:0:
64,192,10283,1,2,2:0:0:0:
192,192,10358,1,2,2:0:0:0:
320,192,10583,1,0,2:0:0:0:
64,192,10583,1,2,2:0:0:0:
320,192,10733,1,2,2:0:0:0:
448,192,10733,1,8,2:0:0:0:
192,192,10733,1,0,2:0:0:0:
448,192,10883,1,2,2:0:0:0:
320,192,10958,1,2,2:0:0:0:
64,192,11183,1,0,2:0:0:0:
192,192,11183,1,2,2:0:0:0:
64,192,11333,1,2,2:0:0:0:
320,192,11333,1,8,2:0:0:0:
448,192,11333,1,0,2:0:0:0:
320,192,11483,1,0,2:0:0:0:
192,192,11483,1,4,2:0:0:0:
448,192,11483,1,8,2:0:0:0:
192,192,11783,1,0,2:0:0:0:
320,192,11783,1,2,2:0:0:0:
320,192,11933,1,0,2:0:0:0:
64,192,11933,1,8,2:0:0:0:
448,192,11933,1,2,2:0:0:0:
192,192,12233,1,2,2:0:0:0:
64,192,12233,1,0,2:0:0:0:
320,192,12383,1,2,2:0:0:0:
448,192,12383,1,0,2:0:0:0:
448,192,12533,1,2,2:0:0:0:
192,192,12533,1,0,2:0:0:0:
64,192,12533,1,8,2:0:0:0:
448,192,12833,1,0,2:0:0:0:
320,192,12833,1,2,2:0:0:0:
64,192,12983,1,2,2:0:0:0:
192,192,12983,1,0,2:0:0:0:
64,192,13133,1,2,2:0:0:0:
320,192,13133,1,8,2:0:0:0:
448,192,13133,1,0,2:0:0:0:
192,192,13283,1,2,2:0:0:0:
320,192,13358,1,2,2:0:0:0:
448,192,13583,1,2,2:0:0:0:
192,192,13583,1,0,2:0:0:0:
64,192,13733,1,2,2:0:0:0:
448,192,13733,1,0,2:0:0:0:
320,192,13733,1,8,2:0:0:0:
64,192,13883,1,0,2:0:0:0:
192,192,13883,1,8,2:0:0:0:
320,192,13883,1,4,2:0:0:0:
64,192,14184,1,0,2:0:0:0:
192,192,14184,1,2,2:0:0:0:
64,192,14334,1,8,2:0:0:0:
320,192,14334,1,2,2:0:0:0:
448,192,14334,1,0,2:0:0:0:
448,192,14484,1,2,2:0:0:0:
192,192,14484,1,0,2:0:0:0:
64,192,14634,1,2,2:0:0:0:
192,192,14634,1,0,2:0:0:0:
320,192,14634,1,8,2:0:0:0:
448,192,14784,1,0,2:0:0:0:
64,192,14784,1,2,2:0:0:0:
192,192,14934,1,8,2:0:0:0:
320,192,14934,1,2,2:0:0:0:
448,192,14934,1,0,2:0:0:0:
64,192,15084,1,2,2:0:0:0:
192,192,15159,1,2,2:0:0:0:
320,192,15234,1,8,2:0:0:0:
448,192,15234,1,2,2:0:0:0:
192,192,15309,1,2,2:0:0:0:
64,192,15384,1,2,2:0:0:0:
448,192,15459,1,2,2:0:0:0:
320,192,15534,1,2,2:0:0:0:
192,192,15609,1,2,2:0:0:0:
320,192,15684,1,2,2:0:0:0:
448,192,15759,1,2,2:0:0:0:
192,192,15834,1,2,2:0:0:0:
64,192,15834,1,8,2:0:0:0:
320,192,15834,1,0,2:0:0:0:
64,192,15984,1,0,2:0:0:0:
320,192,15984,1,2,2:0:0:0:
448,192,15984,1,8,2:0:0:0:
64,192,16434,128,0,17634:2:0:0:0:
192,192,17484,1,0,2:0:0:0:
320,192,17559,1,0,2:0:0:0:
448,192,17634,128,0,18835:2:0:0:0:
320,192,18385,1,0,2:0:0:0:
64,192,18460,1,0,2:0:0:0:
192,192,18535,1,0,2:0:0:20:soft-hitfinish.wav
64,192,18835,1,2,2:0:0:0:
320,192,18835,1,0,2:0:0:0:
192,192,18985,1,2,2:0:0:0:
64,192,19135,1,2,2:0:0:0:
448,192,19135,1,0,2:0:0:0:
320,192,19285,1,2,2:0:0:0:
192,192,19435,1,0,2:0:0:0:
448,192,19435,1,2,2:0:0:0:
64,192,19585,1,2,2:0:0:0:
192,192,19735,1,0,2:0:0:0:
320,192,19735,1,2,2:0:0:0:
448,192,19885,1,8,2:0:0:0:
64,192,19885,1,0,2:0:0:0:
192,192,19885,1,2,2:0:0:0:
320,192,20035,1,2,2:0:0:0:
448,192,20035,1,0,2:0:0:0:
192,192,20185,1,2,2:0:0:0:
448,192,20335,1,0,2:0:0:0:
64,192,20335,1,2,2:0:0:0:
320,192,20335,1,8,2:0:0:0:
320,192,20485,1,2,2:0:0:0:
192,192,20635,1,2,2:0:0:0:
64,192,20635,1,0,2:0:0:0:
320,192,20785,1,2,2:0:0:0:
64,192,20935,1,0,2:0:0:0:
448,192,20935,1,2,2:0:0:0:
192,192,20935,1,8,2:0:0:0:
64,192,21085,1,2,2:0:0:0:
192,192,21235,1,2,2:0:0:0:
448,192,21235,1,2,2:0:0:0:
320,192,21385,1,2,2:0:0:0:
64,192,21535,1,0,2:0:0:0:
448,192,21535,1,2,2:0:0:0:
192,192,21685,1,2,2:0:0:0:
320,192,21835,1,2,2:0:0:0:
448,192,21835,1,0,2:0:0:0:
64,192,21985,1,2,2:0:0:0:
192,192,22136,1,0,2:0:0:0:
320,192,22136,1,2,2:0:0:0:
448,192,22286,1,0,2:0:0:0:
64,192,22286,1,2,2:0:0:0:
192,192,22286,1,8,2:0:0:0:
320,192,22436,1,2,2:0:0:0:
448,192,22436,1,0,2:0:0:0:
64,192,22586,1,2,2:0:0:0:
192,192,22736,1,2,2:0:0:0:
320,192,22736,1,0,2:0:0:0:
448,192,22736,1,8,2:0:0:0:
448,192,22886,1,2,2:0:0:0:
320,192,23036,1,2,2:0:0:0:
64,192,23036,1,0,2:0:0:0:
64,192,23186,1,8,2:0:0:0:
192,192,23186,1,2,2:0:0:0:
448,192,23186,1,0,2:0:0:0:
320,192,23336,1,2,2:0:0:0:
192,192,23336,1,8,2:0:0:0:
448,192,23336,1,0,2:0:0:0:
448,192,23486,1,0,2:0:0:0:
320,192,23486,1,2,2:0:0:0:
64,192,23486,1,8,2:0:0:0:
64,192,23636,1,4,2:0:0:0:
192,192,23636,1,8,2:0:0:0:
320,192,23786,1,2,2:0:0:0:
192,192,23936,1,2,2:0:0:0:
448,192,23936,1,0,2:0:0:0:
64,192,24086,1,2,2:0:0:0:
192,192,24236,1,0,2:0:0:0:
320,192,24236,1,2,2:0:0:0:
448,192,24386,1,2,2:0:0:0:
64,192,24536,1,0,2:0:0:0:
192,192,24536,1,8,2:0:0:0:
320,192,24536,1,2,2:0:0:0:
320,192,24686,1,2,2:0:0:0:
448,192,24836,1,2,2:0:0:0:
192,192,24836,1,0,2:0:0:0:
64,192,24986,1,2,2:0:0:0:
448,192,25136,1,0,2:0:0:0:
320,192,25136,1,2,2:0:0:0:
192,192,25286,1,2,2:0:0:0:
64,192,25436,1,0,2:0:0:0:
448,192,25436,1,2,2:0:0:0:
320,192,25586,1,2,2:0:0:0:
64,192,25736,1,2,2:0:0:0:
192,192,25736,1,8,2:0:0:0:
448,192,25736,1,0,2:0:0:0:
64,192,25886,1,2,2:0:0:0:
192,192,26037,1,0,2:0:0:0:
448,192,26037,128,2,26187:2:0:0:0:
64,192,26187,128,2,26337:2:0:0:0:
448,192,26337,1,0,2:0:0:0:
192,192,26337,128,2,26487:2:0:0:0:
320,192,26487,1,2,2:0:0:0:
448,192,26487,128,0,26637:2:0:0:0:
64,192,26487,1,8,2:0:0:0:
192,192,26637,1,0,2:0:0:0:
320,192,26637,128,2,26787:2:0:0:0:
64,192,26787,128,2,26937:2:0:0:0:
192,192,26937,1,2,2:0:0:0:
448,192,26937,128,8,27087:2:0:0:0:
320,192,27087,128,2,27237:2:0:0:0:
64,192,27237,1,2,2:0:0:0:
192,192,27237,128,0,27387:2:0:0:0:
448,192,27387,128,2,27537:2:0:0:0:
64,192,27537,128,2,27687:2:0:0:0:
192,192,27687,1,8,2:0:0:0:
448,192,27687,1,2,2:0:0:0:
320,192,27687,128,0,27837:2:0:0:0:
192,192,27837,128,2,27987:2:0:0:0:
448,192,27987,1,2,2:0:0:0:
64,192,27987,128,0,28137:2:0:0:0:
448,192,28137,1,8,2:0:0:0:
320,192,28137,128,2,28287:2:0:0:0:
192,192,28287,128,2,28437:2:0:0:0:
64,192,28437,1,8,2:0:0:0:
448,192,28437,1,2,2:0:0:0:
320,192,28437,1,0,2:0:0:0:
448,192,28587,1,2,2:0:0:0:
192,192,28587,1,8,2:0:0:0:
192,192,28737,1,2,2:0:0:0:
64,192,28737,1,0,2:0:0:0:
320,192,28737,1,8,2:0:0:0:
448,192,28887,1,8,2:0:0:0:
320,192,28887,1,2,2:0:0:0:
64,192,29037,1,2,2:0:0:0:
192,192,29037,1,8,2:0:0:0:
448,192,29037,1,0,2:0:0:0:
320,192,29112,1,2,2:0:0:0:
192,192,29187,1,2,2:0:0:0:
64,192,29262,1,2,2:0:0:0:
448,192,29337,1,2,2:0:0:0:
320,192,29412,1,2,2:0:0:0:
64,192,29487,1,2,2:0:0:0:
192,192,29562,1,2,2:0:0:0:
320,192,29637,1,4,2:0:0:0:
64,192,29637,1,8,2:0:0:0:
448,192,29637,1,0,2:0:0:0:
320,192,29787,1,0,2:0:0:0:
192,192,29787,1,2,2:0:0:0:
64,192,29937,1,8,2:0:0:0:
192,192,29937,1,2,2:0:0:0:
448,192,29937,1,0,2:0:0:0:
320,192,30088,1,2,2:0:0:0:
64,192,30238,1,2,2:0:0:0:
448,192,30238,1,8,2:0:0:0:
320,192,30388,1,8,2:0:0:0:
192,192,30388,1,2,2:0:0:0:
64,192,30388,1,0,2:0:0:0:
320,192,30538,1,2,2:0:0:0:
192,192,30538,1,8,0:0:0:0:
64,192,30688,1,0,2:0:0:0:
192,192,30688,1,8,2:0:0:0:
448,192,30688,1,2,2:0:0:0:
64,192,30838,1,2,2:0:0:0:
448,192,30988,1,0,2:0:0:0:
320,192,30988,1,2,2:0:0:0:
192,192,31138,1,0,2:0:0:0:
448,192,31138,1,8,2:0:0:0:
320,192,31138,1,2,2:0:0:0:
64,192,31288,1,2,2:0:0:0:
448,192,31438,1,2,2:0:0:0:
320,192,31588,1,0,2:0:0:0:
192,192,31588,1,2,2:0:0:0:
64,192,31738,1,2,2:0:0:0:
320,192,31738,1,0,2:0:0:0:
448,192,31738,1,8,2:0:0:0:
192,192,31888,1,2,2:0:0:0:
448,192,32038,1,2,2:0:0:0:
64,192,32038,1,0,2:0:0:0:
320,192,32188,1,2,2:0:0:0:
192,192,32188,1,0,2:0:0:0:
64,192,32338,1,8,2:0:0:0:
192,192,32338,1,0,2:0:0:0:
448,192,32338,1,2,2:0:0:0:
448,192,32488,1,2,2:0:0:0:
320,192,32638,1,0,2:0:0:0:
192,192,32638,1,2,2:0:0:0:
320,192,32788,1,8,2:0:0:0:
64,192,32788,1,2,2:0:0:0:
448,192,32788,1,0,2:0:0:0:
64,192,32938,1,2,2:0:0:0:
320,192,33088,1,0,2:0:0:0:
192,192,33088,1,2,2:0:0:0:
448,192,33088,1,8,2:0:0:0:
320,192,33238,1,2,2:0:0:0:
64,192,33388,1,0,2:0:0:0:
192,192,33388,1,2,2:0:0:0:
320,192,33538,1,2,2:0:0:0:
192,192,33538,1,8,2:0:0:0:
448,192,33538,1,0,2:0:0:0:
448,192,33688,1,2,2:0:0:0:
64,192,33838,1,2,2:0:0:0:
192,192,33838,1,0,2:0:0:0:
64,192,33988,1,2,2:0:0:0:
320,192,33988,1,0,2:0:0:0:
320,192,34139,1,0,2:0:0:0:
448,192,34139,1,8,2:0:0:0:
192,192,34139,1,2,2:0:0:0:
64,192,34289,1,2,2:0:0:0:
192,192,34364,1,2,2:0:0:0:
320,192,34439,1,8,2:0:0:0:
448,192,34439,1,4,2:0:0:0:
64,192,34439,1,0,2:0:0:0:
448,192,34589,1,0,2:0:0:0:
192,192,34589,1,2,2:0:0:0:
64,192,34739,1,0,2:0:0:0:
320,192,34739,1,2,2:0:0:0:
192,192,34739,1,8,2:0:0:0:
320,192,34889,1,2,2:0:0:0:
64,192,35039,1,2,2:0:0:0:
448,192,35039,1,0,2:0:0:0:
192,192,35189,1,2,2:0:0:0:
320,192,35189,1,8,2:0:0:0:
448,192,35189,1,0,2:0:0:0:
320,192,35339,1,2,2:0:0:0:
192,192,35489,1,8,2:0:0:0:
64,192,35489,1,2,2:0:0:0:
448,192,35489,1,0,2:0:0:0:
192,192,35639,1,2,2:0:0:0:
64,192,35789,1,2,2:0:0:0:
448,192,35789,1,0,2:0:0:0:
320,192,35939,1,2,2:0:0:0:
192,192,35939,1,8,2:0:0:0:
64,192,35939,1,0,2:0:0:0:
320,192,36089,1,2,2:0:0:0:
192,192,36239,1,2,2:0:0:0:
64,192,36389,1,0,2:0:0:0:
448,192,36389,1,2,2:0:0:0:
320,192,36539,1,2,2:0:0:0:
192,192,36539,1,8,2:0:0:0:
64,192,36539,1,0,2:0:0:0:
448,192,36689,1,0,2:0:0:0:
192,192,36689,1,2,2:0:0:0:
448,192,36839,1,8,2:0:0:0:
64,192,36839,1,2,2:0:0:0:
320,192,36839,1,0,2:0:0:0:
192,192,36989,1,2,2:0:0:0:
64,192,37139,1,2,2:0:0:0:
320,192,37139,1,0,2:0:0:0:
448,192,37139,1,8,2:0:0:0:
64,192,37289,1,0,2:0:0:0:
192,192,37289,1,2,2:0:0:0:
320,192,37439,1,8,2:0:0:0:
448,192,37439,1,0,2:0:0:0:
192,192,37439,1,2,2:0:0:0:
320,192,37589,1,2,2:0:0:0:
64,192,37589,1,0,2:0:0:0:
64,192,37739,1,0,2:0:0:0:
192,192,37739,1,8,2:0:0:0:
448,192,37739,1,2,2:0:0:0:
448,192,37889,1,0,2:0:0:0:
320,192,37889,1,2,2:0:0:0:
320,192,38040,1,2,2:0:0:0:
192,192,38040,1,0,2:0:0:0:
64,192,38040,1,8,2:0:0:0:
64,192,38190,1,2,2:0:0:0:
448,192,38190,1,0,2:0:0:0:
192,192,38340,1,2,2:0:0:0:
320,192,38340,1,8,2:0:0:0:
448,192,38340,1,0,2:0:0:0:
192,192,38490,1,2,2:0:0:0:
64,192,38490,1,0,2:0:0:0:
320,192,38640,1,2,2:0:0:0:
448,192,38640,1,8,2:0:0:0:
64,192,38715,1,2,2:0:0:0:
192,192,38790,1,2,2:0:0:0:
320,192,38865,1,2,2:0:0:0:
448,192,38940,1,2,2:0:0:0:
64,192,39015,1,2,2:0:0:0:
192,192,39090,1,2,2:0:0:0:
320,192,39165,1,2,2:0:0:0:
192,192,39240,1,8,2:0:0:0:
64,192,39240,1,4,2:0:0:0:
448,192,39240,128,0,39390:2:0:0:0:
320,192,39390,128,2,39540:2:0:0:0:
192,192,39540,1,2,2:0:0:0:
448,192,39540,128,0,39690:2:0:0:0:
320,192,39690,128,2,39840:2:0:0:0:
64,192,39840,1,2,2:0:0:0:
448,192,39840,128,0,39990:2:0:0:0:
192,192,39990,128,2,40140:2:0:0:0:
64,192,40140,1,2,2:0:0:0:
448,192,40140,128,0,40290:2:0:0:0:
192,192,40290,128,2,40440:2:0:0:0:
320,192,40440,1,2,2:0:0:0:
64,192,40440,128,0,40590:2:0:0:0:
192,192,40590,128,2,40740:2:0:0:0:
448,192,40740,1,2,2:0:0:0:
64,192,40740,128,0,40890:2:0:0:0:
192,192,40890,128,2,41040:2:0:0:0:
320,192,41040,1,2,2:0:0:0:
448,192,41040,128,0,41190:2:0:0:0:
64,192,41190,1,2,2:0:0:0:
320,192,41190,128,0,41340:2:0:0:0:
192,192,41265,1,2,2:0:0:0:
64,192,41340,1,2,2:0:0:0:
448,192,41340,128,8,41490:2:0:0:0:
192,192,41490,128,2,41640:2:0:0:0:
64,192,41640,1,2,2:0:0:0:
320,192,41640,128,0,41790:2:0:0:0:
192,192,41790,128,2,41940:2:0:0:0:
448,192,41940,1,0,2:0:0:0:
320,192,41940,128,2,42091:2:0:0:0:
64,192,42091,128,2,42241:2:0:0:0:
192,192,42241,1,2,2:0:0:0:
448,192,42241,128,0,42391:2:0:0:0:
64,192,42391,128,2,42541:2:0:0:0:
320,192,42541,1,0,2:0:0:0:
448,192,42541,128,2,42691:2:0:0:0:
64,192,42691,128,2,42841:2:0:0:0:
320,192,42841,128,0,42991:2:0:0:0:
448,192,42841,1,2,2:0:0:0:
64,192,42991,128,2,43141:2:0:0:0:
192,192,43141,1,2,2:0:0:0:
448,192,43141,128,0,43291:2:0:0:0:
192,192,43291,1,2,2:0:0:0:
320,192,43366,1,2,2:0:0:0:
64,192,43441,1,8,2:0:0:0:
192,192,43441,1,2,2:0:0:0:
448,192,43441,1,0,2:0:0:0:
64,192,43666,1,2,2:0:0:0:
192,192,43666,1,8,2:0:0:0:
320,192,43666,1,0,2:0:0:0:
192,192,43891,1,2,2:0:0:0:
448,192,43891,1,8,2:0:0:0:
320,192,43891,1,0,2:0:0:0:
64,192,44041,128,2,45241:2:0:0:0:
192,192,44041,1,8,2:0:0:0:
192,192,44341,1,2,2:0:0:0:
320,192,44491,1,2,2:0:0:0:
448,192,44491,1,8,2:0:0:0:
320,192,44941,1,2,2:0:0:0:
448,192,44941,1,8,2:0:0:0:
448,192,45241,128,8,45691:2:0:0:0:
192,192,45241,1,2,2:0:0:0:
192,192,45541,1,2,2:0:0:0:
64,192,45691,1,2,2:0:0:0:
320,192,45691,128,8,46142:2:0:0:0:
448,192,46142,1,8,2:0:0:0:
64,192,46142,128,2,46442:2:0:0:0:
320,192,46442,1,8,2:0:0:0:
448,192,46442,128,2,46892:2:0:0:0:
64,192,46592,1,2,2:0:0:0:
320,192,46742,1,2,2:0:0:0:
192,192,46892,1,8,2:0:0:0:
320,192,46892,128,2,47342:2:0:0:0:
64,192,47042,1,2,2:0:0:0:
448,192,47192,1,2,2:0:0:0:
64,192,47342,1,8,2:0:0:0:
192,192,47342,128,2,47642:2:0:0:0:
320,192,47492,1,2,2:0:0:0:
448,192,47642,1,8,2:0:0:0:
64,192,47642,128,2,48092:2:0:0:0:
448,192,47792,1,2,2:0:0:0:
192,192,47942,1,2,2:0:0:0:
448,192,48092,1,8,2:0:0:0:
192,192,48092,128,2,48542:2:0:0:0:
320,192,48242,1,2,2:0:0:0:
64,192,48392,1,2,2:0:0:0:
448,192,48542,1,8,2:0:0:0:
320,192,48542,128,2,48842:2:0:0:0:
64,192,48692,1,2,2:0:0:0:
192,192,48767,1,2,2:0:0:0:
448,192,48842,1,8,2:0:0:0:
64,192,48842,1,2,2:0:0:0:
192,192,49292,1,0,2:0:0:0:
320,192,49292,1,2,2:0:0:0:
448,192,49292,1,8,2:0:0:0:
64,192,49742,128,0,50643:2:0:0:0:
448,192,49742,128,8,50643:2:0:0:0:
192,192,49742,1,2,2:0:0:0:
64,192,51093,1,8,2:0:0:0:
192,192,51093,1,4,2:0:0:0:
448,192,51093,1,0,2:0:0:0:
320,192,51393,1,2,2:0:0:0:
192,192,51393,1,0,2:0:0:0:
64,192,51543,1,8,2:0:0:0:
320,192,51543,1,2,2:0:0:0:
448,192,51543,1,0,2:0:0:0:
192,192,51693,1,2,2:0:0:0:
64,192,51843,1,2,2:0:0:0:
320,192,51843,1,0,2:0:0:0:
448,192,51993,1,0,2:0:0:0:
192,192,51993,1,2,2:0:0:0:
448,192,52143,1,0,2:0:0:0:
320,192,52143,1,2,2:0:0:0:
64,192,52143,1,8,2:0:0:0:
64,192,52293,1,2,2:0:0:0:
448,192,52443,1,0,2:0:0:0:
320,192,52443,1,2,2:0:0:0:
192,192,52593,1,2,2:0:0:0:
64,192,52593,1,0,2:0:0:0:
192,192,52743,1,2,2:0:0:0:
320,192,52743,1,8,2:0:0:0:
448,192,52743,1,0,2:0:0:0:
320,192,52893,1,2,2:0:0:0:
448,192,53043,1,2,2:0:0:0:
64,192,53043,1,0,2:0:0:0:
192,192,53193,1,0,2:0:0:0:
320,192,53193,1,2,2:0:0:0:
192,192,53343,1,2,2:0:0:0:
64,192,53343,1,8,2:0:0:0:
448,192,53343,1,0,2:0:0:0:
64,192,53493,1,0,2:0:0:0:
320,192,53493,1,8,2:0:0:0:
192,192,53493,1,4,2:0:0:0:
192,192,53793,1,0,2:0:0:0:
320,192,53793,1,2,2:0:0:0:
320,192,53943,1,2,2:0:0:0:
64,192,53943,1,0,2:0:0:0:
448,192,53943,1,8,2:0:0:0:
448,192,54094,1,2,2:0:0:0:
64,192,54244,1,0,2:0:0:0:
192,192,54244,1,2,2:0:0:0:
320,192,54394,1,2,2:0:0:0:
448,192,54394,1,0,2:0:0:0:
320,192,54544,1,0,2:0:0:0:
192,192,54544,1,8,2:0:0:0:
64,192,54544,1,2,2:0:0:0:
192,192,54694,1,2,2:0:0:0:
320,192,54844,1,2,2:0:0:0:
448,192,54844,1,0,2:0:0:0:
192,192,54994,1,2,2:0:0:0:
64,192,54994,1,0,2:0:0:0:
64,192,55144,1,0,2:0:0:0:
320,192,55144,1,2,2:0:0:0:
448,192,55144,1,8,2:0:0:0:
320,192,55294,1,2,2:0:0:0:
448,192,55444,1,0,2:0:0:0:
64,192,55444,1,2,2:0:0:0:
192,192,55594,1,2,2:0:0:0:
320,192,55594,1,0,2:0:0:0:
192,192,55744,1,8,2:0:0:0:
64,192,55744,1,0,2:0:0:0:
448,192,55744,1,2,2:0:0:0:
448,192,55894,1,0,2:0:0:0:
320,192,55894,1,8,2:0:0:0:
64,192,55894,1,4,2:0:0:0:
192,192,56194,1,0,2:0:0:0:
320,192,56194,1,2,2:0:0:0:
448,192,56344,1,0,2:0:0:0:
64,192,56344,1,2,2:0:0:0:
320,192,56344,1,8,2:0:0:0:
64,192,56494,1,2,2:0:0:0:
320,192,56644,1,2,2:0:0:0:
448,192,56644,128,0,56794:2:0:0:0:
192,192,56794,1,2,2:0:0:0:
64,192,56794,128,0,56944:2:0:0:0:
320,192,56944,1,2,2:0:0:0:
448,192,56944,1,8,2:0:0:0:
192,192,56944,128,0,57094:2:0:0:0:
320,192,57094,128,2,57244:2:0:0:0:
192,192,57244,1,2,2:0:0:0:
64,192,57244,128,0,57394:2:0:0:0:
320,192,57394,1,2,2:0:0:0:
448,192,57394,128,0,57544:2:0:0:0:
192,192,57544,1,8,2:0:0:0:
64,192,57544,1,2,2:0:0:0:
320,192,57544,128,0,57694:2:0:0:0:
192,192,57694,128,2,57844:2:0:0:0:
64,192,57844,1,2,2:0:0:0:
448,192,57844,128,0,57994:2:0:0:0:
320,192,57994,1,2,2:0:0:0:
64,192,57994,128,0,58145:2:0:0:0:
192,192,58145,1,8,2:0:0:0:
320,192,58145,1,0,2:0:0:0:
448,192,58145,1,2,2:0:0:0:
192,192,58295,1,8,2:0:0:0:
64,192,58295,1,4,2:0:0:0:
448,192,58295,1,0,2:0:0:0:
320,192,58595,1,2,2:0:0:0:
192,192,58595,1,0,2:0:0:0:
320,192,58745,1,8,2:0:0:0:
448,192,58745,1,0,2:0:0:0:
64,192,58745,1,2,2:0:0:0:
448,192,58895,1,2,2:0:0:0:
192,192,59045,1,2,2:0:0:0:
320,192,59045,1,0,2:0:0:0:
448,192,59195,1,8,2:0:0:0:
192,192,59195,1,2,2:0:0:0:
64,192,59195,1,0,2:0:0:0:
320,192,59345,1,8,2:0:0:0:
448,192,59345,1,0,2:0:0:0:
64,192,59345,1,2,2:0:0:0:
192,192,59495,1,4,2:0:0:0:
320,192,59495,1,8,2:0:0:0:
448,192,59795,1,2,2:0:0:0:
320,192,59870,1,2,2:0:0:0:
192,192,59945,1,2,2:0:0:0:
320,192,60020,1,2,2:0:0:0:
448,192,60095,1,2,2:0:0:0:
64,192,60170,1,2,2:0:0:0:
448,192,60245,1,8,2:0:0:0:
192,192,60245,1,2,2:0:0:0:
320,192,60320,1,2,2:0:0:0:
64,192,60395,1,2,2:0:0:0:
192,192,60470,1,2,2:0:0:0:
320,192,60545,1,8,2:0:0:0:
448,192,60545,1,2,2:0:0:0:
192,192,60620,1,2,2:0:0:0:
448,192,60695,1,0,2:0:0:0:
320,192,60695,1,4,2:0:0:0:
64,192,60695,1,8,2:0:0:0:
448,192,60995,1,2,2:0:0:0:
320,192,60995,1,0,2:0:0:0:
320,192,61145,1,0,2:0:0:0:
192,192,61145,1,8,2:0:0:0:
64,192,61145,1,2,2:0:0:0:
64,192,61295,1,2,2:0:0:0:
192,192,61445,1,2,2:0:0:0:
448,192,61445,1,0,2:0:0:0:
320,192,61595,1,2,2:0:0:0:
64,192,61595,1,0,2:0:0:0:
192,192,61745,1,8,2:0:0:0:
320,192,61745,1,2,2:0:0:0:
448,192,61745,1,0,2:0:0:0:
448,192,61895,1,2,2:0:0:0:
320,192,62046,1,2,2:0:0:0:
64,192,62046,1,0,2:0:0:0:
192,192,62196,1,2,2:0:0:0:
448,192,62196,1,0,2:0:0:0:
64,192,62346,1,0,2:0:0:0:
320,192,62346,1,8,2:0:0:0:
448,192,62346,1,2,2:0:0:0:
320,192,62496,1,2,2:0:0:0:
64,192,62646,1,2,2:0:0:0:
448,192,62646,1,0,2:0:0:0:
192,192,62796,1,2,2:0:0:0:
320,192,62796,1,0,2:0:0:0:
192,192,62946,1,2,2:0:0:0:
64,192,62946,1,0,2:0:0:0:
448,192,62946,1,8,2:0:0:0:
320,192,63096,1,4,2:0:0:0:
448,192,63096,1,0,2:0:0:0:
64,192,63096,1,8,2:0:0:0:
64,192,63396,1,0,2:0:0:0:
192,192,63396,1,2,2:0:0:0:
192,192,63546,1,2,2:0:0:0:
320,192,63546,1,8,2:0:0:0:
448,192,63546,1,0,2:0:0:0:
320,192,63696,1,2,2:0:0:0:
64,192,63846,1,0,2:0:0:0:
192,192,63846,1,2,2:0:0:0:
448,192,63996,1,0,2:0:0:0:
320,192,63996,1,2,2:0:0:0:
448,192,64146,1,8,2:0:0:0:
192,192,64146,1,0,2:0:0:0:
64,192,64146,1,2,2:0:0:0:
64,192,64296,1,2,2:0:0:0:
448,192,64446,1,2,2:0:0:0:
320,192,64446,1,0,2:0:0:0:
192,192,64596,1,2,2:0:0:0:
64,192,64596,1,0,2:0:0:0:
192,192,64746,1,2,2:0:0:0:
320,192,64746,1,8,2:0:0:0:
448,192,64746,1,0,2:0:0:0:
320,192,64896,1,2,2:0:0:0:
192,192,65046,1,2,2:0:0:0:
64,192,65046,1,0,2:0:0:0:
448,192,65196,1,2,2:0:0:0:
320,192,65196,1,0,2:0:0:0:
448,192,65346,1,2,2:0:0:0:
192,192,65346,1,0,2:0:0:0:
64,192,65346,1,8,2:0:0:0:
64,192,65496,1,4,2:0:0:0:
320,192,65496,1,0,2:0:0:0:
192,192,65496,1,8,2:0:0:0:
192,192,65796,1,2,2:0:0:0:
448,192,65796,1,0,2:0:0:0:
320,192,65946,1,8,2:0:0:0:
64,192,65946,1,0,2:0:0:0:
192,192,65946,1,2,2:0:0:0:
320,192,66097,1,2,2:0:0:0:
64,192,66247,1,2,2:0:0:0:
192,192,66247,128,0,66397:2:0:0:0:
448,192,66397,1,2,2:0:0:0:
320,192,66397,128,0,66547:2:0:0:0:
192,192,66547,1,8,2:0:0:0:
448,192,66547,1,2,2:0:0:0:
64,192,66547,128,0,66697:2:0:0:0:
448,192,66697,128,2,66847:2:0:0:0:
192,192,66847,128,2,66997:2:0:0:0:
320,192,66847,1,0,2:0:0:0:
64,192,66997,1,2,2:0:0:0:
448,192,66997,128,0,67147:2:0:0:0:
192,192,67147,1,8,2:0:0:0:
320,192,67147,1,2,2:0:0:0:
64,192,67147,128,0,67297:2:0:0:0:
192,192,67297,128,2,67447:2:0:0:0:
448,192,67447,1,2,2:0:0:0:
320,192,67447,128,0,67597:2:0:0:0:
192,192,67597,1,2,2:0:0:0:
64,192,67597,128,0,67747:2:0:0:0:
320,192,67747,1,8,2:0:0:0:
192,192,67747,1,2,2:0:0:0:
448,192,67747,128,0,67897:2:0:0:0:
64,192,67897,1,4,2:0:0:0:
320,192,67897,1,8,2:0:0:0:
192,192,67897,1,0,2:0:0:0:
192,192,68197,1,2,2:0:0:0:
320,192,68272,1,2,2:0:0:0:
448,192,68347,1,2,2:0:0:0:
64,192,68347,1,0,2:0:0:0:
192,192,68347,1,8,2:0:0:0:
192,192,68497,1,2,2:0:0:0:
320,192,68497,1,0,2:0:0:0:
448,192,68647,1,0,2:0:0:0:
64,192,68647,1,2,2:0:0:0:
320,192,68647,1,8,2:0:0:0:
192,192,68797,1,0,2:0:0:0:
320,192,68797,1,2,2:0:0:0:
64,192,68947,1,0,2:0:0:0:
448,192,68947,1,2,2:0:0:0:
192,192,68947,1,8,2:0:0:0:
192,192,69097,1,2,2:0:0:0:
320,192,69097,1,0,2:0:0:0:
64,192,69247,1,2,2:0:0:0:
448,192,69247,1,8,2:0:0:0:
320,192,69322,1,2,2:0:0:0:
192,192,69397,1,2,2:0:0:0:
64,192,69472,1,2,2:0:0:0:
448,192,69547,1,2,2:0:0:0:
320,192,69622,1,2,2:0:0:0:
192,192,69697,1,0,2:0:0:0:
320,192,69772,1,2,2:0:0:0:
192,192,69847,1,8,2:0:0:0:
448,192,69847,1,0,2:0:0:0:
64,192,69847,1,2,2:0:0:0:
448,192,69997,1,2,2:0:0:0:
320,192,69997,1,8,2:0:0:0:
64,192,69997,1,0,2:0:0:0:
192,192,70298,1,4,2:0:0:0:
320,192,70298,1,0,2:0:0:0:
448,192,70298,1,8,2:0:0:0:
64,192,70598,1,0,2:0:0:0:
192,192,70598,1,2,2:0:0:0:
320,192,70748,1,2,2:0:0:0:
448,192,70748,1,0,2:0:0:0:
448,192,71048,1,8,2:0:0:0:
192,192,71048,1,2,2:0:0:0:
64,192,71048,1,0,2:0:0:0:
320,192,71348,1,2,2:0:0:0:
448,192,71498,1,2,2:0:0:0:
64,192,71498,1,0,2:0:0:0:
64,192,71798,1,0,2:0:0:0:
192,192,71798,1,2,2:0:0:0:
320,192,71798,1,8,2:0:0:0:
64,192,71948,1,2,2:0:0:0:
320,192,72098,1,2,2:0:0:0:
448,192,72098,1,0,2:0:0:0:
320,192,72248,1,2,2:0:0:0:
64,192,72248,1,8,2:0:0:0:
192,192,72248,1,0,2:0:0:0:
448,192,72398,1,0,2:0:0:0:
64,192,72398,1,2,2:0:0:0:
192,192,72548,1,0,2:0:0:0:
448,192,72548,1,8,2:0:0:0:
320,192,72548,1,2,2:0:0:0:
320,192,72698,1,0,2:0:0:0:
192,192,72698,1,8,2:0:0:0:
64,192,72698,1,4,2:0:0:0:
448,192,72998,1,0,2:0:0:0:
64,192,72998,1,2,2:0:0:0:
192,192,73148,1,2,2:0:0:0:
320,192,73148,1,0,2:0:0:0:
64,192,73448,1,0,2:0:0:0:
320,192,73448,1,2,2:0:0:0:
448,192,73448,1,8,2:0:0:0:
192,192,73748,1,2,2:0:0:0:
64,192,73898,1,2,2:0:0:0:
448,192,73898,1,0,2:0:0:0:
320,192,74049,1,2,2:0:0:0:
192,192,74199,1,8,2:0:0:0:
448,192,74199,1,2,2:0:0:0:
64,192,74199,1,0,2:0:0:0:
448,192,74349,1,2,2:0:0:0:
64,192,74499,1,2,2:0:0:0:
192,192,74574,1,2,2:0:0:0:
64,192,74649,1,0,2:0:0:0:
448,192,74649,1,8,2:0:0:0:
320,192,74649,1,2,2:0:0:0:
320,192,74799,1,0,2:0:0:0:
192,192,74799,1,2,2:0:0:0:
64,192,74949,1,2,2:0:0:0:
192,192,74949,1,8,2:0:0:0:
448,192,74949,1,0,2:0:0:0:
64,192,75099,1,0,2:0:0:0:
448,192,75099,1,8,2:0:0:0:
320,192,75099,1,4,2:0:0:0:
320,192,75399,1,2,2:0:0:0:
448,192,75399,1,0,2:0:0:0:
192,192,75549,1,8,2:0:0:0:
64,192,75549,1,2,2:0:0:0:
320,192,75699,1,2,2:0:0:0:
448,192,75849,1,0,2:0:0:0:
192,192,75849,1,2,2:0:0:0:
64,192,75999,1,2,2:0:0:0:
320,192,75999,1,0,2:0:0:0:
192,192,76149,1,8,2:0:0:0:
64,192,76149,1,0,2:0:0:0:
448,192,76149,1,2,2:0:0:0:
448,192,76299,1,2,2:0:0:0:
64,192,76449,1,0,2:0:0:0:
192,192,76449,1,2,2:0:0:0:
320,192,76599,1,2,2:0:0:0:
448,192,76599,1,0,2:0:0:0:
192,192,76749,1,8,2:0:0:0:
320,192,76749,1,0,2:0:0:0:
64,192,76749,1,2,2:0:0:0:
192,192,76899,1,2,2:0:0:0:
320,192,77049,1,2,2:0:0:0:
448,192,77049,1,0,2:0:0:0:
192,192,77199,1,2,2:0:0:0:
64,192,77199,1,0,2:0:0:0:
64,192,77349,1,0,2:0:0:0:
320,192,77349,1,2,2:0:0:0:
448,192,77349,1,8,2:0:0:0:
192,192,77499,1,8,2:0:0:0:
320,192,77499,1,4,2:0:0:0:
192,192,77799,1,0,2:0:0:0:
320,192,77799,1,2,2:0:0:0:
192,192,77949,1,2,2:0:0:0:
64,192,77949,1,8,2:0:0:0:
448,192,77949,1,0,2:0:0:0:
448,192,78100,1,0,2:0:0:0:
320,192,78100,1,2,2:0:0:0:
320,192,78250,1,2,2:0:0:0:
192,192,78250,1,8,2:0:0:0:
64,192,78250,1,0,2:0:0:0:
64,192,78400,1,2,2:0:0:0:
448,192,78400,1,0,2:0:0:0:
192,192,78550,1,2,2:0:0:0:
320,192,78550,1,8,2:0:0:0:
448,192,78550,1,0,2:0:0:0:
320,192,78700,1,2,2:0:0:0:
64,192,78700,1,0,2:0:0:0:
320,192,78850,1,8,2:0:0:0:
448,192,78850,1,2,2:0:0:0:
192,192,78925,1,2,2:0:0:0:
64,192,79000,1,2,2:0:0:0:
448,192,79075,1,2,2:0:0:0:
320,192,79150,1,2,2:0:0:0:
64,192,79225,1,2,2:0:0:0:
192,192,79300,1,2,2:0:0:0:
320,192,79375,1,2,2:0:0:0:
64,192,79450,1,8,2:0:0:0:
192,192,79450,1,2,2:0:0:0:
448,192,79450,1,0,2:0:0:0:
64,192,79600,1,8,2:0:0:0:
448,192,79600,1,0,2:0:0:0:
320,192,79600,1,2,2:0:0:0:
192,192,79900,1,8,2:0:0:0:
320,192,79900,1,4,2:0:0:0:
448,192,79900,1,0,2:0:0:0:
64,192,80200,1,0,2:0:0:0:
192,192,80200,1,2,2:0:0:0:
64,192,80350,1,0,2:0:0:0:
320,192,80350,1,8,2:0:0:0:
448,192,80350,1,2,2:0:0:0:
192,192,80575,1,2,2:0:0:0:
448,192,80575,1,8,2:0:0:0:
64,192,80575,1,0,2:0:0:0:
320,192,80650,1,2,2:0:0:0:
448,192,80800,1,0,2:0:0:0:
192,192,80800,1,2,2:0:0:0:
320,192,80950,1,8,2:0:0:0:
192,192,80950,1,2,2:0:0:0:
64,192,80950,1,0,2:0:0:0:
64,192,81100,1,2,2:0:0:0:
448,192,81250,1,0,2:0:0:0:
320,192,81250,1,2,2:0:0:0:
448,192,81400,1,2,2:0:0:0:
64,192,81400,1,0,2:0:0:0:
64,192,81550,1,8,2:0:0:0:
192,192,81550,1,0,2:0:0:0:
320,192,81550,1,2,2:0:0:0:
192,192,81700,1,2,2:0:0:0:
448,192,81700,1,0,2:0:0:0:
64,192,81850,1,0,2:0:0:0:
448,192,81850,1,8,2:0:0:0:
320,192,81850,1,2,2:0:0:0:
320,192,82000,1,8,2:0:0:0:
192,192,82076,1,8,2:0:0:0:
320,192,82151,1,8,2:0:0:0:
192,192,82226,1,8,2:0:0:0:
448,192,82301,1,0,2:0:0:0:
320,192,82301,1,2,2:0:0:0:
64,192,82301,1,2,2:0:0:0:
192,192,82601,1,0,2:0:0:0:
320,192,82601,1,2,2:0:0:0:
320,192,82751,1,8,2:0:0:0:
448,192,82751,1,2,2:0:0:0:
64,192,82751,1,0,2:0:0:0:
192,192,82976,1,2,2:0:0:0:
448,192,82976,1,0,2:0:0:0:
320,192,82976,1,8,2:0:0:0:
64,192,83051,1,2,2:0:0:0:
192,192,83201,1,0,2:0:0:0:
320,192,83201,1,2,2:0:0:0:
64,192,83351,1,8,2:0:0:0:
192,192,83351,1,2,2:0:0:0:
448,192,83351,1,0,2:0:0:0:
448,192,83501,1,4,2:0:0:0:
64,192,83501,1,0,2:0:0:0:
320,192,83501,1,8,2:0:0:0:
192,192,83801,1,2,2:0:0:0:
64,192,83801,1,0,2:0:0:0:
64,192,83951,1,8,2:0:0:0:
320,192,83951,1,2,2:0:0:0:
448,192,83951,1,0,2:0:0:0:
448,192,84176,1,8,2:0:0:0:
192,192,84176,1,2,2:0:0:0:
64,192,84176,1,0,2:0:0:0:
320,192,84251,1,2,2:0:0:0:
320,192,84401,1,2,2:0:0:0:
64,192,84401,1,0,2:0:0:0:
192,192,84551,1,2,2:0:0:0:
64,192,84551,1,8,2:0:0:0:
448,192,84551,1,0,2:0:0:0:
192,192,84701,1,8,2:0:0:0:
320,192,84701,1,2,2:0:0:0:
448,192,84701,1,0,2:0:0:0:
64,192,85001,1,0,2:0:0:0:
192,192,85001,1,2,2:0:0:0:
64,192,85151,1,8,2:0:0:0:
320,192,85151,1,2,2:0:0:0:
448,192,85151,1,0,2:0:0:0:
192,192,85301,1,2,2:0:0:0:
320,192,85301,1,0,2:0:0:0:
448,192,85451,1,8,2:0:0:0:
192,192,85451,1,2,2:0:0:0:
64,192,85451,1,0,2:0:0:0:
448,192,85601,1,0,2:0:0:0:
320,192,85601,1,2,2:0:0:0:
320,192,85751,1,0,2:0:0:0:
192,192,85751,1,2,2:0:0:0:
192,192,85901,1,4,2:0:0:0:
64,192,85901,1,8,2:0:0:0:
448,192,85901,1,0,0:0:0:0:
320,192,86202,1,2,2:0:0:0:
448,192,86202,1,8,2:0:0:0:
192,192,86277,1,2,2:0:0:0:
64,192,86277,1,8,2:0:0:0:
320,192,86352,1,2,2:0:0:0:
448,192,86352,1,8,2:0:0:0:
64,192,86502,1,8,2:0:0:0:
192,192,86502,1,2,2:0:0:0:
320,192,86652,1,2,2:0:0:0:
448,192,86652,1,8,2:0:0:0:
192,192,86802,1,2,2:0:0:0:
64,192,86802,1,8,2:0:0:0:
320,192,86952,1,2,2:0:0:0:
448,192,86952,1,8,2:0:0:0:
448,192,87102,1,0,2:0:0:0:
192,192,87102,1,8,2:0:0:0:
64,192,87102,1,4,2:0:0:0:
320,192,87402,5,2,2:0:0:0:
192,192,87477,1,2,2:0:0:0:
64,192,87552,1,0,2:0:0:0:
448,192,87552,1,8,2:0:0:0:
320,192,87552,1,2,2:0:0:0:
192,192,87702,1,0,2:0:0:0:
448,192,87702,1,2,2:0:0:0:
64,192,87852,1,0,2:0:0:0:
192,192,87852,1,8,2:0:0:0:
320,192,87852,1,2,2:0:0:0:
192,192,88002,1,2,2:0:0:0:
320,192,88002,1,0,2:0:0:0:
448,192,88002,1,8,2:0:0:0:
320,192,88152,1,0,2:0:0:0:
192,192,88152,1,8,2:0:0:0:
64,192,88152,1,2,2:0:0:0:
448,192,88302,128,8,88827:2:0:0:0:
320,192,88302,128,4,88902:2:0:0:0:
192,192,88302,128,0,88977:2:0:0:0:
64,192,88302,128,2,89052:2:0:0:0:
