osu file format v14

[General]
AudioFilename: audio.mp3
AudioLeadIn: 0
PreviewTime: 50568
Countdown: 0
SampleSet: Soft
StackLeniency: 0.2
Mode: 3
LetterboxInBreaks: 0
SpecialStyle: 0
WidescreenStoryboard: 1

[Editor]
DistanceSpacing: 1
BeatDivisor: 4
GridSize: 4
TimelineZoom: 3.299999

[Metadata]
Title:Brave Freak Out -TV ver.-
TitleUnicode:Brave Freak Out -TV ver.-
Artist:LiSA
ArtistUnicode:LiSA
Creator:Ochasan
Version:Easy
Source:Qualidea Code
Tags:Qualidea Code 1st Opening Theme Song TV Size Lisa 10th Single Album
BeatmapID:1043046
BeatmapSetID:489365

[Difficulty]
HPDrainRate:6
CircleSize:4
OverallDifficulty:7
ApproachRate:0
SliderMultiplier:1.4
SliderTickRate:1

[Events]
//Background and Video events
Video,0,"qcvid.avi"
0,0,"BG.png",0,0
//Break Periods
//Storyboard Layer 0 (Background)
//Storyboard Layer 1 (Fail)
//Storyboard Layer 2 (Pass)
//Storyboard Layer 3 (Foreground)
//Storyboard Layer 4 (Overlay)
//Storyboard Sound Samples

[TimingPoints]
831,292.682926829268,4,2,1,40,1,0
831,-102.040816326531,4,2,1,40,0,0
1855,352.941176470588,4,2,1,40,1,0
1855,-84.7457627118644,4,2,1,40,0,0
2031,300.075018754689,4,2,1,40,1,0
2031,-100,4,2,1,40,0,0
51093,-100,4,2,1,40,0,1
79900,-100,4,2,1,40,0,0

[HitObjects]
64,192,831,128,2,1855:2:0:0:0:
448,192,1855,1,4,2:0:0:0:
192,192,2331,1,0,2:0:0:0:
64,192,2631,1,0,2:0:0:0:
448,192,3081,128,0,3831:2:0:0:0:
64,192,3831,128,0,4281:2:0:0:0:
320,192,4281,1,2,2:0:0:0:
448,192,4731,1,8,2:0:0:0:
64,192,5031,1,8,2:0:0:0:
192,192,5481,1,8,2:0:0:0:
320,192,5481,1,4,2:0:0:0:
64,192,6682,1,4,2:0:0:0:
192,192,6682,1,8,2:0:0:0:
448,192,7132,1,8,2:0:0:0:
192,192,7732,1,8,2:0:0:0:
320,192,8332,1,8,2:0:0:0:
64,192,8932,1,8,2:0:0:0:
448,192,9082,1,4,2:0:0:0:
320,192,9082,1,8,0:0:0:0:
192,192,9532,1,8,2:0:0:0:
64,192,10133,1,8,2:0:0:0:
320,192,10733,1,8,2:0:0:0:
448,192,11333,1,8,2:0:0:0:
64,192,11483,1,4,2:0:0:0:
192,192,11483,1,8,0:0:0:0:
320,192,11933,1,8,2:0:0:0:
192,192,12533,1,8,2:0:0:0:
448,192,13133,1,8,2:0:0:0:
64,192,13733,1,8,2:0:0:0:
192,192,13883,1,4,2:0:0:0:
320,192,13883,1,8,0:0:0:0:
448,192,14334,1,8,2:0:0:0:
64,192,14634,1,8,0:0:0:0:
320,192,14934,1,8,2:0:0:0:
448,192,15234,128,2,15834:2:0:0:0:
192,192,15834,1,2,2:0:0:0:
64,192,16434,128,0,17634:2:0:0:0:
320,192,17634,1,0,2:0:0:0:
192,192,18535,1,0,2:0:0:20:soft-hitfinish.wav
448,192,18835,1,2,2:0:0:0:
320,192,19435,1,2,2:0:0:0:
192,192,20035,1,2,2:0:0:0:
320,192,20635,1,2,2:0:0:0:
64,192,21235,1,2,2:0:0:0:
192,192,21835,1,2,2:0:0:0:
320,192,22436,1,2,2:0:0:0:
448,192,23036,1,2,2:0:0:0:
64,192,23636,1,4,2:0:0:0:
192,192,23636,1,8,0:0:0:0:
320,192,24236,1,2,2:0:0:0:
192,192,24836,1,2,2:0:0:0:
448,192,25436,1,2,2:0:0:0:
64,192,26037,128,2,27237:2:0:0:0:
320,192,26487,1,2,2:0:0:0:
192,192,27237,128,2,28437:2:0:0:0:
448,192,27687,1,2,2:0:0:0:
320,192,28437,128,2,29037:2:0:0:0:
448,192,29037,128,2,29637:2:0:0:0:
64,192,29637,1,2,2:0:0:0:
192,192,29937,1,2,2:0:0:0:
320,192,30388,1,2,2:0:0:0:
448,192,30688,1,2,2:0:0:0:
320,192,30988,1,2,2:0:0:0:
192,192,31138,1,2,2:0:0:0:
448,192,31588,1,2,2:0:0:0:
64,192,31738,1,2,2:0:0:0:
320,192,32038,1,2,2:0:0:0:
192,192,32338,1,2,2:0:0:0:
448,192,32638,1,2,2:0:0:0:
64,192,32788,1,2,2:0:0:0:
192,192,33088,1,2,2:0:0:0:
320,192,33388,1,2,2:0:0:0:
448,192,33538,1,2,2:0:0:0:
64,192,33838,1,2,2:0:0:0:
192,192,34139,1,2,2:0:0:0:
320,192,34439,1,4,2:0:0:0:
64,192,34439,1,8,0:0:0:0:
448,192,34739,1,2,2:0:0:0:
192,192,35039,1,2,2:0:0:0:
64,192,35189,1,2,2:0:0:0:
448,192,35489,1,2,2:0:0:0:
192,192,35789,1,2,2:0:0:0:
320,192,35939,1,2,2:0:0:0:
192,192,36389,1,2,2:0:0:0:
320,192,36539,1,2,2:0:0:0:
64,192,36839,1,2,2:0:0:0:
192,192,37139,1,2,2:0:0:0:
448,192,37439,1,2,2:0:0:0:
320,192,37739,1,2,2:0:0:0:
192,192,38040,1,2,2:0:0:0:
64,192,38340,1,2,2:0:0:0:
448,192,38640,128,2,39240:2:0:0:0:
320,192,39240,1,4,2:0:0:0:
64,192,39240,1,8,0:0:0:0:
320,192,39840,1,2,2:0:0:0:
192,192,40440,1,2,2:0:0:0:
192,192,41040,1,2,2:0:0:0:
64,192,41640,1,2,2:0:0:0:
64,192,42241,1,2,2:0:0:0:
448,192,42841,1,2,2:0:0:0:
64,192,43441,128,8,44041:2:0:0:0:
448,192,43441,1,2,2:0:0:0:
448,192,44041,128,8,45241:2:0:0:0:
192,192,44041,1,2,2:0:0:0:
192,192,44491,1,2,2:0:0:0:
64,192,45241,128,8,46442:2:0:0:0:
320,192,45241,1,2,2:0:0:0:
320,192,45691,1,2,2:0:0:0:
192,192,46442,128,2,47642:2:0:0:0:
448,192,46442,1,8,2:0:0:0:
448,192,46892,1,8,2:0:0:0:
320,192,47342,1,8,2:0:0:0:
448,192,47642,128,8,48842:2:0:0:0:
64,192,48092,1,8,2:0:0:0:
192,192,48542,1,8,2:0:0:0:
320,192,48842,1,2,2:0:0:0:
64,192,49292,1,2,2:0:0:0:
448,192,49742,128,2,50643:2:0:0:0:
64,192,51093,128,8,53343:2:0:0:0:
448,192,51093,1,4,0:0:0:0:
320,192,51543,1,8,2:0:0:0:
448,192,52143,1,8,2:0:0:0:
320,192,52743,1,8,2:0:0:0:
192,192,53343,1,8,2:0:0:0:
448,192,53493,128,4,55744:2:0:0:0:
320,192,53493,1,8,0:0:0:0:
64,192,53943,1,8,2:0:0:0:
320,192,54544,1,8,2:0:0:0:
192,192,55144,1,8,2:0:0:0:
64,192,55744,1,8,2:0:0:0:
192,192,55894,128,4,58145:2:0:0:0:
320,192,55894,1,8,0:0:0:0:
448,192,56344,1,8,2:0:0:0:
64,192,56944,1,8,2:0:0:0:
320,192,57544,1,8,2:0:0:0:
448,192,58145,1,8,2:0:0:0:
320,192,58295,128,4,59495:2:0:0:0:
64,192,58295,1,8,0:0:0:0:
64,192,58745,1,8,2:0:0:0:
192,192,59195,1,8,2:0:0:0:
448,192,59495,128,4,60245:2:0:0:0:
64,192,59495,1,8,0:0:0:0:
64,192,60245,1,8,2:0:0:0:
192,192,60545,1,8,2:0:0:0:
64,192,60695,128,4,62946:2:0:0:0:
320,192,60695,1,8,0:0:0:0:
448,192,61145,1,8,2:0:0:0:
192,192,61745,1,8,2:0:0:0:
320,192,62346,1,8,2:0:0:0:
448,192,62946,1,8,2:0:0:0:
192,192,63096,128,4,65346:2:0:0:0:
320,192,63096,1,8,0:0:0:0:
64,192,63546,1,8,2:0:0:0:
320,192,64146,1,8,2:0:0:0:
448,192,64746,1,8,2:0:0:0:
64,192,65346,1,8,2:0:0:0:
320,192,65496,128,4,67747:2:0:0:0:
448,192,65496,1,8,0:0:0:0:
192,192,65946,1,8,2:0:0:0:
448,192,66547,1,8,2:0:0:0:
64,192,67147,1,8,2:0:0:0:
192,192,67747,1,8,2:0:0:0:
448,192,67897,128,4,69247:2:0:0:0:
64,192,67897,1,8,0:0:0:0:
320,192,68347,1,8,2:0:0:0:
64,192,68647,1,8,2:0:0:0:
320,192,68947,1,8,2:0:0:0:
64,192,69247,128,2,69847:2:0:0:0:
320,192,69847,1,8,2:0:0:0:
448,192,69847,1,2,2:0:0:0:
192,192,70298,1,4,2:0:0:0:
64,192,70298,1,8,0:0:0:0:
320,192,70748,1,2,2:0:0:0:
448,192,71048,1,8,2:0:0:0:
64,192,71498,1,2,2:0:0:0:
192,192,71798,1,8,2:0:0:0:
320,192,72248,1,8,2:0:0:0:
64,192,72698,1,4,2:0:0:0:
448,192,72698,1,8,0:0:0:0:
448,192,73148,1,2,2:0:0:0:
192,192,73448,1,8,2:0:0:0:
320,192,73898,1,2,2:0:0:0:
64,192,74199,1,8,2:0:0:0:
448,192,74649,1,8,2:0:0:0:
192,192,74949,1,8,2:0:0:0:
320,192,75099,1,4,2:0:0:0:
64,192,75099,1,8,0:0:0:0:
448,192,75549,1,8,2:0:0:0:
320,192,76149,1,8,2:0:0:0:
192,192,76749,1,8,2:0:0:0:
448,192,77349,1,8,2:0:0:0:
192,192,77499,1,8,0:0:0:0:
320,192,77499,1,4,0:0:0:0:
64,192,77949,1,8,2:0:0:0:
192,192,78550,1,8,2:0:0:0:
448,192,78850,128,2,79450:2:0:0:0:
64,192,79450,1,2,2:0:0:0:
192,192,79900,1,4,2:0:0:0:
320,192,79900,1,8,2:0:0:0:
448,192,80350,1,8,2:0:0:0:
192,192,80950,1,8,2:0:0:0:
320,192,81550,1,8,2:0:0:0:
192,192,82000,1,8,2:0:0:0:
448,192,82151,1,8,2:0:0:0:
64,192,82301,1,2,2:0:0:0:
192,192,82751,1,8,2:0:0:0:
320,192,83351,1,8,2:0:0:0:
192,192,83501,1,8,0:0:0:0:
64,192,83501,1,4,0:0:0:0:
320,192,83951,1,8,2:0:0:0:
448,192,84551,1,8,2:0:0:0:
320,192,84701,1,2,2:0:0:0:
64,192,85151,1,8,2:0:0:0:
192,192,85451,1,8,2:0:0:0:
320,192,85901,1,4,2:0:0:0:
64,192,86352,1,8,2:0:0:0:
448,192,86652,1,8,2:0:0:0:
192,192,86952,1,8,2:0:0:0:
320,192,87102,1,2,2:0:0:0:
64,192,87552,1,8,2:0:0:0:
448,192,87852,1,8,2:0:0:0:
320,192,88152,1,2,2:0:0:0:
64,192,88302,128,4,89052:2:0:0:0:
