osu file format v14

[General]
AudioFilename: audio.mp3
AudioLeadIn: 0
PreviewTime: -1
Countdown: 1
SampleSet: Normal
StackLeniency: 0.7
Mode: 0
LetterboxInBreaks: 0
WidescreenStoryboard: 1

[Editor]
DistanceSpacing: 1.7
BeatDivisor: 4
GridSize: 16
TimelineZoom: 2.1

[Metadata]
Title:Brave Freak Out! (TV Size)
TitleUnicode:Brave Freak Out! (TV Size)
Artist:LiSA
ArtistUnicode:LiSA
Creator:hlanden
Version:Bravery
Source:Qualidea Code
Tags:opening LiSA Qualidea_Code anime
BeatmapID:1128817
BeatmapSetID:532777

[Difficulty]
HPDrainRate:6
CircleSize:4
OverallDifficulty:8.4
ApproachRate:9.3
SliderMultiplier:1.4
SliderTickRate:1

[Events]
//Background and Video events
0,0,"qualidea_code_wallpaper_by_sanoboss-dac9bas.jpg",0,0
//Break Periods
2,15979,17626
//Storyboard Layer 0 (Background)
//Storyboard Layer 1 (Fail)
//Storyboard Layer 2 (Pass)
//Storyboard Layer 3 (Foreground)
//Storyboard Sound Samples

[TimingPoints]
480,300,4,1,0,100,1,0
50280,-86.9565217391304,4,1,0,100,0,1
67080,-133.333333333333,4,1,0,100,0,1
69480,-100,4,1,0,100,0,0
71880,-100,4,1,0,100,0,0
73530,-90.9090909090909,4,1,0,100,0,0
74730,-86.9565217391304,4,1,0,100,0,1
79980,-80,4,1,0,100,0,1
85980,-100,4,1,0,100,0,0

[HitObjects]
168,228,480,6,0,L|192:184,7,35
288,235,1080,1,0,0:0:0:0:
295,188,1155,1,0,0:0:0:0:
284,140,1230,1,0,0:0:0:0:
260,104,1305,1,0,0:0:0:0:
224,88,1380,1,0,0:0:0:0:
80,192,1530,6,0,L|160:130,1,70
224,88,1830,1,0,0:0:0:0:
224,88,1905,1,0,0:0:0:0:
224,88,1980,1,0,0:0:0:0:
256,224,2130,1,0,0:0:0:0:
326,359,2280,2,0,L|234:319,1,70
112,224,2580,1,0,0:0:0:0:
224,128,2730,2,0,L|304:96,1,70
368,32,3030,5,0,0:0:0:0:
416,224,3180,1,0,0:0:0:0:
480,48,3330,5,0,0:0:0:0:
416,240,3480,1,0,0:0:0:0:
272,80,3630,1,0,0:0:0:0:
416,256,3780,1,0,0:0:0:0:
416,256,3855,1,0,0:0:0:0:
416,256,3930,2,0,L|349:194,1,70
208,32,4230,5,0,0:0:0:0:
208,32,4305,1,0,0:0:0:0:
208,32,4380,1,0,0:0:0:0:
291,159,4530,1,0,0:0:0:0:
208,304,4680,1,0,0:0:0:0:
112,160,4830,1,0,0:0:0:0:
208,320,4980,1,0,0:0:0:0:
74,90,5130,2,0,P|37:150|56:218,1,140
96,304,5730,6,0,P|112:352|144:368,1,70
208,256,6030,1,0,0:0:0:0:
352,320,6180,1,0,0:0:0:0:
352,192,6330,2,0,L|299:138,1,70
176,16,6630,5,0,0:0:0:0:
96,160,6780,2,0,P|72:194|73:242,1,70
156,332,7080,1,0,0:0:0:0:
314,308,7230,1,0,0:0:0:0:
145,214,7380,1,0,0:0:0:0:
242,56,7530,2,0,P|304:48|317:74,1,70
392,128,7830,5,0,0:0:0:0:
392,128,7905,1,0,0:0:0:0:
392,128,7980,1,0,0:0:0:0:
256,180,8130,1,0,0:0:0:0:
464,256,8280,2,0,P|464:304|448:336,1,70
336,320,8580,1,0,0:0:0:0:
336,320,8655,1,0,0:0:0:0:
336,320,8730,1,0,0:0:0:0:
82,290,9030,5,0,0:0:0:0:
81,86,9180,2,0,B|133:89|162:141,1,70
256,208,9480,1,0,0:0:0:0:
293,39,9630,2,0,B|337:48|367:90,1,70
406,201,9930,1,0,0:0:0:0:
406,201,10005,1,0,0:0:0:0:
406,201,10080,6,0,P|444:218|468:265,1,70
446,317,10380,2,0,P|399:283|390:257,1,70
240,144,10680,1,0,0:0:0:0:
240,320,10830,1,0,0:0:0:0:
144,192,10980,1,0,0:0:0:0:
96,320,11130,2,0,L|34:274,1,70
80,128,11430,5,0,0:0:0:0:
208,224,11580,2,0,L|207:147,1,70
304,32,11880,2,0,P|336:64|349:95,1,70
208,224,12180,2,0,L|206:148,1,70
128,32,12480,5,0,0:0:0:0:
208,224,12630,1,0,0:0:0:0:
288,32,12780,1,0,0:0:0:0:
208,224,12930,1,0,0:0:0:0:
336,224,13080,2,0,P|384:208|398:179,1,70
464,48,13380,1,0,0:0:0:0:
320,144,13530,2,0,P|272:160|256:192,1,70
128,336,13830,5,0,0:0:0:0:
265,327,13980,2,0,P|257:293|265:259,1,70
336,224,14280,2,0,P|343:257|337:295,1,70
448,304,14580,2,0,P|448:272|449:256,1,35
448,224,14730,1,0,0:0:0:0:
447,185,14805,1,0,0:0:0:0:
445,147,14880,5,0,0:0:0:0:
437,109,14955,1,0,0:0:0:0:
421,74,15030,1,0,0:0:0:0:
393,48,15105,1,0,0:0:0:0:
356,38,15180,1,0,0:0:0:0:
318,43,15255,1,0,0:0:0:0:
287,64,15330,1,0,0:0:0:0:
272,96,15405,1,0,0:0:0:0:
272,128,15480,1,0,0:0:0:0:
304,224,15630,6,0,L|396:223,1,70
64,80,18180,6,0,L|64:170,1,70
64,272,18480,5,0,0:0:0:0:
192,304,18630,1,0,0:0:0:0:
64,272,18780,1,0,0:0:0:0:
192,304,18930,1,0,0:0:0:0:
192,176,19080,2,0,P|230:162|272:176,1,70
298,226,19380,2,0,P|250:242|218:226,1,70
112,176,19680,5,0,0:0:0:0:
224,48,19830,1,0,0:0:0:0:
259,205,19980,2,0,B|250:215|266:215|238:183|288:144,1,70
288,16,20280,1,0,0:0:0:0:
176,160,20430,1,0,0:0:0:0:
354,131,20580,2,0,B|359:172|332:202,1,70
216,345,20880,6,0,P|258:317|268:281,1,70
272,192,21180,1,0,0:0:0:0:
144,192,21330,1,0,0:0:0:0:
144,16,21480,1,0,0:0:0:0:
64,128,21630,1,0,0:0:0:0:
144,224,21780,2,0,L|201:281,1,70
320,320,22080,5,0,0:0:0:0:
320,320,22230,1,0,0:0:0:0:
384,192,22380,2,0,P|393:149|423:122,1,70
486,123,22680,2,0,B|484:179|446:194,1,70
336,32,22980,1,0,0:0:0:0:
240,160,23130,1,0,0:0:0:0:
160,224,23280,6,0,L|115:162,1,70
48,64,23580,2,0,L|95:139,1,70
256,224,23880,2,0,L|212:164,1,70
112,0,24180,2,0,L|156:76,1,70
272,64,24480,5,0,0:0:0:0:
272,64,24555,1,0,0:0:0:0:
272,64,24630,1,0,0:0:0:0:
416,64,24780,2,0,P|384:112|354:127,1,70
416,256,25080,2,0,P|368:224|353:192,1,70
224,256,25380,2,0,P|256:208|285:193,1,70
224,64,25680,6,0,P|272:96|285:122,1,70
224,256,25980,1,0,0:0:0:0:
64,128,26130,1,0,0:0:0:0:
256,224,26280,1,0,0:0:0:0:
144,64,26430,1,0,0:0:0:0:
304,224,26580,1,0,0:0:0:0:
240,64,26730,1,0,0:0:0:0:
336,64,26880,6,0,L|412:96,1,70
448,208,27180,1,0,0:0:0:0:
304,224,27330,1,0,0:0:0:0:
304,224,27405,1,0,0:0:0:0:
304,224,27480,1,0,0:0:0:0:
368,336,27630,1,0,0:0:0:0:
192,336,27780,1,0,0:0:0:0:
96,144,28080,6,0,L|158:95,1,70
144,160,28380,2,0,L|237:126,1,70
256,64,28680,5,0,0:0:0:0:
293,72,28755,1,0,0:0:0:0:
316,101,28830,1,0,0:0:0:0:
312,138,28905,1,0,0:0:0:0:
292,171,28980,1,0,0:0:0:0:
264,197,29055,1,0,0:0:0:0:
229,213,29130,1,0,0:0:0:0:
196,227,29205,1,0,0:0:0:0:
221,256,29280,1,0,0:0:0:0:
304,336,29430,6,0,P|336:384|366:384,1,70
448,320,29730,1,0,0:0:0:0:
416,160,29880,1,0,0:0:0:0:
304,336,30030,2,0,P|272:352|215:335,1,70
128,272,30330,1,0,0:0:0:0:
160,128,30480,6,0,P|124:141|80:128,1,70
112,64,30780,2,0,P|151:52|201:70,1,70
320,64,31080,1,0,0:0:0:0:
384,224,31230,1,0,0:0:0:0:
464,112,31380,1,0,0:0:0:0:
320,64,31530,1,0,0:0:0:0:
384,224,31680,6,0,P|352:288|333:288,1,70
208,336,31980,1,0,0:0:0:0:
208,336,32055,1,0,0:0:0:0:
208,336,32130,1,0,0:0:0:0:
48,240,32280,2,0,P|16:176|20:161,1,70
128,16,32580,1,0,0:0:0:0:
73,191,32730,1,0,0:0:0:0:
215,70,32880,5,0,0:0:0:0:
40,70,33030,1,0,0:0:0:0:
182,191,33180,1,0,0:0:0:0:
182,191,33330,1,0,0:0:0:0:
256,288,33480,2,0,P|315:319|346:311,1,70
448,240,33780,1,0,0:0:0:0:
368,112,33930,2,0,P|320:80|279:81,1,70
208,192,34230,5,0,0:0:0:0:
272,352,34380,2,0,L|351:350,1,70
416,224,34680,1,0,0:0:0:0:
416,64,34830,1,0,0:0:0:0:
304,48,34980,1,0,0:0:0:0:
496,48,35130,2,0,P|496:112|472:127,1,70
384,240,35430,5,0,0:0:0:0:
224,64,35580,1,0,0:0:0:0:
144,240,35730,1,0,0:0:0:0:
93,160,35880,2,0,L|137:97,1,70
272,160,36180,2,0,L|226:235,1,70
227,236,36405,1,0,0:0:0:0:
219,250,36480,5,0,0:0:0:0:
384,144,36630,1,0,0:0:0:0:
288,336,36780,5,0,0:0:0:0:
384,160,36930,1,0,0:0:0:0:
432,368,37080,1,0,0:0:0:0:
384,176,37230,1,0,0:0:0:0:
288,48,37380,2,0,P|224:32|193:44,1,70
80,80,37680,5,0,0:0:0:0:
96,240,37830,1,0,0:0:0:0:
240,176,37980,5,0,0:0:0:0:
192,336,38130,1,0,0:0:0:0:
312,252,38280,5,0,0:0:0:0:
342,215,38355,1,0,0:0:0:0:
345,168,38430,1,0,0:0:0:0:
336,128,38505,1,0,0:0:0:0:
303,91,38580,1,0,0:0:0:0:
128,112,38730,2,0,P|128:64|96:32,2,70
44,267,39180,1,0,0:0:0:0:
211,308,39330,1,0,0:0:0:0:
64,256,39480,5,0,0:0:0:0:
224,288,39630,1,0,0:0:0:0:
196,202,39780,2,0,P|232:158|265:153,1,70
410,187,40080,2,0,P|440:218|441:268,1,70
305,325,40380,6,0,P|275:368|233:374,1,70
128,192,40680,1,0,0:0:0:0:
207,71,40830,1,0,0:0:0:0:
227,66,40905,1,0,0:0:0:0:
251,72,40980,1,0,0:0:0:0:
368,176,41130,1,0,0:0:0:0:
368,64,41280,1,0,0:0:0:0:
464,96,41430,5,0,0:0:0:0:
352,192,41580,1,0,0:0:0:0:
251,72,41730,1,0,0:0:0:0:
227,66,41805,1,0,0:0:0:0:
207,71,41880,1,0,0:0:0:0:
57,164,42030,1,0,0:0:0:0:
168,309,42180,2,0,P|217:322|241:306,1,70
400,144,42480,5,0,0:0:0:0:
424,59,42630,5,0,0:0:0:0:
380,56,42705,1,0,0:0:0:0:
342,69,42780,1,0,0:0:0:0:
318,94,42855,1,0,0:0:0:0:
308,132,42930,1,0,0:0:0:0:
288,256,43080,6,0,L|336:304,1,35
432,320,43305,2,0,L|432:272,1,35
432,144,43530,2,0,L|480:144,1,35
512,144,43680,5,0,0:0:0:0:
160,48,44130,1,0,0:0:0:0:
464,192,44580,1,0,0:0:0:0:
464,192,44880,1,0,0:0:0:0:
112,160,45330,5,0,0:0:0:0:
464,304,45780,2,0,L|432:224,1,70
304,144,46080,6,0,L|336:224,1,70
368,304,46380,1,0,0:0:0:0:
144,160,46530,1,0,0:0:0:0:
320,112,46680,1,0,0:0:0:0:
320,224,46830,1,0,0:0:0:0:
160,144,46980,1,0,0:0:0:0:
244,307,47130,1,0,0:0:0:0:
244,307,47205,1,0,0:0:0:0:
244,307,47280,1,0,0:0:0:0:
304,96,47430,5,0,0:0:0:0:
227,75,47580,2,0,P|250:36|299:20,1,70
368,160,47880,1,0,0:0:0:0:
512,112,48030,1,0,0:0:0:0:
480,272,48180,1,0,0:0:0:0:
480,272,48255,1,0,0:0:0:0:
480,272,48330,1,0,0:0:0:0:
368,160,48480,6,0,L|288:128,1,70
48,64,48930,2,0,L|80:144,1,70
158,313,49380,1,0,0:0:0:0:
80,64,50280,5,0,0:0:0:0:
144,304,50430,1,0,0:0:0:0:
144,304,50505,1,0,0:0:0:0:
144,304,50580,1,0,0:0:0:0:
320,192,50730,2,0,P|400:160|416:144,1,80.5000015354157
240,32,51030,5,0,0:0:0:0:
320,288,51180,1,0,0:0:0:0:
240,48,51330,1,0,0:0:0:0:
113,275,51480,2,0,P|110:238|65:195,1,80.5000015354157
48,48,51780,1,0,0:0:0:0:
48,48,51855,1,0,0:0:0:0:
48,48,51930,1,0,0:0:0:0:
32,272,52080,6,0,P|32:304|66:344,1,80.5000015354157
224,336,52380,1,0,0:0:0:0:
272,144,52530,1,0,0:0:0:0:
320,336,52680,1,0,0:0:0:0:
384,128,52830,2,0,P|400:80|370:59,1,80.5000015354157
181,67,53130,2,0,P|149:99|183:139,1,80.5000015354157
272,240,53430,5,0,0:0:0:0:
96,336,53580,1,0,0:0:0:0:
176,64,53730,1,0,0:0:0:0:
0,160,53880,2,0,P|48:192|93:178,1,80.5000015354157
288,224,54180,1,0,0:0:0:0:
288,224,54255,1,0,0:0:0:0:
288,224,54330,1,0,0:0:0:0:
448,64,54480,6,0,P|384:48|350:64,1,80.5000015354157
176,128,54780,1,0,0:0:0:0:
80,336,54930,1,0,0:0:0:0:
16,128,55080,1,0,0:0:0:0:
256,32,55230,1,0,0:0:0:0:
256,32,55305,1,0,0:0:0:0:
256,32,55380,1,0,0:0:0:0:
112,256,55530,2,0,P|176:256|194:285,1,80.5000015354157
352,352,55830,5,0,0:0:0:0:
256,192,55980,2,0,P|208:144|208:122,1,80.5000015354157
64,48,56280,2,0,P|107:77|116:113,1,80.5000015354157
37,126,56580,1,0,0:0:0:0:
76,262,56730,1,0,0:0:0:0:
58,294,56805,1,0,0:0:0:0:
64,336,56880,2,0,P|92:350|142:339,1,80.5000015354157
272,96,57180,5,0,0:0:0:0:
288,256,57330,1,0,0:0:0:0:
121,126,57480,1,0,0:0:0:0:
160,304,57630,1,0,0:0:0:0:
99,91,57780,1,0,0:0:0:0:
268,230,57930,2,0,P|255:202|230:157,1,80.5000015354157
128,128,58230,5,0,0:0:0:0:
93,145,58305,1,0,0:0:0:0:
67,173,58380,1,0,0:0:0:0:
51,208,58455,1,0,0:0:0:0:
49,246,58530,1,0,0:0:0:0:
61,282,58605,1,0,0:0:0:0:
88,309,58680,1,0,0:0:0:0:
122,325,58755,1,0,0:0:0:0:
158,334,58830,2,0,P|214:321|232:282,1,80.5000015354157
390,181,59130,2,0,P|390:245|358:309,1,120.750002303124
352,320,59430,5,0,0:0:0:0:
320,352,59505,1,0,0:0:0:0:
279,350,59580,1,0,0:0:0:0:
251,317,59655,1,0,0:0:0:0:
241,273,59730,1,0,0:0:0:0:
258,226,59805,1,0,0:0:0:0:
277,192,59880,6,0,P|241:163|175:175,1,80.5000015354157
14,39,60180,1,0,0:0:0:0:
146,200,60330,2,0,P|179:233|230:228,1,80.5000015354157
336,288,60630,5,0,0:0:0:0:
368,0,60780,1,0,0:0:0:0:
368,0,60855,1,0,0:0:0:0:
368,0,60930,1,0,0:0:0:0:
464,176,61080,1,0,0:0:0:0:
464,176,61155,1,0,0:0:0:0:
464,176,61230,1,0,0:0:0:0:
317,346,61380,1,0,0:0:0:0:
512,224,61530,1,0,0:0:0:0:
309,116,61680,5,0,0:0:0:0:
434,342,61830,1,0,0:0:0:0:
438,117,61980,1,0,0:0:0:0:
266,244,62130,2,0,P|246:281|193:286,1,80.5000015354157
45,238,62430,1,0,0:0:0:0:
228,11,62580,1,0,0:0:0:0:
266,244,62730,2,0,P|285:288|329:300,1,80.5000015354157
481,375,63030,5,0,0:0:0:0:
481,375,63105,1,0,0:0:0:0:
481,375,63180,1,0,0:0:0:0:
438,117,63330,1,0,0:0:0:0:
266,244,63480,2,0,P|252:202|215:182,1,80.5000015354157
126,38,63780,1,0,0:0:0:0:
367,52,63930,2,0,P|428:96|426:117,1,80.5000015354157
294,182,64230,6,0,P|289:229|250:252,1,80.5000015354157
144,160,64530,1,0,0:0:0:0:
400,301,64680,2,0,L|344:242,1,80.5000015354157
472,186,64980,1,0,0:0:0:0:
472,186,65055,1,0,0:0:0:0:
472,186,65130,1,0,0:0:0:0:
246,55,65280,5,0,0:0:0:0:
76,238,65430,2,0,P|64:288|80:336,1,80.5000015354157
133,355,65730,2,0,P|146:305|135:268,1,80.5000015354157
128,64,66030,1,0,0:0:0:0:
246,273,66180,1,0,0:0:0:0:
246,34,66330,1,0,0:0:0:0:
240,256,66480,1,0,0:0:0:0:
368,64,66630,5,0,0:0:0:0:
404,260,66780,2,0,P|401:298|371:326,1,80.5000015354157
220,316,67080,2,0,L|151:291,1,52.5000020027161
31,206,67380,1,0,0:0:0:0:
69,58,67530,1,0,0:0:0:0:
99,85,67605,1,0,0:0:0:0:
137,97,67680,1,0,0:0:0:0:
256,113,67830,6,0,P|222:138|216:167,1,52.5000020027161
274,279,68130,1,0,0:0:0:0:
446,270,68280,1,0,0:0:0:0:
432,112,68430,1,0,0:0:0:0:
278,31,68580,1,0,0:0:0:0:
278,79,68655,1,0,0:0:0:0:
246,111,68730,2,0,L|201:114,1,26.2500010013581
95,106,68880,5,0,0:0:0:0:
95,154,68955,1,0,0:0:0:0:
127,186,69030,1,0,0:0:0:0:
159,202,69105,1,0,0:0:0:0:
191,202,69180,1,0,0:0:0:0:
364,202,69480,5,0,0:0:0:0:
222,58,69630,1,0,0:0:0:0:
222,58,69780,1,0,0:0:0:0:
272,224,69930,1,0,0:0:0:0:
272,224,70005,1,0,0:0:0:0:
272,224,70080,1,0,0:0:0:0:
112,128,70230,6,0,P|96:80|65:64,1,70
176,272,70530,2,0,P|192:304|182:342,1,70
199,154,70830,2,0,P|187:119|155:103,1,70
240,224,71130,2,0,P|251:246|229:292,1,70
128,64,71430,5,0,0:0:0:0:
321,65,71580,1,0,0:0:0:0:
448,288,71880,6,0,P|400:320|368:304,1,70
252,316,72180,1,0,0:0:0:0:
298,235,72330,1,0,0:0:0:0:
332,241,72405,1,0,0:0:0:0:
367,239,72480,1,0,0:0:0:0:
293,128,72630,6,0,L|362:74,2,70
164,93,73080,2,0,P|115:141|114:169,1,70
53,321,73380,2,0,L|152:321,1,70
301,330,73680,5,0,0:0:0:0:
219,190,73830,2,0,L|182:121,1,77.0000023498536
115,2,74130,1,0,0:0:0:0:
289,0,74280,1,0,0:0:0:0:
220,192,74430,1,0,0:0:0:0:
220,192,74505,1,0,0:0:0:0:
220,192,74580,1,0,0:0:0:0:
70,105,74730,2,0,P|33:139|44:186,1,80.5000015354157
122,363,75030,5,0,0:0:0:0:
122,363,75180,1,0,0:0:0:0:
426,303,75330,2,0,P|388:275|370:228,1,80.5000015354157
273,81,75630,1,0,0:0:0:0:
374,246,75780,1,0,0:0:0:0:
106,132,75930,1,0,0:0:0:0:
346,157,76080,1,0,0:0:0:0:
81,237,76230,1,0,0:0:0:0:
181,75,76380,6,0,P|217:33|262:23,1,80.5000015354157
415,125,76680,1,0,0:0:0:0:
264,284,76830,1,0,0:0:0:0:
264,284,76905,1,0,0:0:0:0:
264,284,76980,1,0,0:0:0:0:
415,125,77130,2,0,P|453:167|443:197,1,80.5000015354157
368,192,77430,5,0,0:0:0:0:
193,101,77580,1,0,0:0:0:0:
305,277,77730,1,0,0:0:0:0:
161,133,77880,1,0,0:0:0:0:
209,325,78030,1,0,0:0:0:0:
128,160,78180,1,0,0:0:0:0:
113,325,78330,1,0,0:0:0:0:
96,192,78480,5,0,0:0:0:0:
85,147,78555,1,0,0:0:0:0:
96,96,78630,1,0,0:0:0:0:
128,64,78705,1,0,0:0:0:0:
160,48,78780,1,0,0:0:0:0:
208,48,78855,1,0,0:0:0:0:
240,64,78930,1,0,0:0:0:0:
352,272,79080,5,0,0:0:0:0:
192,160,79230,1,0,0:0:0:0:
352,272,79530,2,0,P|304:288|256:320,1,80.5000015354157
128,368,79830,1,0,0:0:0:0:
219,194,79980,5,0,0:0:0:0:
219,194,80055,1,0,0:0:0:0:
219,194,80130,1,0,0:0:0:0:
84,128,80280,2,0,P|57:94|16:83,1,87.5
16,160,80580,2,0,P|44:198|96:210,1,87.5
329,195,80880,5,0,0:0:0:0:
256,0,81030,1,0,0:0:0:0:
112,144,81180,1,0,0:0:0:0:
304,208,81330,1,0,0:0:0:0:
288,16,81480,1,0,0:0:0:0:
80,32,81630,5,0,0:0:0:0:
47,49,81705,1,0,0:0:0:0:
21,84,81780,1,0,0:0:0:0:
8,125,81855,1,0,0:0:0:0:
9,169,81930,1,0,0:0:0:0:
24,210,82005,1,0,0:0:0:0:
57,245,82080,6,0,P|91:278|144:283,1,87.5
384,333,82380,6,0,L|303:269,1,87.5
243,41,82680,1,0,0:0:0:0:
445,213,82830,1,0,0:0:0:0:
182,216,82980,1,0,0:0:0:0:
420,43,83130,1,0,0:0:0:0:
266,259,83280,5,0,0:0:0:0:
266,259,83355,1,0,0:0:0:0:
266,259,83430,1,0,0:0:0:0:
49,368,83580,1,0,0:0:0:0:
93,117,83730,1,0,0:0:0:0:
93,117,83805,1,0,0:0:0:0:
93,117,83880,2,0,L|89:210,1,87.5
236,308,84180,2,0,L|191:232,1,87.5
88,28,84480,5,0,0:0:0:0:
32,224,84630,1,0,0:0:0:0:
180,38,84780,1,0,0:0:0:0:
159,235,84930,1,0,0:0:0:0:
264,38,85080,1,0,0:0:0:0:
290,228,85230,1,0,0:0:0:0:
346,22,85380,1,0,0:0:0:0:
410,239,85530,2,0,P|391:277|350:288,1,87.5
350,288,85755,5,0,0:0:0:0:
350,288,85830,1,0,0:0:0:0:
253,176,85980,1,0,0:0:0:0:
253,176,86055,1,0,0:0:0:0:
253,176,86130,1,0,0:0:0:0:
312,85,86280,1,0,0:0:0:0:
156,127,86430,1,0,0:0:0:0:
156,127,86580,1,0,0:0:0:0:
254,7,86730,2,0,P|219:8|191:28,1,70
72,108,87029,5,0,0:0:0:0:
58,270,87179,1,0,0:0:0:0:
58,270,87254,1,0,0:0:0:0:
58,270,87329,1,0,0:0:0:0:
141,185,87479,1,0,0:0:0:0:
183,322,87629,1,0,0:0:0:0:
265,226,87779,1,0,0:0:0:0:
327,345,87930,2,0,L|357:271,1,70
256,192,88229,12,0,88979,0:0:0:0:
