osu file format v14

[General]
AudioFilename: audio.mp3
AudioLeadIn: 0
PreviewTime: 107825
Countdown: 1
SampleSet: Soft
StackLeniency: 0.7
Mode: 0
LetterboxInBreaks: 0
WidescreenStoryboard: 0

[Editor]
Bookmarks: 163997,178997
DistanceSpacing: 1.1
BeatDivisor: 4
GridSize: 16
TimelineZoom: 1.2

[Metadata]
Title:Bad Sweet Trap
TitleUnicode:Bad Sweet Trap
Artist:LiSA
ArtistUnicode:LiSA
Creator:Onlybiscuit
Version:Sentiment
Source:
Tags:
BeatmapID:1924480
BeatmapSetID:921531

[Difficulty]
HPDrainRate:5
CircleSize:4
OverallDifficulty:9.6
ApproachRate:9.4
SliderMultiplier:1.92
SliderTickRate:1

[Events]
//Background and Video events
0,0,"bg.jpg",0,0
//Break Periods
2,130447,133084
//Storyboard Layer 0 (Background)
//Storyboard Layer 1 (Fail)
//Storyboard Layer 2 (Pass)
//Storyboard Layer 3 (Foreground)
//Storyboard Sound Samples

[TimingPoints]
3997,312.5,4,2,0,75,1,0
3997,-125,4,2,0,75,0,0
11497,-111.111111111111,4,2,0,75,0,0
13840,-99.9999999999999,4,2,0,75,0,0
23997,-142.857142857143,4,2,0,75,0,0
32122,-90.9090909090909,4,2,0,75,0,0
33840,-100,4,2,0,75,0,0
43997,-166.666666666667,4,2,0,75,0,0
53684,-111.111111111111,4,2,0,75,0,0
53997,-100,4,2,0,75,0,0
58997,-142.857142857143,4,2,0,75,0,0
63997,-83.3333333333334,4,2,0,75,0,1
83997,-83.3333333333334,4,2,0,75,0,0
88528,-166.666666666667,4,2,0,75,0,0
88997,-142.857142857143,4,2,0,75,0,0
93997,-111.111111111111,4,2,0,75,0,0
94465,-142.857142857143,4,2,0,75,0,0
98684,-100,4,2,0,75,0,0
108997,-83.3333333333333,4,2,0,75,0,1
128997,-83.3333333333333,4,2,0,75,0,0
133684,-166.666666666667,4,2,0,75,0,0
133997,-125,4,2,0,75,0,0
138684,-250,4,2,0,75,0,0
138997,-142.857142857143,4,2,0,75,0,0
148997,-111.111111111111,4,2,0,75,0,0
163997,-90.9090909090908,4,2,0,75,0,1
178997,-90.9090909090908,4,2,0,75,0,1
182590,-90.9090909090908,4,2,0,75,0,0
183997,-166.666666666667,4,2,0,75,0,0
184309,-83.3333333333333,4,2,0,75,0,1
203997,-100,4,2,0,75,0,0
204465,-125,4,2,0,75,0,0
208997,-100,4,2,0,75,0,0
213997,-100,4,2,0,75,0,1
216497,-100,4,2,0,75,0,0

[Colours]
Combo1 : 255,255,128
Combo2 : 255,255,255
Combo3 : 128,255,128
Combo4 : 255,128,255
Combo5 : 128,255,255

[HitObjects]
89,59,3684,5,0,0:0:0:0:
89,59,3997,2,0,L|12:46,1,76.8
132,131,4309,1,0,0:0:0:0:
132,131,4465,2,0,L|209:118,1,76.8
92,209,4778,1,0,0:0:0:0:
92,209,4934,2,0,L|15:196,1,76.8
163,266,5247,5,0,0:0:0:0:
163,266,5403,2,0,L|240:253,1,76.8
91,319,5715,1,0,0:0:0:0:
92,209,5872,1,0,0:0:0:0:
241,346,6028,1,0,0:0:0:0:
14,291,6184,1,0,0:0:0:0:
207,118,6340,1,0,0:0:0:0:
14,211,6497,6,0,L|-3:123,1,76.8
89,59,6809,1,0,0:0:0:0:
89,59,6965,2,0,L|74:134,1,76.8
186,209,7278,1,0,0:0:0:0:
186,209,7434,2,0,L|171:133,1,76.8
271,19,7747,5,0,0:0:0:0:
271,19,7903,2,0,L|256:94,1,76.8
279,190,8215,1,0,0:0:0:0:
171,133,8372,1,0,0:0:0:0:
364,99,8528,1,0,0:0:0:0:
219,252,8684,1,0,0:0:0:0:
271,19,8840,1,0,0:0:0:0:
437,178,8997,6,0,P|454:138|458:98,1,76.8
279,190,9309,1,0,0:0:0:0:
279,190,9465,2,0,P|262:150|258:110,1,76.8
350,300,9778,1,0,0:0:0:0:
350,300,9934,2,0,P|367:260|371:220,1,76.8
210,347,10247,5,0,0:0:0:0:
210,347,10403,2,0,P|193:307|189:267,1,76.8
279,190,10715,1,0,0:0:0:0:
171,133,10872,1,0,0:0:0:0:
278,324,11028,1,0,0:0:0:0:
249,113,11184,1,0,0:0:0:0:
102,303,11340,1,0,0:0:0:0:
0,104,11497,6,0,P|52:105|89:169,1,129.599996044922
43,232,11809,1,0,0:0:0:0:
260,70,11965,2,0,P|208:71|171:135,1,129.599996044922
211,199,12278,1,0,0:0:0:0:
449,71,12434,6,0,B|463:109|463:109|420:241,1,172.799994726563
348,340,12903,1,0,0:0:0:0:
348,340,12981,1,0,0:0:0:0:
348,340,13059,1,0,0:0:0:0:
316,174,13215,1,0,0:0:0:0:
447,367,13372,1,0,0:0:0:0:
241,354,13528,1,0,0:0:0:0:
241,354,13840,6,0,B|210:357|188:373|188:373|188:357|195:344|195:344|142:371|81:353,1,192
25,111,14309,1,0,0:0:0:0:
133,278,14465,1,0,0:0:0:0:
139,261,14543,1,0,0:0:0:0:
137,239,14622,1,0,0:0:0:0:
23,272,14778,1,0,0:0:0:0:
223,255,14934,2,0,P|217:203|185:160,1,96
29,21,15247,5,0,0:0:0:0:
24,192,15403,1,0,0:0:0:0:
188,2,15559,1,0,0:0:0:0:
25,111,15715,1,0,0:0:0:0:
43,103,15793,1,0,0:0:0:0:
66,103,15872,1,0,0:0:0:0:
146,195,16028,1,0,0:0:0:0:
264,42,16184,2,0,B|310:22|310:22|366:25,1,96
313,240,16497,5,0,0:0:0:0:
202,123,16653,1,0,0:0:0:0:
274,311,16809,1,0,0:0:0:0:
329,110,16965,1,0,0:0:0:0:
341,128,17043,1,0,0:0:0:0:
345,154,17122,1,0,0:0:0:0:
213,252,17278,1,0,0:0:0:0:
264,42,17434,2,0,B|310:22|310:22|366:25,1,96
388,266,17747,5,0,0:0:0:0:
470,97,17903,1,0,0:0:0:0:
274,311,18059,5,0,0:0:0:0:
202,123,18215,1,0,0:0:0:0:
146,352,18372,5,0,0:0:0:0:
263,176,18528,1,0,0:0:0:0:
18,255,18684,2,0,P|60:224|123:280,1,144
146,352,18997,5,0,0:0:0:0:
292,286,19153,1,0,0:0:0:0:
92,193,19309,1,0,0:0:0:0:
215,319,19465,1,0,0:0:0:0:
216,295,19543,1,0,0:0:0:0:
210,270,19622,1,0,0:0:0:0:
202,123,19778,1,0,0:0:0:0:
18,255,19934,2,0,L|8:157,1,96
169,39,20247,5,0,0:0:0:0:
237,193,20403,1,0,0:0:0:0:
375,8,20559,5,0,0:0:0:0:
202,123,20715,1,0,0:0:0:0:
458,134,20872,5,0,0:0:0:0:
214,150,21028,1,0,0:0:0:0:
448,321,21184,5,0,0:0:0:0:
237,193,21340,1,0,0:0:0:0:
449,104,21497,6,0,B|457:77|457:77|414:140|356:133,1,144
304,86,21809,1,0,0:0:0:0:
81,238,21965,2,0,B|116:221|116:221|212:271,1,144
240,338,22278,1,0,0:0:0:0:
449,104,22434,2,0,P|462:164|476:252,1,144
443,312,22747,5,0,0:0:0:0:
321,204,22903,1,0,0:0:0:0:
321,204,22981,1,0,0:0:0:0:
321,204,23059,2,0,L|341:148,1,48
223,292,23215,2,0,L|239:337,1,48
202,123,23372,1,0,0:0:0:0:
90,337,23528,1,0,0:0:0:0:
0,57,23997,6,0,B|79:63|55:105|130:113,1,134.399995898438
191,40,24465,1,0,0:0:0:0:
168,178,24622,2,0,P|198:140|202:111,1,67.1999979492188
275,22,24934,2,0,P|285:53|308:77,1,67.1999979492188
396,215,25247,6,0,P|368:177|278:175,1,134.399995898438
318,259,25715,1,0,0:0:0:0:
173,268,25872,2,0,P|205:251|243:248,1,67.1999979492188
329,346,26184,2,0,P|295:341|266:325,1,67.1999979492188
85,242,26497,6,0,L|111:386,1,134.399995898438
173,268,26965,1,0,0:0:0:0:
18,329,27122,2,0,L|4:263,1,67.1999979492188
65,145,27434,2,0,L|78:210,1,67.1999979492188
85,242,27668,1,0,0:0:0:0:
85,242,27747,6,0,P|106:208|132:189,1,67.1999979492188
231,124,28059,2,0,P|193:126|162:113,1,67.1999979492188
21,69,28372,2,0,P|52:58|85:60,1,67.1999979492188
65,145,28684,1,0,0:0:0:0:
161,36,28840,1,0,0:0:0:0:
288,187,28997,6,0,B|318:200|318:200|415:163,1,134.399995898438
322,107,29465,1,0,0:0:0:0:
204,205,29622,2,0,P|222:245|251:268,1,67.1999979492188
364,279,29934,2,0,P|322:299|302:325,1,67.1999979492188
491,361,30247,6,0,P|495:293|505:222,1,134.399995898438
364,279,30715,2,0,L|354:208,1,67.1999979492188
229,327,31028,1,0,0:0:0:0:
229,327,31184,2,0,L|238:260,1,67.1999979492188
87,350,31497,6,0,P|48:346|10:324,1,67.1999979492188
143,258,31809,1,0,0:0:0:0:
43,194,31965,1,0,0:0:0:0:
159,21,32122,2,0,B|152:88|176:182|176:182|109:124,1,211.200006445313
56,74,32590,1,0,0:0:0:0:
257,94,32747,5,0,0:0:0:0:
31,223,32903,1,0,0:0:0:0:
158,14,33059,1,0,0:0:0:0:
286,257,33215,1,0,0:0:0:0:
286,257,33528,1,0,0:0:0:0:
388,52,33684,1,0,0:0:0:0:
468,247,33840,6,0,P|420:157|336:161,1,192
248,347,34309,1,0,0:0:0:0:
379,241,34465,1,0,0:0:0:0:
192,205,34622,1,0,0:0:0:0:
369,271,34778,1,0,0:0:0:0:
181,384,34934,1,0,0:0:0:0:
263,147,35090,6,0,B|280:187|280:187|257:337,1,192
82,131,35559,2,0,L|99:225,1,96
195,58,35872,1,0,0:0:0:0:
192,205,36028,1,0,0:0:0:0:
15,73,36184,1,0,0:0:0:0:
0,292,36340,6,0,B|23:286|42:290|42:290|32:272|32:272|86:317|152:298,1,192
250,121,36809,1,0,0:0:0:0:
99,225,36965,1,0,0:0:0:0:
280,237,37122,2,0,P|231:211|181:204,1,96
297,43,37434,1,0,0:0:0:0:
390,248,37590,6,0,B|356:278|356:278|377:130,1,192
496,355,38059,5,0,0:0:0:0:
280,237,38215,1,0,0:0:0:0:
512,151,38372,5,0,0:0:0:0:
425,384,38528,1,0,0:0:0:0:
250,121,38684,5,0,0:0:0:0:
250,121,38840,2,0,B|153:131|190:189|70:200,1,192
246,30,39309,2,0,P|302:47|332:83,1,96
280,237,39622,1,0,0:0:0:0:
250,121,39778,1,0,0:0:0:0:
156,310,39934,1,0,0:0:0:0:
59,116,40090,6,0,P|8:153|26:269,1,192
250,121,40559,1,0,0:0:0:0:
79,198,40715,1,0,0:0:0:0:
267,260,40872,2,0,P|289:302|305:361,1,96
152,96,41184,1,0,0:0:0:0:
14,283,41340,6,0,B|50:303|50:303|190:235,1,192
336,79,41809,2,0,L|240:124,1,96
426,236,42122,1,0,0:0:0:0:
469,215,42200,1,0,0:0:0:0:
512,194,42278,1,0,0:0:0:0:
361,0,42434,1,0,0:0:0:0:
314,185,42590,1,0,0:0:0:0:
306,207,42903,5,0,0:0:0:0:
299,231,43215,1,0,0:0:0:0:
292,258,43528,1,0,0:0:0:0:
150,97,43684,2,0,L|132:2,1,96
67,135,43997,6,0,P|109:181|175:181,1,115.199996484375
249,120,44465,1,0,0:0:0:0:
249,120,44622,2,0,L|264:40,1,57.5999982421876
281,201,44934,2,0,L|291:257,1,57.5999982421876
347,113,45247,6,0,P|377:97|414:94,1,57.5999982421876
459,199,45559,1,0,0:0:0:0:
459,199,45715,2,0,P|430:193|405:179,1,57.5999982421876
291,257,46028,2,0,P|315:242|344:237,1,57.5999982421876
347,330,46340,1,0,0:0:0:0:
195,228,46497,6,0,B|146:233|156:268|98:299,1,115.199996484375
34,246,46965,1,0,0:0:0:0:
34,246,47122,2,0,P|22:277|20:316,1,57.5999982421876
101,182,47434,2,0,P|66:156|44:151,1,57.5999982421876
195,228,47747,6,0,P|205:159|214:112,1,115.199996484375
144,60,48215,2,0,P|179:34|201:29,1,57.5999982421876
293,78,48528,1,0,0:0:0:0:
293,78,48840,1,0,0:0:0:0:
428,5,48997,6,0,B|446:28|446:28|421:120,1,115.199996484375
376,179,49465,1,0,0:0:0:0:
293,78,49622,2,0,L|304:134,1,57.5999982421876
364,235,49934,2,0,L|375:178,1,57.5999982421876
339,327,50247,6,0,P|380:332|407:317,1,57.5999982421876
270,221,50559,2,0,P|229:216|202:231,1,57.5999982421876
153,294,50872,1,0,0:0:0:0:
101,214,51028,1,0,0:0:0:0:
55,298,51184,1,0,0:0:0:0:
153,294,51340,1,0,0:0:0:0:
4,155,51497,6,0,P|12:183|17:229,1,57.5999982421876
132,60,51809,1,0,0:0:0:0:
142,43,52122,1,0,0:0:0:0:
187,131,52278,1,0,0:0:0:0:
80,127,52434,1,0,0:0:0:0:
156,19,52590,1,0,0:0:0:0:
283,129,52747,5,0,0:0:0:0:
283,129,52903,2,0,L|411:139,1,115.199996484375
341,52,53372,1,0,0:0:0:0:
339,216,53528,1,0,0:0:0:0:
464,53,53684,2,0,P|474:92|485:151,1,86.3999973632813
247,45,53997,6,0,B|292:37|292:37|343:52,1,96
512,227,54309,2,0,B|467:235|467:235|416:220,1,96
209,329,54622,2,0,B|254:321|254:321|305:336,1,96
184,146,54934,1,0,0:0:0:0:
62,316,55090,6,0,L|41:212,1,96
144,73,55403,1,0,0:0:0:0:
158,262,55559,1,0,0:0:0:0:
53,109,55715,1,0,0:0:0:0:
247,230,55872,2,0,L|268:126,1,96
158,262,56184,1,0,0:0:0:0:
185,301,56262,1,0,0:0:0:0:
228,321,56340,1,0,0:0:0:0:
275,319,56418,1,0,0:0:0:0:
314,290,56497,6,0,P|365:266|407:273,1,96
184,146,56809,2,0,P|133:122|91:129,1,96
354,47,57122,2,0,P|405:23|447:30,1,96
343,186,57434,1,0,0:0:0:0:
181,46,57590,6,0,P|130:22|88:29,1,96
129,214,57903,1,0,0:0:0:0:
248,93,58059,1,0,0:0:0:0:
66,127,58215,1,0,0:0:0:0:
247,230,58372,1,0,0:0:0:0:
58,160,58528,1,0,0:0:0:0:
206,316,58684,1,0,0:0:0:0:
233,276,58762,1,0,0:0:0:0:
247,230,58840,1,0,0:0:0:0:
241,182,58918,1,0,0:0:0:0:
218,139,58997,6,0,B|155:155|181:193|101:217,1,134.399995898438
38,356,59465,1,0,0:0:0:0:
22,278,59622,2,0,P|77:282|117:356,1,134.399995898438
233,276,60090,1,0,0:0:0:0:
382,364,60247,5,0,0:0:0:0:
416,275,60403,2,0,B|383:263|383:263|295:332,1,134.399995898438
512,282,60872,5,0,0:0:0:0:
313,194,61028,1,0,0:0:0:0:
459,362,61184,5,0,0:0:0:0:
512,160,61340,1,0,0:0:0:0:
302,360,61497,5,0,0:0:0:0:
177,112,61653,1,0,0:0:0:0:
177,112,61965,1,0,0:0:0:0:
512,160,62122,1,0,0:0:0:0:
512,160,62434,1,0,0:0:0:0:
150,297,62590,1,0,0:0:0:0:
485,65,63997,6,0,B|456:67|436:82|436:82|428:56|428:56|379:135|296:116,1,230.39999296875
334,31,64465,1,0,0:0:0:0:
265,207,64622,1,0,0:0:0:0:
105,55,64778,2,0,L|88:171,1,115.199996484375
302,306,65090,6,0,P|279:218|155:213,1,230.39999296875
232,384,65559,2,0,L|215:270,1,115.199996484375
5,188,65872,1,0,0:0:0:0:
201,83,66028,1,0,0:0:0:0:
107,306,66184,1,0,0:0:0:0:
327,138,66340,6,0,B|372:211|302:305|302:305|333:293|362:303,1,230.39999296875
401,94,66809,2,0,P|346:52|297:54,1,115.199996484375
417,235,67122,1,0,0:0:0:0:
472,51,67278,1,0,0:0:0:0:
265,206,67434,1,0,0:0:0:0:
107,44,67590,6,0,P|42:55|37:160,1,172.799994726563
63,185,67903,1,0,0:0:0:0:
192,18,68059,1,0,0:0:0:0:
273,222,68215,2,0,P|294:131|302:43,1,172.799994726563
230,25,68528,1,0,0:0:0:0:
192,260,68684,1,0,0:0:0:0:
455,196,68840,1,0,0:0:0:0:
455,196,68918,1,0,0:0:0:0:
455,196,68997,6,0,B|347:221|395:272|265:323,1,230.39999296875
64,273,69465,1,0,0:0:0:0:
64,273,69622,2,0,P|118:236|168:234,1,115.199996484375
369,361,69934,2,0,P|312:355|266:321,1,115.199996484375
361,246,70247,1,0,0:0:0:0:
188,350,70403,1,0,0:0:0:0:
79,171,70559,5,0,0:0:0:0:
266,321,70715,1,0,0:0:0:0:
26,288,70872,5,0,0:0:0:0:
188,95,71028,1,0,0:0:0:0:
341,272,71184,5,0,0:0:0:0:
373,232,71262,1,0,0:0:0:0:
385,181,71340,1,0,0:0:0:0:
378,129,71418,1,0,0:0:0:0:
352,83,71497,6,0,P|298:99|265:147,1,115.199996484375
334,364,71809,2,0,P|388:348|421:300,1,115.199996484375
467,124,72122,1,0,0:0:0:0:
341,272,72278,1,0,0:0:0:0:
170,70,72434,1,0,0:0:0:0:
53,350,72590,6,0,B|80:375|80:375|269:320,1,230.39999296875
352,83,73059,1,0,0:0:0:0:
122,186,73215,1,0,0:0:0:0:
420,301,73372,5,0,0:0:0:0:
256,74,73528,1,0,0:0:0:0:
53,350,73684,1,0,0:0:0:0:
53,350,73997,6,0,B|39:290|61:242|61:242|52:247|37:258|37:258|46:202|32:165,1,230.39999296875
170,70,74465,1,0,0:0:0:0:
199,260,74622,1,0,0:0:0:0:
352,83,74778,2,0,L|376:205,1,115.199996484375
128,203,75090,6,0,P|201:165|291:260,1,230.39999296875
32,167,75559,2,0,L|54:53,1,115.199996484375
259,95,75872,1,0,0:0:0:0:
104,237,76028,1,0,0:0:0:0:
182,29,76184,1,0,0:0:0:0:
391,212,76340,6,0,B|397:236|434:257|434:257|473:171|469:93,1,230.39999296875
367,308,76809,2,0,P|427:339|485:324,1,115.199996484375
324,150,77122,1,0,0:0:0:0:
432,255,77278,1,0,0:0:0:0:
512,32,77434,1,0,0:0:0:0:
311,189,77590,6,0,B|325:150|325:150|263:204|199:189,1,172.799994726563
151,141,77903,1,0,0:0:0:0:
345,297,78059,1,0,0:0:0:0:
112,355,78215,2,0,B|74:311|74:311|97:193,1,172.799994726563
151,141,78528,1,0,0:0:0:0:
266,360,78684,1,0,0:0:0:0:
17,217,78840,1,0,0:0:0:0:
17,217,78918,1,0,0:0:0:0:
17,217,78997,5,0,0:0:0:0:
151,141,79153,1,0,0:0:0:0:
112,355,79309,1,0,0:0:0:0:
66,98,79465,1,0,0:0:0:0:
203,253,79622,1,0,0:0:0:0:
17,217,79778,1,0,0:0:0:0:
259,78,79934,6,0,B|330:80|330:80|406:128|406:128|483:129,1,230.39999296875
291,0,80403,1,0,0:0:0:0:
393,212,80559,1,0,0:0:0:0:
427,40,80715,1,0,0:0:0:0:
310,241,80872,2,0,P|348:291|408:303,1,115.199996484375
194,19,81184,1,0,0:0:0:0:
173,53,81262,1,0,0:0:0:0:
170,93,81340,1,0,0:0:0:0:
187,129,81418,1,0,0:0:0:0:
214,158,81497,6,0,P|230:212|209:277,1,115.199996484375
3,74,81809,5,0,0:0:0:0:
259,78,81965,1,0,0:0:0:0:
63,262,82122,5,0,0:0:0:0:
67,15,82278,1,0,0:0:0:0:
267,220,82434,5,0,0:0:0:0:
0,214,82590,1,0,0:0:0:0:
259,78,82747,5,0,0:0:0:0:
259,78,82825,1,0,0:0:0:0:
259,78,82903,2,0,P|275:98|287:135,1,57.5999982421876
409,23,83059,2,0,P|383:36|357:64,1,57.5999982421876
359,197,83215,2,0,P|377:153|394:132,1,57.5999982421876
477,73,83372,1,0,0:0:0:0:
487,99,83450,1,0,0:0:0:0:
489,127,83528,1,0,0:0:0:0:
486,155,83606,1,0,0:0:0:0:
477,182,83684,2,0,P|464:206|454:242,1,57.5999982421876
388,341,83840,2,0,P|379:313|366:288,1,57.5999982421876
285,127,83997,5,0,0:0:0:0:
44,153,84622,1,0,0:0:0:0:
44,153,84778,1,0,0:0:0:0:
412,245,85247,1,0,0:0:0:0:
412,245,85403,1,0,0:0:0:0:
99,281,85872,5,0,0:0:0:0:
198,43,86028,1,0,0:0:0:0:
372,318,86184,5,0,0:0:0:0:
276,97,86340,1,0,0:0:0:0:
72,360,86497,5,0,0:0:0:0:
284,204,86653,1,0,0:0:0:0:
45,133,86809,1,0,0:0:0:0:
258,337,86965,5,0,0:0:0:0:
301,81,87122,1,0,0:0:0:0:
71,207,87278,1,0,0:0:0:0:
399,178,87434,5,0,0:0:0:0:
199,43,87590,1,0,0:0:0:0:
306,271,87747,5,0,0:0:0:0:
329,287,87825,1,0,0:0:0:0:
356,296,87903,1,0,0:0:0:0:
384,300,87981,1,0,0:0:0:0:
412,296,88059,2,0,P|441:278|458:261,1,57.5999982421876
274,194,88215,2,0,P|245:212|228:229,1,57.5999982421876
487,87,88372,1,0,0:0:0:0:
258,337,88528,6,0,L|275:181,1,143.999995605469
215,137,88997,6,0,B|141:137|159:184|86:184,1,134.399995898438
24,117,89465,1,0,0:0:0:0:
0,289,89622,2,0,P|26:262|66:254,1,67.1999979492188
168,337,89934,2,0,P|136:326|114:301,1,67.1999979492188
185,253,90247,5,0,0:0:0:0:
273,384,90403,2,0,P|304:373|326:348,1,67.1999979492188
256,300,90716,1,0,0:0:0:0:
427,247,90872,2,0,L|414:316,1,67.1999979492188
314,228,91184,2,0,L|301:161,1,67.1999979492188
476,94,91497,6,0,P|461:143|370:147,1,134.399995898438
325,80,91965,1,0,0:0:0:0:
214,177,92122,2,0,P|172:171|146:157,1,67.1999979492188
69,42,92434,2,0,P|99:28|132:24,1,67.1999979492188
201,95,92747,5,0,0:0:0:0:
341,53,92903,2,0,P|310:39|277:35,1,67.1999979492188
201,95,93215,1,0,0:0:0:0:
386,158,93372,5,0,0:0:0:0:
222,271,93606,5,0,0:0:0:0:
385,369,93840,5,0,0:0:0:0:
399,258,93997,2,0,B|365:263|365:263|354:290|354:290|299:314|300:376,1,172.799994726563
222,271,94465,1,0,0:0:0:0:
86,372,94622,2,0,L|75:292,1,67.1999979492188
222,271,94934,2,0,L|212:337,1,67.1999979492188
134,217,95247,5,0,0:0:0:0:
286,133,95403,2,0,L|295:199,1,67.1999979492188
362,92,95715,1,0,0:0:0:0:
212,174,95872,1,0,0:0:0:0:
286,133,96028,1,0,0:0:0:0:
138,130,96184,2,0,P|164:102|201:91,1,67.1999979492188
362,92,96497,6,0,P|336:64|299:53,1,67.1999979492188
308,217,96809,2,0,P|338:204|360:178,1,67.1999979492188
440,52,97122,5,0,0:0:0:0:
512,241,97278,1,0,0:0:0:0:
309,54,97434,5,0,0:0:0:0:
222,271,97590,1,0,0:0:0:0:
40,54,98684,5,0,0:0:0:0:
225,185,98840,2,0,B|125:205|181:249|58:288,1,192
52,68,99309,2,0,P|77:122|88:171,1,96
222,271,99622,1,0,0:0:0:0:
251,115,99778,1,0,0:0:0:0:
66,285,99934,1,0,0:0:0:0:
320,186,100090,6,0,B|360:177|360:177|504:257,1,192
168,95,100559,2,0,P|194:46|286:46,1,144
336,80,100872,1,0,0:0:0:0:
351,262,101028,1,0,0:0:0:0:
512,60,101184,2,0,P|442:58|414:90,1,96
491,250,101497,6,0,L|502:142,1,96
315,275,101809,2,0,L|324:370,1,96
225,185,102122,1,0,0:0:0:0:
394,147,102278,1,0,0:0:0:0:
220,288,102434,1,0,0:0:0:0:
37,144,102590,6,0,P|57:209|66:288,1,144
29,349,102903,1,0,0:0:0:0:
225,185,103059,2,0,P|206:224|191:291,1,96
94,61,103372,5,0,0:0:0:0:
308,165,103528,1,0,0:0:0:0:
65,284,103684,5,0,0:0:0:0:
237,104,103840,2,0,P|288:69|397:137,1,192
491,291,104309,2,0,P|443:242|401:240,1,96
220,288,104622,1,0,0:0:0:0:
308,165,104778,1,0,0:0:0:0:
418,331,104934,1,0,0:0:0:0:
498,76,105090,6,0,B|516:107|516:107|500:216,1,144
491,291,105403,1,0,0:0:0:0:
262,221,105559,2,0,P|189:213|142:271,1,144
126,334,105872,1,0,0:0:0:0:
0,189,106028,1,0,0:0:0:0:
220,288,106184,2,0,P|272:323|313:330,1,96
180,131,106497,6,0,P|133:143|96:172,1,96
355,234,106809,1,0,0:0:0:0:
222,58,106965,1,0,0:0:0:0:
144,260,107122,1,0,0:0:0:0:
299,140,107278,1,0,0:0:0:0:
114,73,107434,1,0,0:0:0:0:
220,288,107590,2,0,L|240:394,1,96
0,178,107903,5,0,0:0:0:0:
41,153,107981,1,0,0:0:0:0:
88,148,108059,1,0,0:0:0:0:
134,160,108137,1,0,0:0:0:0:
166,195,108215,1,0,0:0:0:0:
207,218,108293,1,0,0:0:0:0:
253,203,108372,2,0,P|277:185|297:176,1,48
389,56,108528,2,0,P|365:78|346:103,1,48
370,236,108684,2,0,P|376:200|376:176,1,48
465,112,108840,2,0,P|482:139|505:160,1,48
385,334,108997,6,0,P|316:317|301:168,1,230.39999296875
389,56,109465,1,0,0:0:0:0:
211,128,109622,1,0,0:0:0:0:
32,24,109778,2,0,L|46:142,1,115.199996484375
281,67,110090,6,0,B|303:29|303:29|115:66,1,230.39999296875
120,311,110559,2,0,P|170:278|188:212,1,115.199996484375
120,65,110872,1,0,0:0:0:0:
2,227,111028,1,0,0:0:0:0:
211,128,111184,1,0,0:0:0:0:
277,341,111340,6,0,B|319:359|319:359|505:292,1,230.39999296875
389,56,111809,2,0,L|382:187,1,115.199996484375
277,341,112122,1,0,0:0:0:0:
289,157,112278,1,0,0:0:0:0:
492,296,112434,1,0,0:0:0:0:
246,230,112590,6,0,B|161:253|197:297|99:325,1,172.799994726563
43,279,112903,1,0,0:0:0:0:
277,341,113059,1,0,0:0:0:0:
99,208,113215,2,0,P|88:129|66:37,1,172.799994726563
2,4,113528,1,0,0:0:0:0:
196,95,113684,1,0,0:0:0:0:
25,258,113840,1,0,0:0:0:0:
25,258,113918,1,0,0:0:0:0:
25,258,113997,5,0,0:0:0:0:
69,38,114153,1,0,0:0:0:0:
245,228,114309,1,0,0:0:0:0:
10,114,114465,1,0,0:0:0:0:
218,105,114622,1,0,0:0:0:0:
99,208,114778,1,0,0:0:0:0:
367,343,114934,6,0,B|385:298|369:240|369:240|379:245|389:253|389:253|382:192|399:152,1,230.39999296875
296,297,115403,1,0,0:0:0:0:
493,123,115559,5,0,0:0:0:0:
244,104,115715,1,0,0:0:0:0:
460,279,115872,5,0,0:0:0:0:
459,27,116028,1,0,0:0:0:0:
270,215,116184,5,0,0:0:0:0:
230,238,116262,1,0,0:0:0:0:
185,248,116340,1,0,0:0:0:0:
139,240,116418,1,0,0:0:0:0:
102,211,116497,6,0,P|52:177|-3:179,1,115.199996484375
193,329,116809,2,0,P|249:329|295:296,1,115.199996484375
134,90,117122,1,0,0:0:0:0:
32,266,117278,1,0,0:0:0:0:
249,78,117434,1,0,0:0:0:0:
384,279,117590,6,0,P|456:286|486:137,1,230.39999296875
257,43,118059,1,0,0:0:0:0:
420,194,118215,1,0,0:0:0:0:
185,248,118372,1,0,0:0:0:0:
343,21,118528,1,0,0:0:0:0:
350,42,118606,1,0,0:0:0:0:
345,70,118684,1,0,0:0:0:0:
327,99,118762,1,0,0:0:0:0:
305,132,118840,1,0,0:0:0:0:
302,177,118918,1,0,0:0:0:0:
327,222,118997,6,0,P|336:302|210:365,1,230.39999296875
222,173,119465,1,0,0:0:0:0:
109,349,119622,1,0,0:0:0:0:
0,158,119778,2,0,P|48:130|118:126,1,115.199996484375
258,284,120090,6,0,B|127:278|180:214|25:224,1,230.39999296875
238,59,120559,2,0,L|220:182,1,115.199996484375
352,50,120872,1,0,0:0:0:0:
279,259,121028,1,0,0:0:0:0:
156,32,121184,1,0,0:0:0:0:
316,179,121340,6,0,B|341:181|366:197|366:197|356:172|356:172|433:217|498:166,1,230.39999296875
444,0,121809,2,0,L|425:123,1,115.199996484375
341,311,122122,1,0,0:0:0:0:
299,105,122278,1,0,0:0:0:0:
490,264,122434,1,0,0:0:0:0:
221,172,122590,6,0,P|154:179|135:285,1,172.799994726563
171,331,122903,1,0,0:0:0:0:
54,145,123059,1,0,0:0:0:0:
252,316,123215,2,0,B|285:328|285:328|427:284,1,172.799994726563
490,264,123528,1,0,0:0:0:0:
299,105,123684,1,0,0:0:0:0:
171,331,123840,1,0,0:0:0:0:
171,331,123918,1,0,0:0:0:0:
171,331,123997,5,0,0:0:0:0:
54,145,124153,1,0,0:0:0:0:
221,172,124309,1,0,0:0:0:0:
51,306,124465,1,0,0:0:0:0:
164,84,124622,1,0,0:0:0:0:
267,243,124778,1,0,0:0:0:0:
482,67,124934,6,0,B|435:86|379:75|379:75|390:83|398:90|398:90|337:86|292:107,1,230.39999296875
425,0,125403,1,0,0:0:0:0:
352,213,125559,5,0,0:0:0:0:
225,24,125715,1,0,0:0:0:0:
184,308,125872,5,0,0:0:0:0:
298,104,126028,1,0,0:0:0:0:
365,344,126184,5,0,0:0:0:0:
405,342,126262,1,0,0:0:0:0:
441,324,126340,1,0,0:0:0:0:
466,292,126418,1,0,0:0:0:0:
475,252,126497,6,0,P|420:234|352:226,1,115.199996484375
75,214,126809,5,0,0:0:0:0:
267,367,126965,1,0,0:0:0:0:
202,130,127122,5,0,0:0:0:0:
39,328,127278,1,0,0:0:0:0:
318,262,127434,5,0,0:0:0:0:
104,101,127590,1,0,0:0:0:0:
161,355,127747,5,0,0:0:0:0:
273,184,127903,1,0,0:0:0:0:
273,184,127981,1,0,0:0:0:0:
273,184,128059,1,0,0:0:0:0:
311,171,128137,1,0,0:0:0:0:
351,173,128215,1,0,0:0:0:0:
384,195,128293,1,0,0:0:0:0:
407,228,128372,2,0,P|417:260|423:290,1,57.5999982421876
266,366,128528,2,0,P|271:337|281:310,1,57.5999982421876
335,117,128684,2,0,P|345:149|351:179,1,57.5999982421876
194,255,128840,2,0,P|199:226|209:199,1,57.5999982421876
362,337,128997,5,0,0:0:0:0:
256,192,129075,12,0,130247,0:0:0:0:
131,39,133684,6,0,P|175:24|218:23,1,86.3999973632813
250,10,133997,6,0,B|258:41|258:41|232:161,1,153.6
148,197,134465,1,0,0:0:0:0:
148,197,134622,2,0,P|225:193|273:260,1,153.6
199,353,135090,1,0,0:0:0:0:
199,353,135247,2,0,L|187:259,1,76.8
343,280,135559,1,0,0:0:0:0:
343,280,135715,2,0,L|333:356,1,76.8
471,213,136028,2,0,L|480:289,2,76.8
335,125,136497,5,0,0:0:0:0:
335,125,136653,2,0,P|382:100|411:98,1,76.8
471,213,136965,1,0,0:0:0:0:
471,213,137122,2,0,P|433:206|401:185,1,76.8
265,152,137434,2,0,P|297:131|334:124,1,76.8
220,303,137747,5,0,0:0:0:0:
96,108,137981,5,0,0:0:0:0:
327,205,138215,5,0,0:0:0:0:
120,209,138372,2,0,P|78:195|35:193,1,76.8
12,215,138606,1,0,0:0:0:0:
12,215,138684,6,0,L|23:278,1,57.6
0,332,138997,6,0,P|36:315|79:314,1,67.1999979492188
178,367,139309,2,0,P|144:324|150:273,1,100.799996923828
220,303,139622,2,0,B|286:304|267:356|359:358,1,134.399995898438
414,277,140090,1,0,0:0:0:0:
414,277,140247,6,0,L|437:350,1,67.1999979492188
314,247,140559,2,0,L|334:182,1,67.1999979492188
359,148,140793,1,0,0:0:0:0:
359,148,140872,2,0,P|401:162|419:183,1,67.1999979492188
342,61,141184,2,0,P|300:75|282:96,1,67.1999979492188
426,72,141497,6,0,P|421:18|404:-1,1,67.1999979492188
285,91,141809,2,0,B|226:79|247:43|177:38,1,100.799996923828
133,18,142122,2,0,P|148:60|151:93,1,67.1999979492188
28,69,142434,2,0,P|13:111|10:144,1,67.1999979492188
158,184,142747,6,0,P|121:151|95:146,1,67.1999979492188
9,289,143059,2,0,P|46:256|72:251,1,67.1999979492188
101,265,143293,1,0,0:0:0:0:
101,265,143372,2,0,P|123:289|154:302,1,67.1999979492188
191,281,143605,1,0,0:0:0:0:
191,281,143684,2,0,P|213:256|244:243,1,67.1999979492188
288,384,143997,6,0,L|266:300,1,67.1999979492188
331,206,144309,2,0,P|377:206|404:264,1,100.799996923828
432,321,144622,2,0,L|453:184,1,134.399995898438
335,125,145090,1,0,0:0:0:0:
335,125,145247,6,0,P|293:128|270:146,1,67.1999979492188
397,53,145559,2,0,P|439:56|462:74,1,67.1999979492188
475,97,145793,1,0,0:0:0:0:
475,97,145872,2,0,P|461:135|455:173,1,67.1999979492188
307,28,146184,2,0,P|323:69|335:128,1,100.799996923828
299,154,146497,6,0,P|284:194|278:230,1,67.1999979492188
243,353,146809,2,0,P|221:282|187:268,1,100.799996923828
162,270,147122,2,0,P|159:307|154:342,1,67.1999979492188
37,223,147434,2,0,P|39:256|44:289,1,67.1999979492188
127,189,147747,6,0,P|145:144|148:115,1,67.1999979492188
139,97,147981,1,0,0:0:0:0:
139,97,148059,2,0,P|132:64|118:33,1,67.1999979492188
284,167,148372,2,0,P|266:122|263:93,1,67.1999979492188
272,75,148606,1,0,0:0:0:0:
272,75,148684,2,0,P|278:42|292:11,1,67.1999979492188
457,74,148997,6,0,L|363:59,1,86.3999973632813
246,237,149309,2,0,P|342:228|358:188,1,129.599996044922
389,146,149622,2,0,B|410:169|410:169|403:323,1,172.799994726563
490,215,150090,1,0,0:0:0:0:
324,343,150247,6,0,L|327:256,1,86.3999973632813
153,283,150559,2,0,L|156:369,1,86.3999973632813
177,146,150872,2,0,P|128:121|67:172,1,129.599996044922
27,221,151184,2,0,L|16:130,1,86.3999973632813
187,60,151497,6,0,L|176:145,1,86.3999973632813
15,41,151809,2,0,B|86:29|70:69|148:69,1,129.599996044922
187,60,152122,2,0,P|245:41|271:44,1,86.3999973632813
389,146,152434,2,0,P|346:146|306:129,1,86.3999973632813
471,20,152747,6,0,B|494:48|494:48|475:164,1,129.599996044922
461,181,153059,2,0,P|446:224|443:271,1,86.3999973632813
306,129,153372,2,0,B|241:135|269:181|181:206,1,129.599996044922
175,249,153684,2,0,P|171:206|156:165,1,86.3999973632813
0,362,153997,6,0,B|-14:347|-14:347|91:325,1,129.599996044922
100,288,154309,2,0,L|15:269,1,86.3999973632813
185,366,154622,2,0,L|269:347,1,86.3999973632813
85,208,154934,2,0,L|0:189,1,86.3999973632813
252,276,155247,6,0,P|263:218|253:182,1,86.3999973632813
94,204,155559,2,0,P|87:246|99:287,1,86.3999973632813
257,192,155872,2,0,P|268:150|262:108,1,86.3999973632813
75,76,156184,2,0,P|121:111|156:109,1,86.3999973632813
345,92,156497,6,0,P|278:24|192:55,1,172.799994726563
262,108,156965,1,0,0:0:0:0:
424,58,157122,1,0,0:0:0:0:
314,186,157278,1,0,0:0:0:0:
506,263,157434,1,0,0:0:0:0:
401,314,157590,1,0,0:0:0:0:
424,58,157903,5,0,0:0:0:0:
259,252,158059,1,0,0:0:0:0:
126,25,158215,1,0,0:0:0:0:
370,122,158372,1,0,0:0:0:0:
79,162,158528,1,0,0:0:0:0:
332,25,158684,1,0,0:0:0:0:
72,246,158840,1,0,0:0:0:0:
323,348,158997,5,0,0:0:0:0:
262,108,159153,1,0,0:0:0:0:
88,273,159309,1,0,0:0:0:0:
370,122,159465,5,0,0:0:0:0:
107,98,159622,1,0,0:0:0:0:
235,285,159778,1,0,0:0:0:0:
181,19,159934,5,0,0:0:0:0:
19,199,160090,1,0,0:0:0:0:
276,192,160247,1,0,0:0:0:0:
21,76,160403,5,0,0:0:0:0:
158,320,160559,1,0,0:0:0:0:
262,108,160715,1,0,0:0:0:0:
393,315,160872,5,0,0:0:0:0:
393,315,160950,1,0,0:0:0:0:
393,315,161028,2,0,L|406:258,1,43.1999986816407
276,192,161184,2,0,L|285:234,1,43.1999986816407
410,127,161340,2,0,L|419:84,1,43.1999986816407
180,285,161497,5,0,0:0:0:0:
74,40,161653,1,0,0:0:0:0:
74,40,161965,1,0,0:0:0:0:
410,127,162122,1,0,0:0:0:0:
410,127,162434,1,0,0:0:0:0:
86,307,162590,1,0,0:0:0:0:
220,53,163215,5,0,0:0:0:0:
220,53,163293,1,0,0:0:0:0:
220,53,163372,1,0,0:0:0:0:
373,229,163606,5,0,0:0:0:0:
457,51,163840,5,0,0:0:0:0:
208,256,163997,5,0,0:0:0:0:
94,35,164153,1,0,0:0:0:0:
94,35,164231,1,0,0:0:0:0:
94,35,164309,2,0,B|78:83|78:83|86:139,1,105.600003222656
270,331,164622,6,0,P|299:349|317:369,1,52.8000016113282
85,250,164778,2,0,P|59:256|32:273,1,52.8000016113282
265,131,164934,5,0,0:0:0:0:
98,338,165090,1,0,0:0:0:0:
98,338,165168,1,0,0:0:0:0:
98,338,165247,6,0,B|139:346|187:317|187:317|179:327|175:336|175:336|223:321|277:332,1,211.200006445313
426,254,165715,1,0,0:0:0:0:
230,133,165872,5,0,0:0:0:0:
372,328,166028,1,0,0:0:0:0:
383,53,166184,5,0,0:0:0:0:
263,258,166340,1,0,0:0:0:0:
263,258,166418,1,0,0:0:0:0:
263,258,166497,5,0,0:0:0:0:
170,43,166653,1,0,0:0:0:0:
54,248,166809,5,0,0:0:0:0:
230,133,166965,1,0,0:0:0:0:
0,148,167122,5,0,0:0:0:0:
201,209,167278,1,0,0:0:0:0:
9,316,167434,5,0,0:0:0:0:
230,133,167590,1,0,0:0:0:0:
266,125,167668,1,0,0:0:0:0:
303,127,167747,1,0,0:0:0:0:
333,148,167825,1,0,0:0:0:0:
352,179,167903,1,0,0:0:0:0:
372,209,167981,1,0,0:0:0:0:
405,225,168059,1,0,0:0:0:0:
440,234,168137,1,0,0:0:0:0:
475,222,168215,1,0,0:0:0:0:
498,193,168293,1,0,0:0:0:0:
504,156,168372,6,0,P|494:126|483:105,1,52.8000016113282
344,8,168528,2,0,P|371:22|405:32,1,52.8000016113282
333,148,168684,2,0,P|360:134|394:124,1,52.8000016113282
200,42,168840,2,0,P|211:65|219:90,1,52.8000016113282
203,267,168997,5,0,0:0:0:0:
292,72,169153,1,0,0:0:0:0:
131,319,169309,5,0,0:0:0:0:
31,124,169465,2,0,P|15:99|-1:82,1,52.8000016113282
238,190,169622,5,0,0:0:0:0:
73,384,169778,1,0,0:0:0:0:
126,136,169934,5,0,0:0:0:0:
258,339,170090,2,0,P|268:357|292:380,1,52.8000016113282
354,142,170247,5,0,0:0:0:0:
141,223,170403,1,0,0:0:0:0:
396,261,170559,5,0,0:0:0:0:
470,238,170663,5,0,0:0:0:0:
511,172,170767,5,0,0:0:0:0:
508,93,170872,6,0,P|474:71|445:62,2,70.4000021484376
421,336,171184,5,0,0:0:0:0:
241,154,171340,1,0,0:0:0:0:
241,154,171418,1,0,0:0:0:0:
241,154,171497,5,0,0:0:0:0:
470,238,171653,1,0,0:0:0:0:
176,328,171809,5,0,0:0:0:0:
372,122,171965,2,0,P|397:79|401:60,1,52.8000016113282
272,334,172122,5,0,0:0:0:0:
143,136,172278,1,0,0:0:0:0:
306,235,172434,5,0,0:0:0:0:
158,347,172590,1,0,0:0:0:0:
248,63,172747,5,0,0:0:0:0:
248,63,172825,1,0,0:0:0:0:
248,63,172903,2,0,P|268:71|294:96,1,52.8000016113282
166,178,173059,2,0,P|142:193|115:204,1,52.8000016113282
46,55,173215,2,0,P|72:66|92:84,3,52.8000016113282
32,203,173528,2,0,P|19:176|11:154,1,52.8000016113282
185,274,173684,2,0,P|174:298|163:321,1,52.8000016113282
38,364,173840,2,0,P|26:341|17:313,1,52.8000016113282
315,109,173997,5,0,0:0:0:0:
422,347,174153,1,0,0:0:0:0:
215,69,174309,5,0,0:0:0:0:
119,326,174465,1,0,0:0:0:0:
376,169,174622,5,0,0:0:0:0:
98,61,174778,1,0,0:0:0:0:
274,361,174934,5,0,0:0:0:0:
326,81,175090,2,0,P|339:47|348:33,1,52.8000016113282
75,220,175247,5,0,0:0:0:0:
415,96,175403,1,0,0:0:0:0:
76,260,175559,5,0,0:0:0:0:
402,349,175715,1,0,0:0:0:0:
75,140,175872,5,0,0:0:0:0:
405,19,176028,1,0,0:0:0:0:
198,347,176184,5,0,0:0:0:0:
114,45,176340,1,0,0:0:0:0:
114,45,176418,1,0,0:0:0:0:
114,45,176497,5,0,0:0:0:0:
335,306,176653,1,0,0:0:0:0:
480,38,176809,5,0,0:0:0:0:
161,200,176965,1,0,0:0:0:0:
512,254,177122,5,0,0:0:0:0:
327,1,177278,1,0,0:0:0:0:
274,361,177434,5,0,0:0:0:0:
415,96,177590,1,0,0:0:0:0:
415,96,177668,1,0,0:0:0:0:
415,96,177747,5,0,0:0:0:0:
134,121,177903,1,0,0:0:0:0:
404,290,178059,5,0,0:0:0:0:
327,1,178215,1,0,0:0:0:0:
215,251,178372,5,0,0:0:0:0:
195,284,178450,1,0,0:0:0:0:
161,303,178528,1,0,0:0:0:0:
122,301,178606,1,0,0:0:0:0:
89,279,178684,2,0,P|72:255|62:231,1,52.8000016113282
155,83,178840,2,0,P|139:104|126:134,1,52.8000016113282
286,310,178997,6,0,B|327:326|327:326|428:295,1,140.800004296875
493,173,179309,1,0,0:0:0:0:
493,173,179413,2,0,P|464:187|424:221,1,70.4000021484376
324,233,179622,1,0,0:0:0:0:
277,171,179726,1,0,0:0:0:0:
286,94,179830,1,0,0:0:0:0:
357,64,179934,6,0,P|377:24|379:-18,2,70.4000021484376
198,145,180247,1,0,0:0:0:0:
198,145,180351,2,0,P|155:135|129:116,1,70.4000021484376
15,56,180559,1,0,0:0:0:0:
15,56,180663,2,0,P|44:37|79:31,1,70.4000021484376
43,216,180872,1,0,0:0:0:0:
43,216,180976,2,0,L|12:146,1,70.4000021484376
132,291,181184,1,0,0:0:0:0:
132,291,181288,2,0,L|163:221,1,70.4000021484376
40,313,181497,5,0,0:0:0:0:
82,377,181601,1,0,0:0:0:0:
155,378,181705,1,0,0:0:0:0:
217,332,181809,2,0,P|250:312|290:294,1,70.4000021484376
400,215,182018,1,0,0:0:0:0:
375,238,182122,2,0,P|343:222|313:204,1,70.4000021484376
115,181,182330,1,0,0:0:0:0:
140,204,182434,2,0,P|171:188|201:170,1,70.4000021484376
335,13,182747,5,0,0:0:0:0:
480,233,182981,5,0,0:0:0:0:
202,92,183215,5,0,0:0:0:0:
434,90,183372,1,0,0:0:0:0:
221,257,183606,5,0,0:0:0:0:
252,30,183840,5,0,0:0:0:0:
400,215,183997,6,0,L|420:299,1,86.3999973632813
410,374,184309,6,0,P|350:347|289:341,1,115.199996484375
109,333,184622,1,0,0:0:0:0:
288,208,184778,2,0,L|304:83,1,115.199996484375
50,111,185090,6,0,B|35:169|35:169|48:265|48:265|28:352,1,230.39999296875
132,97,185559,2,0,P|88:34|35:25,1,115.199996484375
199,264,185872,1,0,0:0:0:0:
239,42,186028,1,0,0:0:0:0:
68,202,186184,1,0,0:0:0:0:
291,110,186340,6,0,P|372:106|422:237,1,230.39999296875
221,376,186809,2,0,L|194:240,1,115.199996484375
239,42,187122,1,0,0:0:0:0:
320,220,187278,1,0,0:0:0:0:
450,30,187434,1,0,0:0:0:0:
209,158,187590,6,0,B|157:164|157:164|40:106,1,172.799994726563
43,40,187903,1,0,0:0:0:0:
131,258,188059,1,0,0:0:0:0:
239,42,188215,2,0,L|266:234,1,172.799994726563
277,288,188528,1,0,0:0:0:0:
150,67,188684,1,0,0:0:0:0:
387,175,188840,1,0,0:0:0:0:
387,175,188918,1,0,0:0:0:0:
387,175,188997,5,0,0:0:0:0:
165,241,189153,1,0,0:0:0:0:
239,42,189309,1,0,0:0:0:0:
385,273,189465,1,0,0:0:0:0:
250,122,189622,1,0,0:0:0:0:
142,324,189778,1,0,0:0:0:0:
328,95,189934,6,0,P|429:92|473:211,1,230.39999296875
348,356,190403,1,0,0:0:0:0:
122,159,190559,5,0,0:0:0:0:
387,175,190715,1,0,0:0:0:0:
128,308,190872,5,0,0:0:0:0:
165,71,191028,1,0,0:0:0:0:
348,356,191184,5,0,0:0:0:0:
394,356,191262,1,0,0:0:0:0:
437,341,191340,1,0,0:0:0:0:
471,310,191418,1,0,0:0:0:0:
484,265,191497,6,0,L|358:255,1,115.199996484375
126,335,191809,2,0,L|252:325,1,115.199996484375
388,174,192122,1,0,0:0:0:0:
348,356,192278,1,0,0:0:0:0:
219,128,192434,1,0,0:0:0:0:
45,358,192590,6,0,B|40:250|40:250|30:235|30:235|24:122,1,230.39999296875
256,41,193059,1,0,0:0:0:0:
170,242,193215,1,0,0:0:0:0:
68,18,193372,1,0,0:0:0:0:
296,253,193528,1,0,0:0:0:0:
407,48,193684,1,0,0:0:0:0:
451,58,193762,1,0,0:0:0:0:
483,90,193840,1,0,0:0:0:0:
505,130,193918,1,0,0:0:0:0:
508,176,193997,6,0,B|368:191|433:116|281:122,1,230.39999296875
111,97,194465,1,0,0:0:0:0:
334,16,194622,1,0,0:0:0:0:
199,241,194778,2,0,L|189:125,1,115.199996484375
411,308,195090,6,0,P|508:289|504:172,1,230.39999296875
301,242,195559,2,0,L|310:356,1,115.199996484375
366,159,195872,1,0,0:0:0:0:
216,316,196028,1,0,0:0:0:0:
111,97,196184,1,0,0:0:0:0:
0,358,196340,6,0,B|55:376|55:376|237:309,1,230.39999296875
29,126,196809,2,0,P|19:182|13:250,1,115.199996484375
229,121,197122,1,0,0:0:0:0:
8,31,197278,1,0,0:0:0:0:
117,228,197434,1,0,0:0:0:0:
247,35,197590,6,0,B|330:25|330:25|342:29|342:29|438:19,1,172.799994726563
488,63,197903,1,0,0:0:0:0:
332,252,198059,1,0,0:0:0:0:
247,35,198215,2,0,L|268:216,1,172.799994726563
332,252,198528,1,0,0:0:0:0:
488,63,198684,1,0,0:0:0:0:
229,121,198840,1,0,0:0:0:0:
229,121,198918,1,0,0:0:0:0:
229,121,198997,5,0,0:0:0:0:
430,273,199153,1,0,0:0:0:0:
430,273,199231,1,0,0:0:0:0:
430,273,199309,1,0,0:0:0:0:
334,27,199465,1,0,0:0:0:0:
232,227,199622,2,0,P|219:256|210:291,1,57.5999982421876
130,49,199778,1,0,0:0:0:0:
352,169,199934,1,0,0:0:0:0:
106,229,200090,2,0,P|73:235|26:257,1,57.5999982421876
312,101,200247,5,0,0:0:0:0:
324,344,200403,1,0,0:0:0:0:
160,162,200559,2,0,P|135:141|102:124,1,57.5999982421876
387,177,200715,1,0,0:0:0:0:
192,328,200872,2,0,L|57:296,1,115.199996484375
361,257,201184,2,0,L|496:225,1,115.199996484375
494,195,201418,1,0,0:0:0:0:
494,195,201497,5,0,0:0:0:0:
296,82,201653,1,0,0:0:0:0:
283,323,201809,5,0,0:0:0:0:
375,110,201965,1,0,0:0:0:0:
122,167,202122,5,0,0:0:0:0:
361,257,202278,1,0,0:0:0:0:
59,233,202434,5,0,0:0:0:0:
296,82,202590,1,0,0:0:0:0:
169,306,202747,5,0,0:0:0:0:
116,33,202981,5,0,0:0:0:0:
396,139,203215,5,0,0:0:0:0:
122,167,203372,1,0,0:0:0:0:
296,82,203528,1,0,0:0:0:0:
296,82,203606,1,0,0:0:0:0:
296,82,203684,2,0,P|355:91|355:200,1,172.799994726563
328,218,203997,6,0,B|209:218|253:160|140:161,1,192
93,267,204465,2,0,P|146:247|188:243,1,76.8
232,356,204778,1,0,0:0:0:0:
232,356,204934,2,0,P|194:348|159:332,1,76.8
297,294,205247,5,0,0:0:0:0:
297,294,205403,2,0,P|316:329|322:374,1,76.8
328,218,205715,1,0,0:0:0:0:
232,356,205872,1,0,0:0:0:0:
221,133,206028,1,0,0:0:0:0:
426,330,206184,1,0,0:0:0:0:
93,267,206340,1,0,0:0:0:0:
301,135,206496,5,0,0:0:0:0:
339,126,206574,1,0,0:0:0:0:
377,134,206653,1,0,0:0:0:0:
407,158,206731,1,0,0:0:0:0:
418,194,206809,2,0,L|432:248,1,38.4
244,221,206965,5,0,0:0:0:0:
216,193,207043,1,0,0:0:0:0:
204,156,207122,1,0,0:0:0:0:
209,119,207200,1,0,0:0:0:0:
236,91,207278,2,0,L|275:51,1,38.4
336,255,207434,5,0,0:0:0:0:
325,293,207512,1,0,0:0:0:0:
299,322,207591,1,0,0:0:0:0:
264,336,207669,1,0,0:0:0:0:
227,327,207747,6,0,L|173:312,1,38.4
42,184,207903,2,0,L|143:173,1,76.8
98,375,208215,1,0,0:0:0:0:
98,375,208293,1,0,0:0:0:0:
98,375,208372,1,0,0:0:0:0:
83,335,208450,1,0,0:0:0:0:
92,293,208528,1,0,0:0:0:0:
118,259,208606,1,0,0:0:0:0:
127,217,208684,1,0,0:0:0:0:
118,175,208762,1,0,0:0:0:0:
89,143,208840,1,0,0:0:0:0:
61,110,208918,1,0,0:0:0:0:
59,67,208997,6,0,L|165:49,1,96
366,47,209309,1,0,0:0:0:0:
220,210,209465,1,0,0:0:0:0:
208,183,209543,1,0,0:0:0:0:
208,153,209622,1,0,0:0:0:0:
229,5,209778,1,0,0:0:0:0:
395,171,209934,2,0,L|284:163,1,96
118,175,210247,5,0,0:0:0:0:
316,261,210403,1,0,0:0:0:0:
290,82,210559,1,0,0:0:0:0:
168,274,210715,1,0,0:0:0:0:
191,291,210794,1,0,0:0:0:0:
218,299,210872,1,0,0:0:0:0:
299,164,211028,1,0,0:0:0:0:
87,247,211184,2,0,P|91:306|111:340,1,96
208,153,211497,5,0,0:0:0:0:
321,349,211653,1,0,0:0:0:0:
414,165,211809,1,0,0:0:0:0:
492,344,211965,1,0,0:0:0:0:
468,360,212043,1,0,0:0:0:0:
438,360,212122,1,0,0:0:0:0:
299,331,212278,1,0,0:0:0:0:
430,184,212434,2,0,L|451:299,1,96
318,128,212747,5,0,0:0:0:0:
476,58,212903,1,0,0:0:0:0:
360,236,213059,1,0,0:0:0:0:
333,27,213215,1,0,0:0:0:0:
358,41,213293,1,0,0:0:0:0:
380,60,213372,2,0,L|400:108,1,48
271,170,213528,2,0,L|320:143,1,48
215,28,213684,2,0,L|199:80,1,48
114,140,213840,2,0,L|86:102,1,48
5,267,213997,6,0,L|108:246,1,96
313,146,214309,5,0,0:0:0:0:
100,70,214465,1,0,0:0:0:0:
238,263,214622,5,0,0:0:0:0:
302,36,214778,1,0,0:0:0:0:
108,266,214934,5,0,0:0:0:0:
412,222,215090,1,0,0:0:0:0:
412,222,215168,1,0,0:0:0:0:
412,222,215247,5,0,0:0:0:0:
181,107,215403,1,0,0:0:0:0:
296,342,215559,5,0,0:0:0:0:
381,78,215715,1,0,0:0:0:0:
183,354,215872,5,0,0:0:0:0:
69,89,216028,1,0,0:0:0:0:
313,242,216184,6,0,L|423:218,1,96
162,65,216497,5,0,0:0:0:0:
109,294,216653,1,0,0:0:0:0:
306,154,216809,2,0,P|333:143|367:136,1,48
69,89,216965,1,0,0:0:0:0:
217,298,217122,1,0,0:0:0:0:
210,55,217278,2,0,P|217:28|224:2,1,48
110,321,217434,1,0,0:0:0:0:
42,58,217590,1,0,0:0:0:0:
259,230,217747,6,0,P|280:245|299:276,1,48
26,196,217903,1,0,0:0:0:0:
326,61,218059,1,0,0:0:0:0:
109,294,218215,1,0,0:0:0:0:
210,55,218372,1,0,0:0:0:0:
244,94,218450,1,0,0:0:0:0:
251,146,218528,1,0,0:0:0:0:
233,195,218606,1,0,0:0:0:0:
195,231,218684,1,0,0:0:0:0:
184,282,218762,1,0,0:0:0:0:
199,332,218840,1,0,0:0:0:0:
240,364,218918,1,0,0:0:0:0:
293,363,218997,5,0,0:0:0:0:
256,192,219075,12,0,220325,0:0:0:0:
