osu file format v14

[General]
AudioFilename: audio.mp3
AudioLeadIn: 0
PreviewTime: 59292
Countdown: 0
SampleSet: Soft
StackLeniency: 0.7
Mode: 0
LetterboxInBreaks: 0
WidescreenStoryboard: 1

[Editor]
Bookmarks: 7681,17578,27475,37372,47269,54846,59640,69537,79434,81908,88094
DistanceSpacing: 0.7
BeatDivisor: 4
GridSize: 4
TimelineZoom: 1

[Metadata]
Title:AxxxiS (TV Size)
TitleUnicode:AxxxiS (TV Size)
Artist:LiSA
ArtistUnicode:LiSA
Creator:Nao Tomori
Version:Normal
Source:Qualidea Code
Tags:クオリディア・コード Kuoridia Kōdo kodo brave freak out best day anime opening two lasse
BeatmapID:1815673
BeatmapSetID:868679

[Difficulty]
HPDrainRate:3
CircleSize:3.3
OverallDifficulty:4.5
ApproachRate:6
SliderMultiplier:0.959999999999999
SliderTickRate:1

[Events]
//Background and Video events
0,0,"qualidea code.jpg",0,0
//Break Periods
2,17784,26122
//Storyboard Layer 0 (Background)
//Storyboard Layer 1 (Fail)
//Storyboard Layer 2 (Pass)
//Storyboard Layer 3 (Foreground)
//Storyboard Sound Samples

[TimingPoints]
265,309.278350515464,4,2,1,30,1,0
265,-133.333333333333,4,2,1,30,0,0
1502,-153.846153846154,4,2,1,30,0,0
2739,-133.333333333333,4,2,1,30,0,0
7687,-100,4,2,1,70,0,0
12017,-100,4,2,1,70,0,0
12172,-100,4,2,1,5,0,0
12249,-100,4,2,1,70,0,0
12404,-100,4,2,1,5,0,0
12481,-100,4,2,1,70,0,0
12636,-100,4,2,1,70,0,0
24620,-100,4,2,1,30,0,0
24697,-100,4,2,1,70,0,0
27481,-100,4,2,1,70,0,0
37378,-133.333333333333,4,2,1,50,0,0
37687,-133.333333333333,4,2,1,40,0,0
44801,-100,4,2,1,50,0,0
46656,-100,4,2,1,70,0,0
46811,-100,4,2,1,5,0,0
46888,-100,4,2,1,70,0,0
47043,-100,4,2,1,5,0,0
47120,-100,4,2,1,70,0,0
47275,-114.942528735632,4,2,1,60,0,0
52223,-114.942528735632,4,2,1,60,0,0
54697,-114.942528735632,4,2,1,50,0,0
57172,-100,4,2,1,70,0,0
58563,-100,4,2,1,80,0,0
58718,-100,4,2,1,5,0,0
58795,-100,4,2,1,80,0,0
58950,-100,4,2,1,5,0,0
59027,-100,4,2,1,80,0,0
59646,-90.9090909090909,4,2,1,80,0,1
80677,-90.9090909090909,4,2,1,80,0,0
81914,-100,4,2,1,70,0,0
86785,-100,4,2,1,50,0,0
87172,-100,4,2,1,40,0,0
87481,-100,4,2,1,30,0,0
87790,-100,4,2,1,25,0,0
88100,-100,4,2,1,20,0,0
88409,-100,4,2,1,5,0,0

[Colours]
Combo1 : 230,121,98
Combo2 : 250,165,201
Combo3 : 184,170,193
Combo4 : 250,209,150

[HitObjects]
138,148,7687,6,0,P|185:132|247:139,1,95.9999999999999,6|10,3:2|0:2,0:0:0:0:
276,160,8151,2,0,P|342:173|379:161,1,95.9999999999999,2|0,0:2|3:2,0:0:0:0:
405,128,8615,1,10,0:2:0:0:
494,184,8924,1,0,3:2:0:0:
441,276,9234,2,0,L|456:375,2,95.9999999999999,8|2|8,0:2|3:2|0:2,0:0:0:0:
391,256,10007,1,8,0:2:0:0:
391,256,10161,6,0,B|279:258|333:306|201:307,1,192,2|8,3:2|0:2,0:0:0:0:
138,233,11089,2,0,P|129:188|124:136,1,95.9999999999999,2|0,3:2|3:2,0:0:0:0:
187,53,11708,1,14,0:2:0:0:
278,105,12017,2,0,L|356:90,2,72,2|2|2,3:1|1:1|1:1,0:0:0:0:
253,152,12636,2,0,P|266:197|397:221,1,192,6|0,3:2|3:2,0:0:0:0:
472,156,13563,6,0,P|499:216|516:248,1,95.9999999999999,10|0,0:2|3:2,0:0:0:0:
475,341,14182,1,10,0:2:0:0:
380,293,14491,2,0,B|309:286|309:286|271:311|271:311|192:302,1,192,0|14,3:2|3:2,0:0:0:0:
115,231,15419,1,8,0:2:0:0:
206,179,15728,1,8,0:2:0:0:
139,96,16038,2,0,P|178:72|225:48,2,95.9999999999999,6|8|0,3:2|0:2|3:2,0:0:0:0:
65,172,16966,1,2,3:2:0:0:
152,230,17275,2,0,P|203:223|250:221,1,95.9999999999999,8|6,2:2|3:2,0:0:0:0:
174,187,27172,5,8,0:2:0:0:
174,187,27481,6,0,B|239:169|321:158,2,144,6|2|8,3:2|3:2|0:2,0:0:0:0:
136,224,28563,2,0,P|127:272|133:338,1,95.9999999999999,2|2,0:2|3:2,0:0:0:0:
221,369,29182,1,2,3:2:0:0:
307,309,29491,2,0,L|368:306,1,48,2|8,3:2|0:2,0:0:0:0:
452,347,29955,6,0,P|485:306|474:214,1,144,2|2,3:2|3:2,0:0:0:0:
381,175,30728,1,0,3:2:0:0:
421,77,31038,2,0,L|518:72,2,95.9999999999999,2|2|2,3:2|3:2|3:2,0:0:0:0:
324,34,31966,2,0,L|270:34,1,48,2|8,3:2|0:2,0:0:0:0:
188,92,32429,6,0,P|170:125|178:192,1,95.9999999999999,2|8,3:2|0:2,0:0:0:0:
210,219,32893,2,0,P|229:275|222:331,1,95.9999999999999,2|2,3:2|3:2,0:0:0:0:
202,358,33357,1,8,0:2:0:0:
103,318,33667,2,0,L|87:221,1,95.9999999999999,2|8,3:2|0:2,0:0:0:0:
54,182,34130,2,0,P|59:132|63:67,1,95.9999999999999,2|2,3:2|3:2,0:0:0:0:
48,35,34594,1,8,0:2:0:0:
150,10,34904,5,2,3:2:0:0:
241,62,35213,1,10,0:2:0:0:
334,12,35522,1,2,0:2:0:0:
407,88,35832,1,10,0:2:0:0:
407,88,35986,1,2,0:2:0:0:
407,88,36141,6,0,P|426:147|420:196,1,95.9999999999999,8|8,0:2|0:3,0:0:0:0:
378,275,36759,2,0,P|302:277|267:274,1,95.9999999999999,4|14,0:3|0:2,0:0:0:0:
186,263,37378,1,2,3:2:0:0:
203,265,38615,6,0,P|192:224|209:152,2,108.000004119873,2|0|0,3:2|0:0|0:0,0:0:0:0:
263,316,39852,2,0,P|324:316|410:306,1,144.000005493164,0|2,3:2|0:2,0:0:0:0:
481,167,41089,6,0,L|486:50,2,108.000004119873,0|0|0,3:2|0:0|0:0,0:0:0:0:
415,211,42326,2,0,B|343:192|341:246|259:218,1,144.000005493164,4|2,3:2|0:2,0:0:0:0:
214,170,43254,1,0,0:0:0:0:
158,226,43563,2,0,P|108:241|41:224,2,108.000004119873,0|0|6,3:2|0:0|0:2,0:0:0:0:
202,155,44801,6,0,L|185:4,2,144,14|10|10,0:2|0:2|0:2,0:0:0:0:
281,190,46038,2,0,B|330:168|396:174|425:207|425:207|400:243|400:243,1,192,10|2,0:2|3:1,0:0:0:0:
196,282,47275,6,0,L|63:265,1,125.280001051391,6|0,1:2|3:2,0:0:0:0:
38,233,47893,2,0,P|29:172|38:140,1,83.5200007009277,8|2,0:2|0:2,0:0:0:0:
102,90,48512,1,2,3:2:0:0:
173,147,48821,1,0,0:0:0:0:
239,83,49130,1,8,0:2:0:0:
310,140,49440,1,2,3:2:0:0:
393,101,49749,6,0,P|399:156|422:233,1,125.280001051391,6|2,3:2|3:2,0:0:0:0:
414,269,50368,2,0,P|373:278|312:275,1,83.5200007009277,0|2,1:2|2:2,0:0:0:0:
264,340,50986,1,2,3:2:0:0:
206,268,51295,1,0,0:0:0:0:
129,318,51605,2,0,P|78:313|30:308,1,83.5200007009277,8|4,0:2|3:3,0:0:0:0:
0,234,52223,6,0,P|-10:164|30:119,2,125.280001051391,6|2|2,3:2|3:2|0:2,0:0:0:0:
76,284,53460,2,0,L|165:274,1,83.5200007009277,2|0,3:2|0:0,0:0:0:0:
242,312,54079,1,2,3:2:0:0:
322,275,54388,1,10,0:2:0:0:
255,211,54697,6,0,P|239:154|273:84,4,125.280001051391,6|4|4|4|8,1:2|0:3|0:3|0:3|0:3,0:0:0:0:
316,279,56862,1,4,0:3:0:0:
386,200,57172,6,0,P|430:192|483:216,1,95.9999999999999,6|8,3:2|0:2,0:0:0:0:
497,259,57636,2,0,P|481:301|434:335,1,95.9999999999999,6|8,3:2|0:2,0:0:0:0:
394,309,58100,2,0,P|341:298|287:317,1,95.9999999999999,6|8,3:2|0:2,0:0:0:0:
266,347,58563,6,0,L|188:341,2,71.9999999999999,2|2|2,3:1|3:1|3:1,0:0:0:0:
354,131,59646,6,0,B|282:100|231:133|231:133|191:156|129:148,1,211.200006445312,6|0,3:2|3:2,0:0:0:0:
65,87,60574,1,10,0:2:0:0:
65,87,60728,2,0,P|67:145|64:201,1,105.600003222656,2|2,3:2|3:2,0:0:0:0:
38,295,61347,2,0,P|111:309|192:272,1,158.400004833984,2|8,3:2|3:2,0:0:0:0:
261,202,62120,5,6,3:2:0:0:
181,133,62429,1,10,0:2:0:0:
267,71,62739,2,0,L|283:14,2,52.8000016113281,2|2|8,3:2|3:2|0:2,0:0:0:0:
301,111,63203,2,0,P|339:126|411:111,1,105.600003222656,6|2,3:2|3:2,0:0:0:0:
503,143,63821,2,0,B|518:194|499:248|499:248|468:236|425:241|425:241|393:264,1,211.200006445312,2|8,3:2|0:2,0:0:0:0:
371,301,64594,5,2,3:2:0:0:
279,248,64904,1,10,0:2:0:0:
201,319,65213,2,0,L|90:307,1,105.600003222656,2|8,3:2|0:2,0:0:0:0:
62,266,65677,5,2,3:2:0:0:
62,266,65832,1,2,3:2:0:0:
88,163,66141,2,0,P|141:156|198:178,1,105.600003222656,10|2,0:2|3:2,0:2:0:0:
233,201,66605,1,8,0:2:0:0:
233,201,66759,1,8,0:2:0:0:
296,117,67069,6,0,P|305:63|283:16,1,105.600003222656,6|10,3:2|0:2,0:0:0:0:
179,24,67687,2,0,P|169:75|190:123,1,105.600003222656,2|10,3:2|0:2,0:0:0:0:
293,147,68306,2,0,L|460:127,1,158.400004833984,6|2,3:2|3:2,0:0:0:0:
488,164,68924,2,0,P|507:210|506:274,1,105.600003222656,10|8,0:2|0:2,0:0:0:0:
419,323,69543,6,0,P|354:297|364:173,1,211.200006445312,6|0,3:2|3:2,0:0:0:0:
387,70,70471,1,10,0:2:0:0:
387,70,70625,2,0,P|329:58|272:92,1,105.600003222656,6|2,3:2|3:2,0:0:0:0:
252,111,71089,1,8,0:2:0:0:
252,111,71244,2,0,L|78:101,1,158.400004833984,2|10,0:2|0:2,0:0:0:0:
7,163,72017,5,6,3:2:0:0:
93,223,72326,1,10,0:2:0:0:
92,336,72636,2,0,L|63:385,2,52.8000016113281,2|2|10,3:2|3:2|0:2,0:0:0:0:
140,314,73100,2,0,P|179:308|240:329,1,105.600003222656,6|2,3:2|3:2,0:0:0:0:
320,260,73718,1,2,0:2:0:0:
414,306,74027,2,0,L|421:194,1,105.600003222656,8|8,0:2|0:2,0:0:0:0:
434,149,74491,6,0,P|419:90|369:50,1,105.600003222656,6|10,3:2|0:2,0:0:0:0:
292,104,75110,2,0,L|180:112,1,105.600003222656,2|8,3:2|0:2,0:0:0:0:
145,78,75574,5,2,3:2:0:0:
145,78,75728,1,2,3:2:0:0:
44,112,76038,1,10,0:2:0:0:
101,202,76347,2,0,L|110:312,1,105.600003222656,2|8,3:2|0:2,0:0:0:0:
207,346,76966,6,0,P|263:352|313:317,1,105.600003222656,6|10,3:2|0:2,0:0:0:0:
316,223,77584,1,2,3:2:0:0:
216,187,77893,1,8,0:2:0:0:
128,246,78203,6,0,L|54:242,2,52.8000016113281,2|0|8,3:2|3:2|0:2,0:0:0:0:
113,141,78821,2,0,L|39:137,2,52.8000016113281,10|0|12,3:2|3:2|0:2,0:0:0:0:
179,58,79440,6,0,P|231:42|293:60,1,105.600003222656,14|2,2:2|3:2,0:0:0:0:
319,87,79904,2,0,P|368:97|437:68,1,105.600003222656,10|2,0:2|3:2,0:0:0:0:
457,43,80368,1,2,3:2:0:0:
504,137,80677,1,14,0:2:0:0:
472,141,81914,6,0,P|421:166|335:144,2,144,6|2|2,3:2|3:2|3:2,0:0:0:0:
507,51,83151,1,8,0:2:0:0:
418,13,83460,2,0,L|316:28,1,95.9999999999999,2|10,3:2|3:2,0:0:0:0:
228,43,84079,1,6,3:2:0:0:
138,8,84388,2,0,P|110:54|106:106,1,95.9999999999999,2|8,3:2|0:2,0:0:0:0:
172,164,85007,2,0,P|188:205|170:273,1,95.9999999999999,8|2,0:2|3:2,0:0:0:0:
97,303,85625,5,6,3:2:0:0:
19,245,85935,1,8,0:3:0:0:
93,184,86244,1,4,0:3:0:0:
185,209,86553,2,0,L|251:203,1,48,6|6,3:2|3:2,0:0:0:0:
256,192,86862,12,0,88409,0:2:0:0:
