osu file format v14

[General]
AudioFilename: audio.mp3
AudioLeadIn: 0
PreviewTime: 59404
Countdown: 0
SampleSet: Soft
StackLeniency: 0.2
Mode: 0
LetterboxInBreaks: 0
WidescreenStoryboard: 1

[Editor]
Bookmarks: 27471,47420,69688,93193,111131,112987,145152,177317,245358
DistanceSpacing: 1.2
BeatDivisor: 4
GridSize: 4
TimelineZoom: 2

[Metadata]
Title:AxxxiS
TitleUnicode:AxxxiS
Artist:LiSA
ArtistUnicode:LiSA
Creator:HabiHolic
Version:Insane Collab
Source:
Tags:Brave Freak Out Special Edition
BeatmapID:1636495
BeatmapSetID:501421

[Difficulty]
HPDrainRate:7
CircleSize:4
OverallDifficulty:7
ApproachRate:9
SliderMultiplier:0.999999999999999
SliderTickRate:1

[Events]
//Background and Video events
0,0,"BG.jpg",0,0
//Break Periods
//Storyboard Layer 0 (Background)
//Storyboard Layer 1 (Fail)
//Storyboard Layer 2 (Pass)
//Storyboard Layer 3 (Foreground)
//Storyboard Sound Samples

[TimingPoints]
410,309.278350515464,4,2,0,50,1,0
410,-83.3333333333333,4,2,0,50,0,0
7059,-71.4285714285714,4,2,0,50,0,0
7832,-58.8235294117647,4,2,0,50,0,0
16801,-111.111111111111,4,2,0,50,0,0
17729,-166.666666666667,4,2,0,50,0,0
26389,-100,4,2,0,50,0,0
27162,-58.8235294117647,4,2,0,50,0,0
27626,-58.8235294117647,4,2,0,50,0,0
37523,-79.9999999999999,4,2,0,50,0,0
44946,-58.8235294117647,4,2,0,50,0,0
49275,-71.4285714285714,4,2,0,50,0,0
50358,-58.8235294117647,4,2,0,50,0,0
54842,-83.3333333333333,4,2,0,50,0,0
59791,-55.5555555555556,4,2,0,50,0,0
81750,-58.8235294117647,4,2,0,50,0,0
93193,-71.4285714285714,4,2,0,50,0,0
103090,-62.5,4,2,0,50,0,0
112987,-83.3333333333333,4,2,0,50,0,0
120410,-58.8235294117647,4,2,0,50,0,0

[Colours]
Combo1 : 191,210,230
Combo2 : 255,128,192
Combo3 : 90,155,214

[HitObjects]
268,284,410,6,0,L|262:224,1,59.9999981689453
307,152,719,1,0,0:0:0:0:
451,203,873,2,0,P|404:237|347:226,1,119.999996337891
222,149,1337,1,0,0:0:0:0:
222,149,1647,6,0,L|162:143,1,59.9999981689453
90,188,1956,1,0,0:0:0:0:
141,332,2110,2,0,P|174:284|163:227,1,119.999996337891
87,103,2574,1,0,0:0:0:0:
87,103,2884,6,0,L|81:43,1,59.9999981689453
2,72,3193,1,0,0:0:0:0:
162,143,3348,2,0,L|281:153,1,119.999996337891
378,94,3812,2,0,P|338:75|295:85,1,89.999997253418
286,93,4121,6,0,L|280:152,1,59.9999981689453
294,235,4430,1,0,0:0:0:0:
161,163,4585,2,0,L|280:152,1,119.999996337891
467,102,5049,2,0,L|377:94,1,89.999997253418
367,88,5358,6,0,P|373:117|373:147,3,59.9999981689453
273,211,5977,2,0,P|273:181|279:151,2,59.9999981689453
375,301,6440,1,0,0:0:0:0:
379,285,7059,6,0,L|344:291,1,34.9999989318848
254,309,7214,1,0,0:0:0:0:
469,267,7368,1,0,0:0:0:0:
360,194,7523,2,0,L|325:200,3,34.9999989318848
276,195,7832,5,0,0:0:0:0:
469,267,7987,1,0,0:0:0:0:
359,99,8141,5,0,0:3:0:0:
254,309,8296,1,0,0:3:0:0:
243,108,8451,5,0,0:0:0:0:
379,285,8605,1,0,0:0:0:0:
192,210,8760,6,0,L|276:195,1,85.0000016212463
469,267,9069,5,0,0:0:0:0:
359,99,9223,1,0,0:3:0:0:
379,285,9379,5,0,0:0:0:0:
509,140,9533,1,0,0:0:0:0:
243,108,9688,5,0,0:0:0:0:
405,191,9842,1,0,0:0:0:0:
327,28,9997,2,0,L|334:70,3,42.5000008106231
359,99,10306,5,0,0:3:0:0:
192,210,10461,1,0,0:0:0:0:
242,53,10616,5,0,0:0:0:0:
351,197,10770,1,0,0:0:0:0:
196,167,10925,5,0,0:3:0:0:
334,69,11080,1,0,0:0:0:0:
276,219,11234,6,0,L|191:210,1,85.0000016212463
196,167,11466,1,0,0:0:0:0:
196,167,11544,2,0,L|111:175,1,85.0000016212463
99,190,12007,5,0,0:0:0:0:
99,190,12085,1,0,0:0:0:0:
99,190,12162,2,0,L|85:316,2,127.500002431869
193,61,12781,5,0,0:0:0:0:
178,144,12935,1,0,0:0:0:0:
278,57,13090,5,0,0:0:0:0:
263,140,13244,1,0,0:0:0:0:
363,53,13399,5,0,0:0:0:0:
348,136,13553,1,0,0:0:0:0:
448,49,13708,6,0,L|433:132,1,85.0000016212463
422,174,13940,1,0,0:0:0:0:
422,174,14018,5,0,0:0:0:0:
437,257,14172,1,0,0:0:0:0:
437,257,14482,1,0,0:0:0:0:
437,257,14559,1,0,0:0:0:0:
437,257,14636,6,0,P|396:245|358:262,1,85.0000016212463
334,297,14868,1,0,0:0:0:0:
334,297,14946,2,0,L|292:289,3,42.5000008106231
267,254,15255,5,0,0:0:0:0:
282,171,15409,1,0,0:0:0:0:
182,258,15564,5,0,0:0:0:0:
197,175,15718,1,0,0:0:0:0:
97,262,15873,5,0,0:0:0:0:
112,179,16027,1,0,0:0:0:0:
12,266,16183,6,0,L|27:183,1,85.0000016212463
38,141,16415,1,0,0:0:0:0:
38,141,16492,5,0,0:0:0:0:
97,262,16647,1,0,0:0:0:0:
197,175,16801,6,0,P|196:152|194:130,3,44.999998626709
156,57,17420,1,0,0:0:0:0:
156,57,17574,1,0,0:0:0:0:
287,124,17729,6,0,P|317:125|347:121,3,59.9999981689453
353,61,18966,2,0,L|346:120,1,59.9999981689453
346,120,19585,1,0,0:0:0:0:
399,292,20049,5,0,0:0:0:0:
399,292,20126,1,0,0:0:0:0:
398,291,20203,2,0,P|370:284|340:286,1,59.9999981689453
281,291,20822,2,0,P|310:292|339:285,1,59.9999981689453
356,203,21440,6,0,L|357:143,3,59.9999981689453
277,116,22678,2,0,L|275:175,3,59.9999981689453
204,221,23915,6,0,P|174:215|144:216,2,59.9999981689453
233,250,24688,1,0,0:0:0:0:
233,250,24765,1,0,0:0:0:0:
233,250,24842,1,0,0:0:0:0:
277,116,25152,5,0,0:0:0:0:
276,115,26389,6,0,P|310:42|349:112,1,200
232,250,27162,2,0,L|226:207,2,42.5000008106231
232,250,27626,6,0,P|149:256|82:207,1,170.000003242493
193,60,28090,2,0,L|177:148,1,85.0000016212463
333,264,28399,2,0,L|317:180,1,85.0000016212463
413,212,28708,1,0,0:0:0:0:
253,320,28863,6,0,P|213:304|169:304,1,85.0000016212463
89,348,29172,1,0,0:0:0:0:
17,140,29327,2,0,P|70:203|153:210,1,170.000003242493
297,136,29791,2,0,L|209:120,1,85.0000016212463
369,60,30100,6,0,B|405:96|405:96|429:156|393:212,1,170.000003242493
289,308,30564,2,0,P|241:296|197:292,1,85.0000016212463
25,236,30873,2,0,P|67:231|108:220,1,85.0000016212463
177,140,31183,1,0,0:0:0:0:
49,44,31337,6,0,L|65:136,1,85.0000016212463
169,164,31647,1,0,0:0:0:0:
337,75,31801,2,0,P|254:77|195:18,1,170.000003242493
429,20,32265,1,0,0:0:0:0:
429,20,32574,5,0,0:0:0:0:
473,188,32729,2,0,P|473:144|481:92,1,85.0000016212463
297,112,33038,2,0,L|321:284,1,170.000003242493
245,344,33502,1,0,0:0:0:0:
245,344,33812,1,0,0:0:0:0:
117,236,33966,6,0,P|159:235|197:253,1,85.0000016212463
41,328,34275,2,0,L|13:148,1,170.000003242493
73,84,34739,1,0,0:0:0:0:
185,180,34894,1,0,0:0:0:0:
265,44,35049,2,0,P|217:36|177:24,1,85.0000016212463
5,128,35358,2,0,L|17:260,1,127.500002431869
21,288,35667,1,0,0:0:0:0:
153,216,35822,1,0,0:0:0:0:
197,344,35977,2,0,L|109:332,1,85.0000016212463
89,128,36286,5,0,0:0:0:0:
89,128,36363,1,0,0:0:0:0:
89,128,36440,2,0,L|81:172,2,42.5000008106231
201,92,36750,1,0,0:0:0:0:
201,92,36827,1,0,0:0:0:0:
201,92,36904,2,0,L|193:44,3,42.5000008106231
192,7,37214,6,0,P|249:37|312:44,1,127.500002431869
401,4,37523,6,0,L|385:140,1,125
313,192,37987,1,0,0:0:0:0:
233,115,38141,2,0,P|189:131|143:124,1,93.7499999999999
73,84,38451,2,0,L|81:20,1,62.4999999999999
9,164,38760,6,0,P|21:220|25:292,1,125
97,344,39224,1,0,0:0:0:0:
97,344,39379,2,0,L|189:332,1,93.7499999999999
257,280,39688,2,0,L|329:292,1,62.4999999999999
484,204,39997,6,0,P|424:210|373:176,1,125
333,84,40461,1,0,0:0:0:0:
217,188,40616,2,0,L|105:172,1,93.7499999999999
77,112,40925,2,0,L|5:124,1,62.4999999999999
8,268,41234,6,0,P|67:253|114:291,1,125
201,344,41698,1,0,0:0:0:0:
201,344,41853,2,0,L|297:328,1,93.7499999999999
361,284,42162,2,0,P|393:296|429:300,1,62.4999999999999
505,160,42471,6,0,L|373:180,1,125
309,108,42935,1,0,0:0:0:0:
193,216,43090,2,0,L|93:200,1,93.7499999999999
33,248,43399,2,0,L|49:316,1,62.4999999999999
189,351,43708,6,0,P|238:316|299:323,1,125
385,352,44172,1,0,0:0:0:0:
505,235,44327,2,0,P|458:237|417:216,1,93.7499999999999
373,148,44636,2,0,L|385:72,1,62.4999999999999
249,0,44946,6,0,L|273:172,1,170.000003242493
164,243,45410,2,0,P|83:231|26:290,1,170.000003242493
225,340,45873,1,0,0:0:0:0:
225,340,46183,5,0,0:0:0:0:
349,248,46337,1,0,0:0:0:0:
349,248,46415,1,0,0:0:0:0:
349,248,46492,2,0,L|397:256,3,42.5000008106231
445,228,46801,2,0,B|429:292|429:292|457:352,2,127.500002431869
494,137,47420,5,0,0:0:0:0:
494,137,47574,1,0,0:0:0:0:
318,31,47884,2,0,L|275:29,2,42.5000008106231
189,190,48348,2,0,L|273:186,1,85.0000016212463
368,225,48657,5,0,0:0:0:0:
287,287,48812,2,0,L|294:117,1,170.000003242493
367,76,49275,2,0,P|376:110|372:145,3,69.9999978637695
294,117,49894,5,0,0:0:0:0:
287,287,50358,2,0,L|283:329,2,42.5000008106231
368,225,50667,2,0,B|316:251|316:251|206:228,1,170.000003242493
121,172,51131,5,0,0:0:0:0:
109,274,51286,2,0,B|131:304|131:304|121:172,1,170.000003242493
95,129,51672,1,0,0:0:0:0:
94,128,51750,2,0,P|136:134|178:124,1,85.0000016212463
211,86,51982,1,0,0:0:0:0:
211,86,52059,1,0,0:0:0:0:
287,274,52368,5,0,0:0:0:0:
211,86,52832,2,0,P|189:88|168:90,2,42.5000008106231
296,30,53141,1,0,0:0:0:0:
296,30,53451,1,0,0:0:0:0:
211,86,53605,1,0,0:0:0:0:
296,30,53760,2,0,P|289:114|287:199,1,170.000003242493
315,242,54147,1,0,0:0:0:0:
315,242,54224,2,0,L|399:232,1,85.0000016212463
444,206,54456,1,0,0:0:0:0:
444,206,54533,1,0,0:0:0:0:
340,338,54842,6,0,B|292:319|292:319|227:340,1,119.999996337891
146,317,55306,2,0,L|137:197,1,119.999996337891
86,130,55770,1,0,0:0:0:0:
231,44,56080,5,0,0:0:0:0:
231,44,56234,2,0,P|290:50|350:52,1,119.999996337891
423,93,56698,2,0,P|413:121|414:150,3,59.9999981689453
452,277,57317,5,0,0:0:0:0:
452,277,57471,1,0,0:0:0:0:
452,277,57626,1,0,0:0:0:0:
368,265,57781,5,0,0:0:0:0:
368,265,57935,1,0,0:0:0:0:
368,265,58090,1,0,0:0:0:0:
284,253,58245,5,0,0:0:0:0:
284,253,58399,1,0,0:0:0:0:
284,253,58554,1,0,0:0:0:0:
452,277,58708,5,0,0:0:0:0:
368,265,58940,5,0,0:0:0:0:
284,253,59172,5,0,0:0:0:0:
284,253,59791,6,0,B|282:123|282:123|252:163,1,179.999994506836
252,163,60255,1,0,0:0:0:0:
257,332,60410,2,0,P|301:333|340:313,1,89.999997253418
372,238,60719,1,0,0:0:0:0:
199,270,60873,6,0,L|20:250,1,179.999994506836
20,250,61337,1,0,0:0:0:0:
102,130,61492,2,0,P|106:174|106:219,1,89.999997253418
209,161,61801,2,0,P|208:116|213:71,1,89.999997253418
283,30,62111,1,0,0:0:0:0:
384,137,62265,6,0,B|421:169|421:169|290:162,1,179.999994506836
290,162,62729,1,0,0:0:0:0:
214,261,62884,2,0,P|253:240|298:242,1,89.999997253418
357,296,63193,1,0,0:0:0:0:
218,340,63348,6,0,L|208:160,1,179.999994506836
208,160,63812,1,0,0:0:0:0:
201,329,63966,2,0,L|191:149,1,179.999994506836
184,318,64430,5,0,0:0:0:0:
181,273,64507,1,0,0:0:0:0:
179,228,64584,1,0,0:0:0:0:
177,183,64661,1,0,0:0:0:0:
173,137,64739,6,0,P|237:147|283:101,1,134.999995880127
280,89,65049,2,0,P|324:95|369:95,1,89.999997253418
478,195,65358,2,0,P|433:194|388:201,1,89.999997253418
306,308,65667,1,0,0:0:0:0:
306,308,65822,1,0,0:0:0:0:
175,300,65977,6,0,P|235:274|296:299,1,134.999995880127
306,308,66286,2,0,L|299:218,1,89.999997253418
402,381,66595,1,0,0:0:0:0:
395,291,66749,1,0,0:0:0:0:
388,201,66904,1,0,0:0:0:0:
387,200,67214,6,0,P|448:224|505:192,1,134.999995880127
512,166,67523,2,0,L|505:76,1,89.999997253418
315,92,67832,2,0,L|404:98,1,89.999997253418
216,187,68141,2,0,L|305:193,1,89.999997253418
138,123,68451,6,0,L|131:212,1,89.999997253418
124,294,68683,1,0,0:0:0:0:
124,294,68760,2,0,B|108:250|108:250|131:212,1,89.999997253418
216,187,68992,1,0,0:0:0:0:
216,187,69069,2,0,L|305:193,1,89.999997253418
384,148,69301,1,0,0:0:0:0:
384,148,69379,5,0,0:0:0:0:
370,165,69456,1,0,0:0:0:0:
364,187,69533,1,0,0:0:0:0:
366,209,69610,1,0,0:0:0:0:
376,229,69688,6,0,L|344:36,1,179.999994506836
268,4,70152,1,0,0:0:0:0:
147,148,70306,2,0,P|105:160|62:149,1,89.999997253418
8,68,70616,1,0,0:0:0:0:
204,64,70770,6,0,L|184:244,1,179.999994506836
104,316,71234,1,0,0:0:0:0:
276,298,71389,2,0,L|296:120,1,179.999994506836
240,24,71853,1,0,0:0:0:0:
388,100,72007,1,0,0:0:0:0:
200,115,72162,6,0,P|146:155|80:151,1,134.999995880127
16,108,72471,2,0,L|4:12,1,89.999997253418
164,232,72781,2,0,L|152:321,1,89.999997253418
64,356,73090,1,0,0:0:0:0:
248,288,73245,6,0,B|336:280|320:352|416:336,1,179.999994506836
480,264,73708,1,0,0:0:0:0:
352,180,73863,1,0,0:0:0:0:
464,112,74018,1,0,0:0:0:0:
280,104,74172,1,0,0:0:0:0:
280,104,74250,1,0,0:0:0:0:
280,104,74327,2,0,L|224:92,3,44.999998626709
176,36,74636,6,0,B|200:92|200:92|172:216,1,179.999994506836
88,252,75100,1,0,0:0:0:0:
144,348,75255,2,0,P|192:344|240:332,1,89.999997253418
376,228,75564,2,0,P|331:224|287:214,1,89.999997253418
156,76,75873,6,0,L|184:268,1,179.999994506836
260,344,76337,1,0,0:0:0:0:
336,200,76492,1,0,0:0:0:0:
236,320,76647,1,0,0:0:0:0:
424,312,76801,2,0,L|328:296,1,89.999997253418
199,159,77111,6,0,P|285:173|339:106,1,179.999994506836
248,80,77574,1,0,0:0:0:0:
92,28,77729,2,0,P|104:80|104:124,1,89.999997253418
187,248,78038,2,0,P|188:203|199:159,1,89.999997253418
199,159,78270,1,0,0:0:0:0:
199,159,78348,5,0,0:0:0:0:
248,328,78502,1,0,0:0:0:0:
372,236,78657,2,0,L|276:224,1,89.999997253418
140,324,78966,1,0,0:0:0:0:
24,228,79121,1,0,0:0:0:0:
24,228,79198,1,0,0:0:0:0:
24,228,79276,1,0,0:0:0:0:
120,348,79430,1,0,0:0:0:0:
116,188,79585,6,0,P|120:120|100:52,1,134.999995880127
32,16,79894,1,0,0:0:0:0:
216,112,80049,2,0,B|280:104|280:104|328:120|328:120|404:104,1,179.999994506836
332,28,80513,1,0,0:0:0:0:
288,200,80667,1,0,0:0:0:0:
456,156,80822,1,0,0:0:0:0:
456,156,81750,6,0,L|448:200,3,42.5000008106231
400,216,82059,6,0,L|416:304,1,85.0000016212463
488,360,82368,1,0,0:0:0:0:
319,343,82523,2,0,P|247:303|168:327,1,170.000003242493
16,220,82987,2,0,P|56:240|100:244,1,85.0000016212463
95,244,83219,1,0,0:0:0:0:
95,244,83296,1,0,0:0:0:0:
284,140,83451,6,0,B|224:128|224:128|176:144|176:144|108:132,1,170.000003242493
164,56,83915,1,0,0:0:0:0:
232,224,84069,1,0,0:0:0:0:
248,16,84224,2,0,L|288:28,3,42.5000008106231
308,60,84533,6,0,L|392:44,1,85.0000016212463
480,96,84842,1,0,0:0:0:0:
364,204,84997,2,0,L|192:176,1,170.000003242493
120,236,85461,1,0,0:0:0:0:
120,236,85538,1,0,0:0:0:0:
120,236,85616,1,0,0:0:0:0:
24,136,85770,5,0,0:0:0:0:
96,264,85925,1,0,0:0:0:0:
128,52,86080,2,0,L|116:148,1,85.0000016212463
148,336,86389,2,0,P|89:311|27:320,2,127.500002431869
260,268,87007,6,0,L|244:180,1,85.0000016212463
300,96,87317,1,0,0:0:0:0:
488,176,87471,2,0,B|440:216|440:216|324:188,1,170.000003242493
300,96,87935,1,0,0:0:0:0:
300,96,88013,1,0,0:0:0:0:
300,96,88090,1,0,0:0:0:0:
176,212,88245,5,0,0:0:0:0:
224,28,88399,2,0,L|392:72,1,170.000003242493
484,204,88863,2,0,P|421:200|371:238,1,127.500002431869
344,268,89172,1,0,0:0:0:0:
313,296,89249,1,0,0:0:0:0:
273,309,89326,1,0,0:0:0:0:
231,302,89403,1,0,0:0:0:0:
196,280,89482,6,0,L|208:192,1,85.0000016212463
152,104,89791,1,0,0:0:0:0:
304,24,89946,2,0,L|328:200,1,170.000003242493
276,272,90410,1,0,0:0:0:0:
420,208,90564,1,0,0:0:0:0:
312,364,90719,6,0,L|228:356,1,85.0000016212463
60,272,91028,2,0,L|144:264,1,85.0000016212463
144,263,91260,1,0,0:0:0:0:
144,263,91337,1,0,0:0:0:0:
240,152,91492,1,0,0:0:0:0:
120,68,91647,2,0,L|132:164,1,85.0000016212463
244,260,91956,5,0,0:0:0:0:
351,136,92111,2,0,P|414:130|466:164,2,127.500002431869
244,260,92729,1,0,0:0:0:0:
180,88,92884,1,0,0:0:0:0:
180,88,93193,6,0,L|173:192,1,104.999996795654
173,192,93502,1,0,0:0:0:0:
165,275,93657,1,0,0:0:0:0:
165,275,93966,5,0,0:0:0:0:
173,192,94121,1,0,0:0:0:0:
173,192,94430,6,0,L|177:122,1,69.9999978637695
184,38,94739,1,0,0:0:0:0:
177,122,94894,6,0,L|167:261,1,139.999995727539
167,261,95281,1,0,0:0:0:0:
167,261,95358,1,0,0:0:0:0:
332,88,95667,6,0,L|338:192,1,104.999996795654
339,192,95976,1,0,0:0:0:0:
347,275,96131,1,0,0:0:0:0:
347,275,96440,5,0,0:0:0:0:
339,192,96595,1,0,0:0:0:0:
339,192,96904,6,0,L|334:122,1,69.9999978637695
328,38,97213,1,0,0:0:0:0:
335,122,97368,6,0,L|344:261,1,139.999995727539
345,261,97755,1,0,0:0:0:0:
345,261,97832,1,0,0:0:0:0:
256,192,98141,5,0,0:0:0:0:
345,261,98915,5,0,0:0:0:0:
167,261,99070,1,0,0:0:0:0:
167,261,99379,5,0,0:0:0:0:
167,261,99533,1,0,0:0:0:0:
345,261,99688,1,0,0:0:0:0:
203,188,99842,6,0,P|135:186|90:237,1,139.999995727539
90,237,100229,1,0,0:0:0:0:
90,237,100306,1,0,0:0:0:0:
213,352,100616,6,0,L|317:345,1,104.999996795654
317,345,100925,1,0,0:0:0:0:
400,337,101080,1,0,0:0:0:0:
400,337,101389,5,0,0:0:0:0:
438,262,101544,2,0,L|507:257,1,69.9999978637695
391,176,101853,6,0,L|286:169,3,104.999996795654
286,169,102626,1,0,0:0:0:0:
286,169,102703,1,0,0:0:0:0:
286,169,102781,1,0,0:0:0:0:
286,169,103090,6,0,B|304:229|281:266|281:266|263:255,1,120
263,255,103400,1,0,0:0:0:0:
336,319,103554,6,0,B|360:286|365:254|365:254|405:278|449:263,1,160
416,173,104018,1,0,0:0:0:0:
416,173,104327,6,0,L|416:93,2,79.9999999999999
332,98,104791,2,0,B|280:76|280:76|178:97,1,160
178,97,105178,1,0,0:0:0:0:
179,98,105255,1,0,0:0:0:0:
81,230,105564,6,0,B|129:215|174:236|174:236|154:250,1,120
154,250,105873,1,0,0:0:0:0:
231,166,106028,2,0,P|262:236|228:306,1,160
154,250,106492,1,0,0:0:0:0:
153,250,106801,6,0,P|114:251|81:230,2,79.9999999999999
228,306,107265,2,0,B|288:301|288:301|335:306|335:306|386:300,1,160
387,300,107652,1,0,0:0:0:0:
387,300,107729,1,0,0:0:0:0:
454,121,108038,6,0,B|407:134|363:126|363:126|381:147|378:149,1,120
378,149,108348,1,0,0:0:0:0:
337,235,108502,2,0,P|258:219|178:211,1,160
86,237,108966,1,0,0:0:0:0:
86,237,109275,5,0,0:0:0:0:
16,168,109430,2,0,L|10:128,2,40
61,331,109739,2,0,L|29:355,2,40
180,210,110048,2,0,L|216:225,2,40
86,237,110358,1,0,0:0:0:0:
86,237,110435,1,0,0:0:0:0:
86,237,110513,5,0,0:0:0:0:
226,346,110667,5,0,0:0:0:0:
226,346,110745,1,0,0:0:0:0:
226,345,110822,2,0,P|231:325|231:305,3,40
216,225,111131,5,0,0:0:0:0:
225,223,111208,1,0,0:0:0:0:
235,222,111285,1,0,0:0:0:0:
245,221,111362,1,0,0:0:0:0:
255,219,111440,5,0,0:0:0:0:
267,192,111517,1,0,0:0:0:0:
293,179,111594,1,0,0:0:0:0:
321,186,111671,1,0,0:0:0:0:
338,210,111749,5,0,0:0:0:0:
338,210,112059,1,0,0:0:0:0:
338,210,112368,1,0,0:0:0:0:
338,210,112678,1,0,0:0:0:0:
338,210,112987,6,0,L|324:88,1,119.999996337891
256,24,113451,1,0,0:0:0:0:
183,92,113605,2,0,P|126:103|76:73,1,119.999996337891
144,20,114069,1,0,0:0:0:0:
228,164,114224,6,0,L|208:284,1,119.999996337891
264,356,114688,2,0,P|300:344|328:344,1,59.9999981689453
392,280,114997,2,0,L|380:212,1,59.9999981689453
436,144,115306,1,0,0:0:0:0:
279,200,115461,6,0,P|222:212|170:184,1,119.999996337891
80,144,115925,2,0,L|96:264,1,119.999996337891
156,332,116389,1,0,0:0:0:0:
156,332,116698,6,0,P|208:320|268:348,1,119.999996337891
440,300,117162,2,0,P|382:311|329:285,1,119.999996337891
276,208,117626,1,0,0:0:0:0:
276,208,117935,6,0,L|296:88,1,119.999996337891
212,32,118399,2,0,L|192:152,1,119.999996337891
104,232,118863,2,0,L|88:168,1,59.9999981689453
80,319,119172,6,0,P|121:279|179:288,1,119.999996337891
256,336,119636,2,0,L|320:324,1,59.9999981689453
436,264,119946,2,0,L|372:248,1,59.9999981689453
324,164,120255,1,0,0:0:0:0:
384,88,120410,5,0,0:0:0:0:
224,24,120564,2,0,L|236:112,1,85.0000016212463
324,164,120873,1,0,0:0:0:0:
144,88,121028,2,0,L|156:176,1,85.0000016212463
264,236,121337,1,0,0:0:0:0:
144,328,121492,1,0,0:0:0:0:
340,296,121647,6,0,L|328:384,1,85.0000016212463
384,208,121956,2,0,L|372:120,1,85.0000016212463
367,87,122188,1,0,0:0:0:0:
367,87,122265,2,0,P|423:118|486:125,2,127.500002431869
295,24,122884,6,0,P|231:76|148:72,1,170.000003242493
64,28,123348,1,0,0:0:0:0:
64,28,123425,1,0,0:0:0:0:
64,28,123502,1,0,0:0:0:0:
136,168,123657,1,0,0:0:0:0:
16,120,123812,2,0,L|32:216,1,85.0000016212463
112,280,124121,6,0,B|200:264|184:336|288:308,1,170.000003242493
360,252,124585,1,0,0:0:0:0:
360,252,124662,1,0,0:0:0:0:
360,252,124739,2,0,P|380:208|380:168,1,85.0000016212463
312,96,125049,2,0,P|292:140|292:180,1,85.0000016212463
400,64,125358,6,0,L|224:36,1,170.000003242493
152,92,125822,1,0,0:0:0:0:
152,92,125899,1,0,0:0:0:0:
152,92,125977,2,0,L|64:76,1,85.0000016212463
240,188,126286,2,0,L|324:172,1,85.0000016212463
172,272,126595,6,0,B|116:260|116:260|68:276|68:276|4:260,1,170.000003242493
56,184,127059,1,0,0:0:0:0:
56,184,127136,1,0,0:0:0:0:
56,184,127214,2,0,B|44:140|44:140|56:96,1,85.0000016212463
172,272,127523,2,0,B|184:316|184:316|172:360,1,85.0000016212463
184,120,127832,6,0,P|251:169|334:164,1,170.000003242493
452,100,128296,2,0,L|432:284,1,170.000003242493
364,352,128760,1,0,0:0:0:0:
256,240,128915,1,0,0:0:0:0:
344,364,129069,6,0,L|260:352,1,85.0000016212463
68,256,129379,2,0,L|152:244,1,85.0000016212463
152,243,129611,1,0,0:0:0:0:
152,243,129688,1,0,0:0:0:0:
256,136,129842,1,0,0:0:0:0:
152,60,129997,2,0,L|168:156,1,85.0000016212463
216,327,130306,6,0,P|276:272|357:286,1,170.000003242493
480,128,130770,2,0,P|419:183|338:169,1,170.000003242493
272,100,131234,1,0,0:0:0:0:
272,100,131544,6,0,B|216:120|216:120|184:160|184:160|124:176,1,170.000003242493
48,124,132007,1,0,0:0:0:0:
164,256,132162,1,0,0:0:0:0:
24,144,132317,1,0,0:0:0:0:
108,352,132471,2,0,L|240:336,1,127.500002431869
295,271,132781,6,0,P|358:326|441:326,1,170.000003242493
488,240,133245,2,0,L|504:152,1,85.0000016212463
408,24,133554,2,0,L|392:112,1,85.0000016212463
292,188,133863,1,0,0:0:0:0:
192,84,134018,5,0,0:0:0:0:
136,224,134172,2,0,L|0:192,2,127.500002431869
179,235,135255,6,0,P|133:166|138:83,1,170.000003242493
212,16,135719,1,0,0:0:0:0:
328,144,135873,2,0,L|240:128,1,85.0000016212463
212,16,136183,1,0,0:0:0:0:
392,84,136337,6,0,B|360:124|360:124|384:248,1,170.000003242493
456,312,136801,1,0,0:0:0:0:
296,284,136956,2,0,B|212:280|232:352|136:340,1,170.000003242493
64,280,137420,2,0,L|44:192,1,85.0000016212463
184,24,137729,6,0,L|160:204,1,170.000003242493
228,276,138193,1,0,0:0:0:0:
328,140,138348,1,0,0:0:0:0:
408,260,138502,2,0,L|312:244,1,85.0000016212463
176,135,138812,6,0,P|116:193|33:190,1,170.000003242493
80,104,139275,1,0,0:0:0:0:
224,28,139430,2,0,B|284:48|284:48|312:80|312:80|376:100,1,170.000003242493
496,204,139894,1,0,0:0:0:0:
455,191,139971,1,0,0:0:0:0:
414,198,140048,1,0,0:0:0:0:
380,224,140125,1,0,0:0:0:0:
361,261,140203,6,0,B|300:252|300:252|256:268|256:268|188:256,1,170.000003242493
32,144,140667,1,0,0:0:0:0:
124,112,140822,2,0,L|112:204,1,85.0000016212463
207,341,141131,2,0,L|196:256,1,85.0000016212463
240,88,141440,6,0,P|296:148|379:153,1,170.000003242493
460,92,141904,1,0,0:0:0:0:
480,280,142059,2,0,P|440:264|392:268,1,85.0000016212463
244,320,142368,2,0,P|284:336|332:332,1,85.0000016212463
204,208,142678,6,0,B|144:232|144:232|116:268|116:268|56:284,1,170.000003242493
60,188,143141,1,0,0:0:0:0:
152,80,143296,2,0,L|236:100,1,85.0000016212463
320,208,143605,2,0,L|408:192,1,85.0000016212463
456,104,143915,5,0,0:0:0:0:
484,244,144069,2,0,L|476:296,2,42.5000008106231
472,80,144379,1,0,0:0:0:0:
396,236,144533,1,0,0:0:0:0:
380,28,144688,1,0,0:0:0:0:
380,28,144765,1,0,0:0:0:0:
380,28,144842,1,0,0:0:0:0:
480,184,144997,1,0,0:0:0:0:
