osu file format v14

[General]
AudioFilename: audio.mp3
AudioLeadIn: 0
PreviewTime: 41066
Countdown: 0
SampleSet: Soft
StackLeniency: 0.7
Mode: 0
LetterboxInBreaks: 0
WidescreenStoryboard: 1

[Editor]
DistanceSpacing: 1
BeatDivisor: 4
GridSize: 16
TimelineZoom: 1

[Metadata]
Title:Akeboshi (TV Size)
TitleUnicode:明け星 (TV Size)
Artist:LiSA
ArtistUnicode:LiSA
Creator:Saggin
Version:Normal
Source:「鬼滅の刃」無限列車編
Tags:kimetsu no yaiba demon slayer mugen ressha-hen ressha hen tv animation theme song infinite train arc yuki kajiura 梶浦 由記 梶浦由記 op opening dawn star japanese pop rock j-rock jrock jpop j-pop anime op opening rengoku kyoujurou kyojuro 煉獄 杏寿郎 flame hashira Shirogane 白銀 silver 20th single gokugohan12468 KittyAdventure
BeatmapID:3278509
BeatmapSetID:1590001

[Difficulty]
HPDrainRate:3
CircleSize:3
OverallDifficulty:5
ApproachRate:6
SliderMultiplier:2
SliderTickRate:1

[Events]
//Background and Video events
0,0,".dead.jpg",0,0
Video,-120,"video.mp4"
//Break Periods
//Storyboard Layer 0 (Background)
//Storyboard Layer 1 (Fail)
//Storyboard Layer 2 (Pass)
//Storyboard Layer 3 (Foreground)
//Storyboard Layer 4 (Overlay)
//Storyboard Sound Samples

[TimingPoints]
51,631.578947368421,4,2,1,70,1,0
10156,-100,4,2,1,50,0,0
25551,-100,4,2,1,5,0,0
25629,-100,4,2,1,45,0,0
37945,-100,4,2,1,55,0,0
39840,-100,4,2,1,60,0,0
41103,-100,4,2,1,65,0,0
41735,631.578947368421,4,2,1,70,1,0
41972,-100,4,2,1,5,0,0
42051,-100,4,2,1,70,0,0
45446,-100,4,2,1,5,0,0
45525,-100,4,2,1,70,0,0
48288,-100,4,2,1,5,0,0
48367,-100,4,2,1,70,0,0
48920,-100,4,2,1,5,0,0
48999,-100,4,2,1,70,0,0
52078,-100,4,2,1,5,0,0
52157,-100,4,2,1,70,0,0
52709,-100,4,2,1,5,0,0
52788,-100,4,2,1,70,0,0
53341,-100,4,2,1,5,0,0
53420,-100,4,2,1,70,0,0
53972,-100,4,2,1,5,0,0
54051,-100,4,2,1,70,0,0
54604,-100,4,2,1,5,0,0
54683,-100,4,2,1,70,0,0
55236,-100,4,2,1,5,0,0
55314,-100,4,2,1,70,0,0
63445,-100,4,2,1,5,0,0
63524,-100,4,2,1,70,0,0
65656,-100,4,2,1,5,0,0
65735,-100,4,2,1,70,0,0
67235,-100,4,2,1,5,0,0
67313,-100,4,2,1,70,0,0
67866,-100,4,2,1,5,0,0
67945,-100,4,2,1,70,0,0
72287,-100,4,2,1,5,0,0
72366,-100,4,2,1,70,0,0
72919,-100,4,2,1,5,0,0
72998,-100,4,2,1,70,0,0
73550,-100,4,2,1,5,0,0
73629,-100,4,2,1,70,0,0
74182,-100,4,2,1,5,0,0
74261,-100,4,2,1,70,0,0
74813,-100,4,2,1,5,0,0
74892,-100,4,2,1,70,0,0
75445,-100,4,2,1,5,0,0
75524,-100,4,2,1,50,0,0
87156,-100,4,2,1,40,0,0

[Colours]
Combo1 : 223,223,223
Combo2 : 254,224,82
Combo3 : 116,116,116
Combo4 : 255,164,72

[HitObjects]
432,69,4472,6,0,L|426:131,1,50,2|2,1:2|1:2,0:0:0:0:
391,153,4788,2,0,L|397:215,1,50,2|2,1:2|1:2,0:0:0:0:
383,251,5103,6,0,P|441:225|500:222,2,100,4|0|8,1:2|1:0|0:0,0:0:0:0:
314,324,6051,1,0,1:0:0:0:
237,259,6366,2,0,P|222:205|244:150,1,100,0|0,1:0|1:0,0:0:0:0:
301,88,6998,6,0,L|357:72,2,50,8|0|0,0:0|0:0|1:0,0:0:0:0:
211,43,7630,6,0,L|139:61,1,50,0|0,1:0|0:0,0:0:0:0:
140,99,7945,2,0,L|68:117,1,50,0|0,1:0|0:0,0:0:0:0:
59,149,8261,2,0,P|43:205|72:258,1,100,8|0,0:0|1:0,0:0:0:0:
130,310,8893,1,4,1:2:0:0:
208,247,9209,1,4,1:2:0:0:
282,313,9524,2,0,P|338:292|392:286,1,100,0|0,1:0|1:0,0:0:0:0:
473,315,10156,6,0,P|510:263|438:157,1,200,6|2,1:2|1:2,0:0:0:0:
375,89,11103,1,0,1:0:0:0:
297,152,11419,2,0,P|308:219|311:257,1,100,0|2,1:0|1:2,0:0:0:0:
244,326,12051,2,0,P|184:322|152:280,1,100,10|2,0:2|0:0,0:0:0:0:
84,227,12682,6,0,P|101:166|105:124,1,100,2|2,1:2|0:0,0:0:0:0:
111,79,13156,2,0,P|166:54|213:83,1,100,2|0,0:2|0:0,0:0:0:0:
231,106,13629,1,2,0:0:0:0:
301,176,13945,2,0,P|360:162|441:161,2,100,0|0|8,1:2|1:0|0:0,0:0:0:0:
203,201,14893,1,2,1:2:0:0:
268,277,15209,6,0,P|258:339|254:387,2,100,2|0|2,1:2|1:0|1:2,0:0:0:0:
351,212,16156,1,2,1:2:0:0:
420,285,16472,2,0,P|474:271|496:228,1,100,2|2,1:2|1:2,0:2:0:0:
512,196,16945,2,0,P|501:137|496:93,1,100,2|0,0:0|0:0,0:0:0:0:
420,31,17577,5,2,0:2:0:0:
420,31,17735,1,0,1:0:0:0:
321,46,18051,2,0,P|287:37|257:30,2,50,0|0|8,1:0|1:0|0:0,0:0:0:0:
372,131,18682,1,0,1:0:0:0:
420,218,18998,2,0,P|454:209|484:202,2,50,0|0|0,1:0|1:0|1:0,0:0:0:0:
359,297,19629,2,0,P|304:278|252:274,1,100,10|2,0:2|1:2,0:0:0:0:
181,332,20261,6,0,P|125:316|106:272,1,100,2|0,1:2|1:0,0:0:0:0:
39,207,20893,2,0,P|53:147|54:99,2,100,2|0|0,1:2|1:0|1:0,0:0:0:0:
131,168,21840,1,2,1:2:0:0:
200,239,22156,2,0,P|256:223|300:221,1,100,10|2,0:2|1:2,0:0:0:0:
384,172,22787,6,0,P|405:111|378:67,1,100,2|2,1:2|0:0,0:0:0:0:
361,41,23261,2,0,P|304:59|282:107,1,100,2|2,0:0|0:0,0:0:0:0:
263,137,23735,1,2,1:2:0:0:
195,211,24051,2,0,P|146:200|96:196,2,100,0|0|8,1:0|1:0|0:0,0:0:0:0:
251,293,24998,1,2,1:2:0:0:
323,361,25314,6,0,P|381:348|405:301,1,100,2|2,1:2|0:0,0:0:0:0:
468,241,25945,1,0,1:0:0:0:
397,169,26261,2,0,L|409:110,1,50,2|2,0:0|0:0,0:0:0:0:
384,75,26577,2,0,P|320:81|295:132,1,100,2|2,1:2|0:0,0:0:0:0:
265,142,27051,2,0,L|282:256,1,100,2|2,0:0|0:0,0:0:0:0:
287,290,27524,1,0,1:0:0:0:
206,349,27840,6,0,P|158:337|131:288,1,100,4|2,1:2|0:0,0:0:0:0:
144,196,28472,2,0,L|130:90,1,100,2|2,1:2|1:2,0:2:0:0:
208,33,29103,2,0,P|269:46|288:95,1,100,2|2,1:2|1:2,0:0:0:0:
352,152,29735,2,0,P|413:139|432:90,1,100,10|2,1:2|0:0,0:0:0:0:
503,177,30366,6,0,L|492:280,1,100,2|2,1:2|1:2,0:0:0:0:
483,326,30840,1,2,0:0:0:0:
389,361,31156,2,0,P|323:351|304:311,1,100,2|2,0:2|0:0,0:0:0:0:
270,292,31629,2,0,L|283:178,2,100,0|0|8,1:0|1:0|0:0,0:0:0:0:
189,352,32577,1,0,1:0:0:0:
110,289,32893,6,0,P|92:237|118:186,1,100,0|2,1:0|1:2,0:0:0:0:
106,96,33524,2,0,L|223:128,1,100,2|2,1:2|1:2,0:0:0:0:
281,60,34156,2,0,P|341:68|366:108,1,100,2|2,1:2|1:2,0:0:0:0:
292,167,34787,2,0,P|305:227|306:281,1,100,8|0,0:0|1:0,0:0:0:0:
376,337,35419,6,0,P|437:325|458:283,1,100,2|2,1:2|1:2,0:0:0:0:
473,248,35893,1,2,0:0:0:0:
406,173,36208,2,0,L|414:124,1,50,2|2,0:0|1:2,0:0:0:0:
346,49,36682,2,0,P|289:64|268:119,2,100,0|0|8,1:0|1:0|0:0,0:0:0:0:
435,3,37629,1,0,0:0:0:0:
496,81,37945,6,0,L|487:144,1,50,6|2,1:2|0:0,0:0:0:0:
477,179,38261,1,2,1:2:0:0:
379,199,38577,2,0,L|388:262,1,50,10|2,0:0|0:0,0:0:0:0:
396,297,38893,1,2,1:2:0:0:
321,363,39208,2,0,P|266:360|237:313,1,100,2|2,1:2|0:2,0:0:0:0:
185,242,39840,2,0,P|130:245|101:292,1,100,0|0,1:0|1:0,0:0:0:0:
83,325,40314,1,0,1:0:0:0:
83,325,40472,1,4,1:2:0:0:
25,133,41103,6,0,L|96:121,1,50,0|0,1:0|1:0,0:0:0:0:
97,80,41419,2,0,L|168:68,1,50,0|0,1:0|1:0,0:0:0:0:
189,46,41735,6,0,P|214:91|195:143,1,100,6|2,1:2|0:0,0:0:0:0:
162,166,42208,2,0,L|178:279,1,100,2|2,0:0|0:0,0:0:0:0:
184,314,42682,1,2,0:0:0:0:
272,360,42998,2,0,P|331:347|359:306,1,100,2|0,1:2|1:0,0:0:0:0:
363,268,43471,2,0,L|476:291,1,100,2|2,0:0|0:0,0:0:0:0:
500,257,43945,1,2,0:0:0:0:
449,170,44261,6,0,L|471:58,2,100,2|2|10,1:2|0:0|0:0,0:0:0:0:
365,224,45208,2,0,P|309:215|283:177,1,100,2|0,0:0|1:0,0:0:0:0:
223,102,45840,1,2,1:2:0:0:
126,77,46156,1,10,0:0:0:0:
47,137,46471,1,2,1:2:0:0:
57,236,46787,6,0,P|111:242|174:260,1,100,2|2,1:2|0:0,0:0:0:0:
247,292,47419,2,0,P|265:239|248:186,1,100,10|2,0:0|0:0,0:0:0:0:
337,140,48050,1,2,1:2:0:0:
415,201,48366,1,2,1:2:0:0:
488,133,48682,2,0,P|476:77|468:23,1,100,10|2,0:0|0:0,0:0:0:0:
373,7,49313,6,0,P|322:18|293:68,1,100,2|0,1:2|0:0,0:0:0:0:
270,98,49787,1,2,0:0:0:0:
270,98,49945,2,0,P|213:87|139:80,1,100,10|0,0:0|0:0,0:0:0:0:
96,148,50577,1,0,1:0:0:0:
171,212,50892,1,2,1:2:0:0:
97,279,51208,2,0,P|104:333|105:380,1,100,10|2,0:0|1:2,0:0:0:0:
204,365,51840,6,0,P|266:350|326:346,1,100,6|2,1:2|0:0,0:0:0:0:
371,274,52471,2,0,L|380:223,1,50
341,191,52787,2,0,L|350:140,1,50
390,111,53103,2,0,P|446:121|469:171,1,100,2|2,1:2|0:0,0:0:0:0:
506,247,53735,2,0,P|495:307|489:364,1,100,10|2,0:0|0:0,0:0:0:0:
394,370,54366,6,0,P|338:357|265:351,1,100,6|2,1:2|0:0,0:0:0:0:
222,283,54998,2,0,B|207:234|207:234|229:172,1,100,6|2,1:2|0:0,0:0:0:0:
303,127,55629,2,0,L|288:18,2,100,6|0|8,1:2|1:0|0:0,0:0:0:0:
226,192,56577,6,0,L|179:178,1,50,2|2,0:0|0:0,0:0:0:0:
144,140,56892,2,0,P|80:146|51:214,1,100,2|2,1:2|1:2,0:0:0:0:
22,206,57366,2,0,P|31:270|32:323,1,100,2|2,0:0|0:0,0:0:0:0:
36,355,57840,1,2,0:0:0:0:
117,306,58156,2,0,P|167:319|220:325,1,100,0|0,1:0|1:0,0:0:0:0:
305,366,58787,1,8,0:0:0:0:
368,288,59103,6,0,L|362:235,1,50,2|2,0:0|0:0,0:0:0:0:
319,211,59419,2,0,L|306:97,1,100,2|0,1:2|1:0,0:0:0:0:
304,66,59892,1,2,0:0:0:0:
304,66,60050,1,8,0:0:0:0:
392,18,60366,1,0,1:0:0:0:
464,86,60682,2,0,L|455:146,1,50,6|0,1:2|0:0,0:0:0:0:
449,185,60998,1,4,1:2:0:0:
393,267,61313,2,0,L|337:278,1,50,10|0,0:0|1:0,0:0:0:0:
325,323,61629,2,0,L|269:334,1,50,0|0,1:0|1:0,0:0:0:0:
229,352,61945,6,0,P|209:298|225:252,1,100,6|2,1:2|0:0,0:0:0:0:
262,232,62419,2,0,L|274:121,1,100,0|2,0:0|0:0,0:0:0:0:
279,83,62892,1,2,1:2:0:0:
197,25,63208,2,0,P|136:40|113:87,1,100,6|2,1:2|1:2,0:0:0:0:
80,103,63682,2,0,P|88:163|87:213,1,100,2|2,0:0|0:0,0:0:0:0:
91,252,64156,1,2,1:2:0:0:
160,323,64471,6,0,P|217:329|261:351,1,100,2|2,1:2|1:2,0:0:0:0:
329,279,65103,1,10,0:0:0:0:
409,337,65419,2,0,P|427:286|410:237,1,100,2|0,1:2|1:0,0:0:0:0:
331,188,66050,1,2,1:2:0:0:
311,89,66366,1,10,0:2:0:0:
383,19,66682,1,2,0:0:0:0:
482,24,66998,6,0,P|474:88|470:146,1,100,6|2,1:2|0:2,0:0:0:0:
422,210,67629,2,0,P|430:274|434:332,1,100,10|2,0:0|0:0,0:0:0:0:
355,373,68261,1,2,1:2:0:0:
277,309,68577,1,2,1:2:0:0:
194,365,68892,2,0,P|132:351|78:349,1,100,10|2,0:0|1:2,0:0:0:0:
37,266,69524,6,0,P|23:216|42:173,1,100,2|0,1:2|0:0,0:0:0:0:
73,134,69998,1,2,0:0:0:0:
73,134,70156,2,8,P|140:148|183:171,1,100,10|0,0:0|1:0,0:0:0:0:
237,233,70787,1,0,1:0:0:0:
293,307,71103,2,0,L|359:292,1,50,2|0,1:2|1:0,0:0:0:0:
389,311,71419,2,0,P|410:255|384:207,1,100,6|0,1:2|1:0,0:0:0:0:
308,172,72050,6,0,L|326:60,1,100,6|2,1:2|1:2,0:0:0:0:
243,12,72682,2,0,P|192:29|172:76,1,100,8|2,0:0|0:0,0:0:0:0:
102,140,73313,1,2,1:2:0:0:
172,210,73629,1,2,1:2:0:0:
106,286,73945,2,0,P|45:271|26:225,1,100,10|2,0:0|0:0,0:0:0:0:
4,144,74577,6,0,P|16:75|21:20,1,100,6|0,1:2|1:0,0:0:0:0:
115,18,75208,2,0,P|109:67|99:116,1,100,6|0,1:2|1:0,0:0:0:0:
163,194,75840,1,2,1:2:0:0:
236,125,76156,1,2,1:2:0:0:
308,193,76471,2,0,P|362:178|437:179,1,100,10|0,0:0|0:0,0:0:0:0:
485,236,77103,6,0,L|479:292,1,50,6|2,0:0|0:0,0:0:0:0:
474,335,77419,1,2,0:0:0:0:
378,366,77735,2,0,L|383:316,1,50,10|2,0:0|0:0,0:0:0:0:
389,266,78050,1,2,1:2:0:0:
312,200,78366,2,0,L|247:219,1,50,2|2,1:2|1:2,0:0:0:0:
239,258,78682,2,0,L|174:277,1,50,2|0,1:2|1:0,0:0:0:0:
143,287,78998,1,2,0:0:0:0:
64,224,79313,5,6,1:2:0:0:
261,44,80892,6,0,P|310:56|330:100,1,100,4|0,1:2|1:2,0:0:0:0:
421,138,81524,2,0,P|411:214|410:263,1,100,8|0,0:2|0:2,0:0:0:0:
342,311,82156,5,0,1:0:0:0:
268,243,82471,1,0,1:0:0:0:
194,310,82787,2,0,P|136:295|91:294,1,100,8|0,0:0|1:0,0:0:0:0:
46,302,83261,1,0,1:0:0:0:
46,302,83419,2,0,P|29:248|50:208,1,100,0|0,1:0|1:0,0:0:0:0:
87,181,83892,1,0,1:0:0:0:
87,181,84050,2,0,L|81:125,2,50,0|0|0,1:0|1:0|1:0,0:0:0:0:
180,218,84682,5,4,0:0:0:0:
256,192,84840,12,0,87156,0:0:0:0:
