osu file format v14

[General]
AudioFilename: audio.mp3
AudioLeadIn: 0
PreviewTime: 40842
Countdown: 0
SampleSet: Soft
StackLeniency: 0.7
Mode: 0
LetterboxInBreaks: 0
WidescreenStoryboard: 0

[Editor]
Bookmarks: 61,10686,27561,29748,37561,41154,60686,61154,74904,76154,81311,86154
DistanceSpacing: 0.3
BeatDivisor: 4
GridSize: 4
TimelineZoom: 1.3

[Metadata]
Title:ASH
TitleUnicode:ASH
Artist:LiSA
ArtistUnicode:LiSA
Creator:SrSkyPlayer
Version:Ruler
Source:Fate/Apocrypha
Tags:trynna fate apocrypha jeanne d'arc kyuukai type-moon tv ver size
BeatmapID:1508196
BeatmapSetID:713576

[Difficulty]
HPDrainRate:7
CircleSize:4
OverallDifficulty:8
ApproachRate:9
SliderMultiplier:1.8
SliderTickRate:1

[Events]
//Background and Video events
0,0,"jeanne.jpeg",0,0
Video,0,"video.flv"
//Break Periods
//Storyboard Layer 0 (Background)
//Storyboard Layer 1 (Fail)
//Storyboard Layer 2 (Pass)
//Storyboard Layer 3 (Foreground)
//Storyboard Sound Samples

[TimingPoints]
61,312.5,4,2,1,20,1,0
61,-133.333333333333,4,2,1,20,0,0
686,-200,4,2,1,20,0,0
5061,-133.333333333333,4,2,1,20,0,0
5686,-200,4,2,1,20,0,0
9904,-166.666666666667,4,2,1,15,0,0
10061,-166.666666666667,4,2,1,40,0,0
26857,-166.666666666667,4,2,1,15,0,0
26936,-166.666666666667,4,2,1,50,0,0
27561,-125,4,2,1,50,0,0
29748,-133.333333333333,4,2,1,50,0,0
29982,-133.333333333333,4,2,1,15,0,0
30061,-117.647058823529,4,2,1,50,0,0
39436,-181.818181818181,4,2,1,50,0,0
40061,-133.333333333333,4,2,1,50,0,0
41154,-100,4,2,1,60,0,1
60686,-100,4,2,1,60,0,0
61154,-100,4,2,1,60,0,1
74904,-100,4,2,1,60,0,0
75529,-166.666666666667,4,2,1,60,0,0
76154,-100,4,2,1,60,0,1
81311,-100,4,2,1,60,0,0
86154,-100,4,2,1,5,0,0

[Colours]
Combo1 : 160,49,251
Combo2 : 255,255,128
Combo3 : 152,198,254
Combo4 : 255,139,83

[HitObjects]
5,92,61,6,0,P|0:123|17:173,1,67.5000025749208,2|2,0:0|0:0,0:0:0:0:
183,144,373,2,0,P|185:111|173:73,1,67.5000025749208,2|2,0:0|0:0,0:0:0:0:
93,120,686,6,0,L|96:226,1,90,2|0,0:0|0:0,0:0:0:0:
273,340,1311,2,0,L|270:250,1,90,2|0,0:0|0:0,0:0:0:0:
396,167,1935,1,2,0:0:0:0:
405,318,2248,1,0,0:0:0:0:
473,114,2561,6,0,P|421:77|311:128,1,180,2|0,0:0|0:0,0:0:0:0:
196,297,3498,2,0,B|109:331|110:265|22:297,1,180,2|0,0:0|0:0,0:0:0:0:
21,297,4436,2,0,P|14:267|16:237,1,45,2|2,0:0|0:0,0:0:0:0:
103,194,4748,1,0,0:0:0:0:
103,194,5061,6,0,L|184:192,1,67.5000025749208,2|2,0:0|0:0,0:0:0:0:
259,73,5373,2,0,L|191:74,1,67.5000025749208,2|2,0:0|0:0,0:0:0:0:
341,114,5686,6,0,P|352:70|328:14,1,90,2|0,0:0|0:0,0:0:0:0:
170,192,6311,2,0,P|157:234|168:277,1,90,2|0,0:0|0:0,0:0:0:0:
312,368,6936,1,2,0:0:0:0:
312,202,7248,1,0,0:0:0:0:
263,285,7561,6,0,L|369:281,1,90,2|0,0:0|0:0,0:0:0:0:
312,202,8029,2,0,L|418:198,1,90,2|0,0:0|0:0,0:0:0:0:
464,132,8498,1,2,0:0:0:0:
256,192,8576,12,2,9904,0:0:0:0:
29,81,10061,6,0,L|27:139,1,53.9999983520508,2|0,0:0|0:0,0:0:0:0:
109,174,10373,2,0,L|110:120,1,53.9999983520508,2|0,0:0|0:0,0:0:0:0:
169,49,10686,6,0,P|200:36|287:55,1,107.999996704102,2|0,0:0|0:0,0:0:0:0:
345,99,11154,2,0,L|342:206,1,107.999996704102,2|0,0:0|0:0,0:0:0:0:
291,284,11623,2,0,P|342:297|394:283,2,107.999996704102,2|2|0,0:0|0:0|0:0,0:0:0:0:
248,201,12404,1,2,0:0:0:0:
205,301,12561,6,0,P|153:287|101:301,1,107.999996704102,2|0,0:0|0:0,0:0:0:0:
21,344,13029,2,0,P|10:291|29:242,1,107.999996704102,2|0,0:0|0:0,0:0:0:0:
115,208,13498,2,0,P|119:174|115:153,1,53.9999983520508,2|0,0:0|0:0,0:0:0:0:
66,58,13811,6,0,P|118:72|170:58,1,107.999996704102,2|0,0:0|0:0,0:0:0:0:
250,15,14279,1,2,0:0:0:0:
319,75,14436,2,0,L|394:72,1,53.9999983520508,2|0,0:0|0:0,0:0:0:0:
464,64,14748,2,0,P|466:29|461:9,1,53.9999983520508,2|0,0:0|0:0,0:0:0:0:
372,72,15061,6,0,L|376:194,1,107.999996704102,2|0,0:0|0:0,0:0:0:0:
394,269,15529,1,2,0:0:0:0:
481,240,15686,2,0,P|486:266|482:293,1,53.9999983520508,2|0,0:0|0:0,0:0:0:0:
418,359,15998,2,0,L|350:363,1,53.9999983520508,2|0,0:0|0:0,0:0:0:0:
256,354,16311,6,0,P|204:340|152:354,1,107.999996704102,2|0,0:0|0:0,0:0:0:0:
64,379,16779,2,0,P|38:331|40:277,1,107.999996704102,2|0,0:0|0:0,0:0:0:0:
68,190,17248,2,0,P|72:163|68:136,1,53.9999983520508,2|0,0:0|0:0,0:0:0:0:
16,41,17561,6,0,P|67:27|119:41,1,107.999996704102,2|0,0:0|0:0,0:0:0:0:
193,96,18029,1,2,0:0:0:0:
265,39,18186,2,0,P|291:34|317:38,1,53.9999983520508,2|0,0:0|0:0,0:0:0:0:
387,97,18498,2,0,L|380:168,1,53.9999983520508,2|0,0:0|0:0,0:0:0:0:
478,78,18811,6,0,L|468:185,1,107.999996704102,2|0,0:0|0:0,0:0:0:0:
487,275,19279,1,2,0:0:0:0:
399,247,19436,2,0,L|341:230,1,53.9999983520508,2|0,0:0|0:0,0:0:0:0:
309,317,19748,1,0,0:0:0:0:
309,317,20061,6,0,L|256:302,1,53.9999983520508,2|0,0:0|0:0,0:0:0:0:
169,329,20373,2,0,P|163:302|168:276,1,53.9999983520508,2|0,0:0|0:0,0:0:0:0:
219,198,20686,2,0,P|166:185|115:201,1,107.999996704102,2|0,0:0|0:0,0:0:0:0:
37,248,21154,2,0,P|24:196|42:145,1,107.999996704102,2|0,0:0|0:0,0:0:0:0:
101,76,21623,2,0,P|51:55|-1:63,2,107.999996704102,2|2|0,0:0|0:0|0:0,0:0:0:0:
185,112,22404,1,2,0:0:0:0:
255,29,22561,6,0,P|281:24|308:28,1,53.9999983520508,2|0,0:0|0:0,0:0:0:0:
381,83,22873,2,0,L|377:136,1,53.9999983520508,2|0,0:0|0:0,0:0:0:0:
420,218,23186,2,0,P|435:271|420:324,1,107.999996704102,2|0,0:0|0:0,0:0:0:0:
342,367,23654,1,0,0:0:0:0:
250,310,23811,6,0,P|198:296|146:311,1,107.999996704102,2|0,0:0|0:0,0:0:0:0:
70,358,24279,1,2,0:0:0:0:
17,282,24436,2,0,L|16:219,1,53.9999983520508,2|0,0:0|0:0,0:0:0:0:
93,180,24748,2,0,L|92:117,1,53.9999983520508,2|0,0:0|0:0,0:0:0:0:
40,31,25061,6,0,P|96:18|145:32,1,107.999996704102,2|0,0:0|0:0,0:0:0:0:
224,73,25529,1,2,0:0:0:0:
308,111,25686,2,0,P|334:115|361:111,1,53.9999983520508,2|0,0:0|0:0,0:0:0:0:
439,59,25998,2,0,P|454:110|440:161,1,107.999996704102,2|0,0:0|0:0,0:0:0:0:
337,316,26623,6,0,B|339:286|339:286|331:266|331:266|332:236,1,80.9999975280763,2|0,0:0|0:0,0:0:0:0:
317,223,26936,2,0,P|257:210|195:230,1,107.999996704102,2|0,0:0|0:0,0:0:0:0:
145,283,27404,1,0,0:0:0:0:
75,155,27561,6,0,P|66:190|72:226,1,72,8|0,0:0|0:0,0:0:0:0:
232,312,27873,1,0,0:0:0:0:
89,375,28029,6,0,L|161:372,1,72,8|0,0:0|0:0,0:0:0:0:
212,220,28342,1,0,0:0:0:0:
320,343,28498,6,0,P|325:307|316:273,1,72,8|0,0:0|0:0,0:0:0:0:
396,208,28811,5,2,0:0:0:0:
377,178,28915,2,0,P|374:153|378:126,1,48
483,11,29123,5,2,0:0:0:0:
448,11,29227,2,0,P|433:29|421:50,1,48
262,35,29436,5,2,0:0:0:0:
294,27,29540,2,0,P|315:36|334:51,1,48
496,182,29748,6,0,P|504:234|514:302,1,101.250003862381,10|0,3:2|0:0,0:0:0:0:
492,301,30061,5,4,3:0:0:0:
492,301,30217,2,0,P|453:296|416:292,1,76.5000014591217,0|8,0:0|3:0,0:0:0:0:
268,375,30529,1,0,0:0:0:0:
271,204,30686,2,0,P|309:208|346:212,1,76.5000014591217,8|0,0:0|0:0,0:0:0:0:
268,375,30998,6,0,P|230:370|192:366,1,76.5000014591217,8|0,3:0|0:0,0:0:0:0:
27,348,31311,2,0,P|4:277|39:205,1,153.000002918243,2|8,3:2|3:0,0:0:0:0:
128,284,31779,1,0,3:0:0:0:
144,164,31936,2,0,P|147:124|151:85,1,76.5000014591217,2|0,3:2|0:0,0:0:0:0:
249,29,32248,2,0,P|301:12|363:38,1,114.750002188683,8|0,3:0|0:0,0:0:0:0:
363,61,32561,5,4,3:0:0:0:
363,61,32717,2,0,P|359:100|356:137,1,76.5000014591217,0|8,0:0|3:0,0:0:0:0:
454,4,33029,1,0,0:0:0:0:
505,169,33186,2,0,P|508:130|512:92,1,76.5000014591217,8|0,0:0|0:0,0:0:0:0:
387,239,33498,6,0,P|349:236|311:234,1,76.5000014591217,8|0,3:0|0:0,0:0:0:0:
157,295,33811,2,0,P|130:225|160:157,1,153.000002918243,2|8,3:2|3:0,0:0:0:0:
236,194,34279,1,0,3:0:0:0:
259,75,34436,2,0,P|267:37|258:0,1,76.5000014591217,2|0,3:2|0:0,0:0:0:0:
148,26,34748,2,0,P|89:27|4:30,1,114.750002188683,8|0,3:0|0:0,0:0:0:0:
18,52,35061,5,4,3:0:0:0:
18,52,35217,2,0,P|17:92|17:134,1,76.5000014591217,0|8,0:0|3:0,0:0:0:0:
24,297,35529,1,0,0:0:0:0:
166,205,35686,2,0,P|127:208|89:213,1,76.5000014591217,8|0,0:0|0:0,0:0:0:0:
278,252,35998,6,0,P|317:247|355:244,1,76.5000014591217,8|0,3:0|0:0,0:0:0:0:
466,309,36311,2,0,P|474:346|467:383,1,76.5000014591217,2|0,3:2|0:0,0:0:0:0:
464,182,36623,2,0,P|440:115|468:40,1,153.000002918243,8|2,3:0|3:2,0:0:0:0:
342,111,37092,1,0,0:0:0:0:
245,8,37248,2,0,P|253:45|246:82,1,76.5000014591217,8|0,0:0|0:0,0:0:0:0:
154,138,37561,5,2,0:0:0:0:
138,170,37665,2,0,L|141:227,1,51.0000009727478
76,84,37873,5,2,0:0:0:0:
92,52,37977,2,0,L|89:-5,1,51.0000009727478
13,168,38186,6,0,B|-11:229|18:286|18:286|20:259|40:233,1,153.000002918243,8|0,0:0|0:0,0:0:0:0:
272,364,38811,5,4,0:0:0:0:
272,364,39436,2,0,B|366:315|366:411|460:364,1,198.000006042481,10|2,0:0|0:0,0:0:0:0:
505,225,40217,6,0,L|439:217,1,67.5000025749208,2|0,0:0|0:0,0:0:0:0:
368,140,40529,1,2,0:0:0:0:
288,206,40686,1,8,0:0:0:0:
266,204,40764,1,0,0:0:0:0:
246,203,40842,1,8,0:0:0:0:
370,57,40998,1,8,0:0:0:0:
139,50,41154,6,0,B|139:102|165:134|165:134|139:166|139:218,1,180,4|2,0:0|0:0,0:0:0:0:
199,362,41623,2,0,P|154:359|109:357,1,90,10|0,0:0|0:0,0:0:0:0:
246,203,41936,2,0,P|291:206|336:208,1,90,2|0,0:0|0:0,0:0:0:0:
358,322,42248,1,8,0:0:0:0:
444,160,42404,6,0,P|456:202|444:245,1,90,2|0,0:0|0:0,0:0:0:0:
350,92,42717,2,0,P|352:47|354:2,1,90,2|8,0:0|0:0,0:0:0:0:
246,78,43029,1,0,0:0:0:0:
136,2,43186,2,0,P|138:46|140:91,1,90,2|0,0:0|0:0,0:0:0:0:
204,176,43498,1,8,0:0:0:0:
56,143,43654,6,0,P|114:118|207:184,1,180,4|0,0:0|0:0,0:0:0:0:
27,232,44123,1,10,0:0:0:0:
124,301,44279,2,0,P|122:256|119:211,1,90,2|0,0:0|0:0,0:0:0:0:
186,372,44592,1,0,0:0:0:0:
16,349,44748,1,8,0:0:0:0:
216,283,44904,6,0,B|280:281|280:281|315:318|315:318|380:318,1,180,2|0,0:0|0:0,0:0:0:0:
495,213,45373,2,0,P|507:171|495:128,1,90,10|0,0:0|0:0,0:0:0:0:
454,1,45686,1,0,0:0:0:0:
345,80,45842,2,0,P|333:123|345:166,1,90,2|8,0:0|0:0,0:0:0:0:
454,1,46154,6,0,P|377:41|301:2,1,180,4|2,0:0|0:0,0:0:0:0:
234,62,46623,2,0,P|191:49|148:62,1,90,10|0,0:0|0:0,0:0:0:0:
8,157,46936,2,0,P|5:111|3:62,1,90,2|0,0:0|0:0,0:0:0:0:
160,231,47248,1,10,0:0:0:0:
14,331,47404,6,0,B|77:315|77:315|120:344|120:344|182:331,1,180,2|0,0:0|0:0,0:0:0:0:
344,268,47873,2,0,P|299:263|254:259,1,90,10|0,0:0|0:0,0:0:0:0:
291,354,48186,1,2,0:0:0:0:
308,173,48342,1,2,0:0:0:0:
443,286,48498,1,10,0:0:0:0:
494,199,48654,6,0,P|449:195|404:190,1,90,6|0,0:0|0:0,0:0:0:0:
373,57,48967,1,0,0:0:0:0:
308,173,49123,1,10,0:0:0:0:
270,85,49279,6,0,B|262:43|262:43|282:0,1,90,2|0,0:0|0:0,0:0:0:0:
474,26,49592,1,2,3:0:0:0:
474,26,49670,1,2,3:0:0:0:
474,26,49748,1,2,3:0:0:0:
474,26,49826,1,2,3:0:0:0:
474,26,49904,6,0,B|483:72|483:72|466:111,1,90,2|0,3:0|0:0,0:0:0:0:
313,175,50217,1,2,0:0:0:0:
373,57,50373,1,10,0:0:0:0:
406,191,50529,5,2,0:0:0:0:
380,26,50686,1,2,0:0:0:0:
235,112,50842,2,0,P|191:115|145:120,1,90,2|8,0:0|0:0,0:0:0:0:
14,21,51154,6,0,B|78:11|78:11|118:44|118:44|180:37,1,180,4|0,0:0|0:0,0:0:0:0:
109,200,51623,2,0,P|113:244|117:289,1,90,10|0,0:0|0:0,0:0:0:0:
53,130,51936,1,2,0:0:0:0:
203,239,52092,1,2,0:0:0:0:
33,312,52248,1,10,0:0:0:0:
239,337,52404,6,0,B|324:379|324:293|410:336,1,180,2|0,0:0|0:0,0:0:0:0:
512,229,52873,2,0,P|524:186|512:143,1,90,10|0,0:0|0:0,0:0:0:0:
402,246,53186,2,0,P|406:292|410:335,1,90,2|0,0:0|0:0,0:0:0:0:
273,159,53498,1,10,0:0:0:0:
314,89,53654,6,0,B|330:107|342:161|298:203|298:203|265:182|274:157,1,180,2|0,0:0|0:0,0:0:0:0:
269,7,54123,2,0,P|312:-5|355:5,1,90,10|0,0:0|0:0,0:0:0:0:
213,98,54436,1,8,0:0:0:0:
192,106,54514,1,8,0:0:0:0:
170,110,54592,1,8,0:0:0:0:
148,107,54670,1,8,0:0:0:0:
125,99,54748,2,0,L|102:47,1,45,8|0,0:0|0:0,0:0:0:0:
3,39,54904,6,0,B|3:91|29:123|29:123|3:155|3:207,1,180,4|2,0:0|0:0,0:0:0:0:
153,340,55373,1,0,0:0:0:0:
132,231,55529,2,0,B|114:213|109:193|109:193|110:270|47:304,1,180,4|0,0:0|0:0,0:0:0:0:
197,164,55998,1,10,0:0:0:0:
328,289,56154,6,0,B|413:331|413:245|499:288,1,180,4|0,0:0|0:0,0:0:0:0:
369,207,56623,2,0,P|359:163|373:121,1,90,8|0,0:0|0:0,0:0:0:0:
481,71,56936,1,2,0:0:0:0:
470,188,57092,1,0,0:0:0:0:
384,4,57248,1,8,0:0:0:0:
277,53,57404,6,0,B|213:56|213:56|175:20|175:20|106:22,1,180,2|0,0:0|0:0,0:0:0:0:
37,130,57873,2,0,P|39:173|42:219,1,90,8|0,0:0|0:0,0:0:0:0:
212,277,58186,2,0,P|222:233|208:191,1,90,2|0,0:0|0:0,0:0:0:0:
152,349,58498,1,8,0:0:0:0:
65,317,58654,6,0,P|129:258|213:278,1,180,4|0,0:0|0:0,0:0:0:0:
338,360,59123,2,0,P|382:356|427:351,1,90,10|0,0:0|0:0,0:0:0:0:
434,201,59436,2,0,P|389:205|344:210,1,90,10|0,0:0|0:0,0:0:0:0:
506,256,59748,1,8,0:0:0:0:
373,123,59904,5,2,3:0:0:0:
373,123,59982,1,2,3:0:0:0:
373,123,60061,2,0,P|417:117|462:112,1,90,2|0,3:0|0:0,0:0:0:0:
344,209,60373,1,10,0:0:0:0:
404,19,60529,1,0,0:0:0:0:
292,91,60686,1,8,0:0:0:0:
286,76,60764,1,8,0:0:0:0:
280,61,60842,2,0,L|333:56,1,45,8|0,0:0|0:0,0:0:0:0:
448,14,60998,2,0,L|403:18,1,45,8|0,0:0|0:0,0:0:0:0:
220,0,61154,6,0,B|188:60|188:60|222:170,1,180,4|0,0:0|0:0,0:0:0:0:
109,273,61623,2,0,L|19:278,1,90,8|0,0:0|0:0,0:0:0:0:
181,356,61936,2,0,L|270:350,1,90,8|0,0:0|0:0,0:0:0:0:
216,252,62248,1,8,0:0:0:0:
376,258,62404,6,0,P|392:300|383:344,1,90,0|8,0:0|0:0,0:0:0:0:
216,252,62717,2,0,P|206:208|221:167,1,90,0|8,0:0|0:0,0:0:0:0:
348,127,63029,1,0,0:0:0:0:
475,176,63186,5,8,0:0:0:0:
484,155,63264,1,8,0:0:0:0:
488,133,63342,1,8,0:0:0:0:
485,111,63420,1,8,0:0:0:0:
475,89,63498,2,0,L|424:56,1,45,8|0,0:0|0:0,0:0:0:0:
337,23,63654,6,0,B|288:23|255:55|255:55|222:23|173:23,1,180,4|0,0:0|0:0,0:0:0:0:
85,185,64123,1,8,0:0:0:0:
4,141,64279,2,0,P|-8:183|1:226,1,90
168,142,64592,1,0,0:0:0:0:
12,40,64748,1,8,0:0:0:0:
85,185,64904,6,0,B|91:247|91:247|62:289|62:289|67:355,1,180,4|0,0:0|0:0,0:0:0:0:
219,248,65373,2,0,P|214:205|209:158,1,90,8|0,0:0|0:0,0:0:0:0:
213,342,65686,1,0,0:0:0:0:
296,299,65842,2,0,P|306:343|294:388,1,90,0|8,0:0|0:0,0:0:0:0:
219,248,66154,6,0,P|293:205|371:244,1,180,4|0,0:0|0:0,0:0:0:0:
455,283,66623,2,0,P|464:239|451:197,1,90,10|0,0:0|0:0,0:0:0:0:
358,45,66936,2,0,P|344:87|354:130,1,90,2|0,0:0|0:0,0:0:0:0:
461,81,67248,1,8,0:0:0:0:
285,169,67404,6,0,B|349:163|349:163|387:199|387:199|449:196,1,180,2|0,0:0|0:0,0:0:0:0:
377,335,67873,2,0,P|333:336|288:339,1,90,10|0,0:0|0:0,0:0:0:0:
223,275,68186,1,2,0:0:0:0:
201,364,68342,1,2,0:0:0:0:
163,169,68498,1,10,0:0:0:0:
47,305,68654,6,0,P|91:303|136:300,1,90,6|0,0:0|0:0,0:0:0:0:
37,211,68967,1,2,0:0:0:0:
163,169,69123,1,8,0:0:0:0:
75,111,69279,6,0,B|63:70|63:70|78:25,1,90,2|0,0:0|0:0,0:0:0:0:
245,25,69592,1,0,0:0:0:0:
163,169,69748,1,10,0:0:0:0:
163,79,69904,6,0,L|163:172,1,90,6|0,0:0|0:0,0:0:0:0:
136,299,70217,1,0,0:0:0:0:
37,211,70373,1,8,0:0:0:0:
126,381,70529,5,8,0:0:0:0:
126,381,70608,1,8,0:0:0:0:
126,381,70686,1,8,0:0:0:0:
239,238,70842,1,8,0:0:0:0:
264,226,70920,1,8,0:0:0:0:
292,224,70998,1,8,0:0:0:0:
319,230,71076,1,8,0:0:0:0:
344,245,71154,6,0,B|364:316|332:368|332:368|323:342|297:319,1,180,4|0,0:0|0:0,0:0:0:0:
419,194,71623,2,0,P|462:191|509:189,1,90,10|0,0:0|0:0,0:0:0:0:
338,154,71936,1,2,0:0:0:0:
467,282,72092,1,2,0:0:0:0:
460,101,72248,1,10,0:0:0:0:
343,244,72404,6,0,B|257:201|257:287|172:245,1,180,2|0,0:0|0:0,0:0:0:0:
30,179,72873,2,0,P|19:135|33:93,1,90,10|0,0:0|0:0,0:0:0:0:
149,4,73186,2,0,P|163:46|152:89,1,90,2|0,0:0|0:0,0:0:0:0:
100,214,73498,1,10,0:0:0:0:
0,21,73654,6,0,B|-18:36|-36:89|6:136|6:136|36:117|32:91,1,180,2|0,0:0|0:0,0:0:0:0:
34,257,74123,2,0,P|39:302|43:347,1,90,10|0,0:0|0:0,0:0:0:0:
171,244,74436,1,8,0:0:0:0:
192,236,74514,1,8,0:0:0:0:
214,232,74592,1,8,0:0:0:0:
236,235,74670,1,8,0:0:0:0:
259,243,74748,2,0,L|264:287,1,45,8|0,0:0|0:0,0:0:0:0:
340,372,74904,5,4,0:0:0:0:
195,110,75217,1,2,0:0:0:0:
42,366,75529,1,2,0:0:0:0:
285,221,75842,1,2,0:0:0:0:
39,84,76154,6,0,B|0:142|0:142|21:257,1,180,4|0,0:0|0:0,0:0:0:0:
131,288,76623,2,0,L|220:280,1,90,10|0,0:0|0:0,0:0:0:0:
351,371,76936,1,2,0:0:0:0:
363,213,77092,1,2,0:0:0:0:
286,325,77248,1,10,0:0:0:0:
410,133,77404,6,0,P|455:206|421:285,1,180
317,133,77873,2,0,L|322:43,1,90,10|0,0:0|0:0,0:0:0:0:
168,86,78186,2,0,L|78:81,1,90,2|0,0:0|0:0,0:0:0:0:
203,237,78498,1,8,0:0:0:0:
43,185,78654,6,0,B|107:189|107:189|139:230|139:230|202:236,1,180,4|0,0:0|0:0,0:0:0:0:
289,340,79123,2,0,L|199:335,1,90,10|0,0:0|0:0,0:0:0:0:
329,217,79436,2,0,L|419:222,1,90,10|0,0:0|0:0,0:0:0:0:
244,117,79748,1,8,0:0:0:0:
421,16,79904,5,2,3:0:0:0:
421,16,79982,1,2,3:0:0:0:
421,16,80061,1,2,3:0:0:0:
363,119,80217,1,0,0:0:0:0:
302,17,80373,1,8,0:0:0:0:
394,122,80529,1,8,0:0:0:0:
257,149,80686,1,8,0:0:0:0:
418,221,80842,1,8,0:0:0:0:
275,324,80998,1,8,0:0:0:0:
414,189,81154,1,8,0:0:0:0:
461,379,81311,5,4,0:0:0:0:
256,192,81389,12,0,86154,0:0:0:0:
