osu file format v14

[General]
AudioFilename: audio.mp3
AudioLeadIn: 0
PreviewTime: 40842
Countdown: 0
SampleSet: Soft
StackLeniency: 0.7
Mode: 0
LetterboxInBreaks: 0
WidescreenStoryboard: 1

[Editor]
Bookmarks: 10061
DistanceSpacing: 1.3
BeatDivisor: 4
GridSize: 32
TimelineZoom: 2.1

[Metadata]
Title:ASH
TitleUnicode:ASH
Artist:LiSA
ArtistUnicode:LiSA
Creator:SrSkyPlayer
Version:Trynna's Hard
Source:Fate/Apocrypha
Tags:trynna fate apocrypha jeanne d'arc kyuukai type-moon tv ver size
BeatmapID:1509608
BeatmapSetID:713576

[Difficulty]
HPDrainRate:5
CircleSize:4
OverallDifficulty:6
ApproachRate:8
SliderMultiplier:1.5
SliderTickRate:1

[Events]
//Background and Video events
0,0,"jeanne.jpeg",0,0
Video,0,"video.flv"
//Break Periods
//Storyboard Layer 0 (Background)
//Storyboard Layer 1 (Fail)
//Storyboard Layer 2 (Pass)
//Storyboard Layer 3 (Foreground)
//Storyboard Sound Samples

[TimingPoints]
61,312.5,4,2,1,20,1,0
61,-133.333333333333,4,2,1,20,0,0
2561,-200,4,2,1,20,0,0
5061,-133.333333333333,4,2,1,20,0,0
7561,-200,4,2,1,20,0,0
9904,-200,4,2,1,15,0,0
10061,-117.647058823529,4,2,1,40,0,0
26857,-117.647058823529,4,2,1,15,0,0
26936,-117.647058823529,4,2,1,50,0,0
27561,-107.52688172043,4,2,1,50,0,0
29982,-107.52688172043,4,2,1,15,0,0
30061,-107.52688172043,4,2,1,50,0,0
39982,-107.52688172043,4,2,1,15,0,0
40061,-107.52688172043,4,2,1,50,0,0
41154,-100,4,2,1,60,0,1
60686,-100,4,2,1,60,0,0
61154,-100,4,2,1,60,0,1
74904,-100,4,2,1,60,0,0
76154,-100,4,2,1,60,0,1
81311,-100,4,2,1,60,0,0
86154,-100,4,2,1,5,0,0

[Colours]
Combo1 : 160,49,251
Combo2 : 255,255,128
Combo3 : 152,198,254
Combo4 : 255,139,83

[HitObjects]
32,232,61,6,0,P|28:260|33:289,1,56.2500021457673,2|2,0:0|0:0,0:0:0:0:
108,260,373,2,0,P|112:232|108:204,1,56.2500021457673,2|2,0:0|0:0,0:0:0:0:
156,140,686,2,0,P|209:123|263:137,1,112.500004291535,2|0,0:0|0:0,0:0:0:0:
267,296,1311,2,0,P|226:258|210:204,1,112.500004291535,2|0,0:0|0:0,0:0:0:0:
346,121,1936,2,0,P|333:175|294:215,1,112.500004291535,2|0,0:0|0:0,0:0:0:0:
356,312,2561,6,0,B|432:288|428:344|506:312,1,150,2|0,0:0|0:0,0:0:0:0:
464,216,3498,2,0,B|444:160|444:160|464:66,1,150,2|0,0:0|0:0,0:0:0:0:
368,28,4436,2,0,L|328:28,2,37.5,2|2|0,0:0|0:0|0:0,0:0:0:0:
240,120,5061,6,0,L|184:116,1,56.2500021457673,2|2,0:0|0:0,0:0:0:0:
136,52,5373,2,0,L|80:56,1,56.2500021457673,2|2,0:0|0:0,0:0:0:0:
26,116,5686,2,0,P|11:171|23:228,1,112.500004291535,2|0,0:0|0:0,0:0:0:0:
179,224,6311,2,0,P|193:168|181:111,1,112.500004291535,2|0,0:0|0:0,0:0:0:0:
100,252,6936,2,0,L|100:368,1,112.500004291535,2|0,0:0|0:0,0:0:0:0:
200,328,7561,6,0,B|260:320|252:356|308:344,2,112.5,2|2|2,0:0|0:0|0:0,0:0:0:0:
256,192,8576,12,2,10061,0:0:0:0:
92,84,10686,6,0,B|160:72|152:112|216:100,1,127.50000243187,2|0,0:0|0:0,0:0:0:0:
279,39,11154,2,0,P|304:97|283:156,1,127.50000243187,2|0,0:0|0:0,0:0:0:0:
224,224,11623,2,0,L|224:296,1,63.7500012159348,2|0,0:0|0:0,0:0:0:0:
308,256,11936,2,0,P|368:272|428:252,1,127.50000243187,2|0,0:0|0:0,0:0:0:0:
496,192,12404,1,2,0:0:0:0:
416,128,12561,6,0,L|416:64,1,63.7500012159348,2|0,0:0|0:0,0:0:0:0:
336,24,12873,1,0,0:0:0:0:
256,60,13029,2,0,P|193:49|130:57,1,127.50000243187,2|0,0:0|0:0,0:0:0:0:
48,92,13498,2,0,P|42:59|48:28,1,63.7500012159348,2|0,0:0|0:0,0:0:0:0:
120,140,13811,2,0,L|116:272,1,127.50000243187,2|0,0:0|0:0,0:0:0:0:
120,272,14279,1,2,0:0:0:0:
280,356,14592,1,0,0:0:0:0:
328,280,14748,1,2,0:0:0:0:
374,357,14904,1,0,0:0:0:0:
456,296,15061,6,0,P|456:232|464:164,1,127.50000243187,2|0,0:0|0:0,0:0:0:0:
466,164,15529,1,2,0:0:0:0:
396,108,15686,2,0,P|360:112|332:111,1,63.7500012159348,2|0,0:0|0:0,0:0:0:0:
260,164,15998,2,0,P|224:160|196:160,1,63.7500012159348,2|0,0:0|0:0,0:0:0:0:
112,192,16311,2,0,P|102:127|104:64,1,127.50000243187,2|0,0:0|0:0,0:0:0:0:
106,60,16779,1,2,0:0:0:0:
24,228,17092,1,0,0:0:0:0:
88,288,17248,2,0,P|120:288|151:281,1,63.7500012159348,2|0,0:0|0:0,0:0:0:0:
228,344,17561,6,0,P|284:328|352:348,1,127.50000243187,2|0,0:0|0:0,0:0:0:0:
428,303,18029,1,2,0:0:0:0:
500,359,18186,2,0,P|520:300|496:242,1,127.50000243187,2|2,0:0|0:0,0:0:0:0:
340,164,18811,2,0,P|399:185|460:163,1,127.50000243187,2|0,0:0|0:0,0:0:0:0:
399,97,19279,1,2,0:0:0:0:
315,65,19436,2,0,L|315:1,1,63.7500012159348,2|0,0:0|0:0,0:0:0:0:
235,101,19748,1,0,0:0:0:0:
68,36,20061,6,0,P|107:86|109:148,1,127.50000243187,2|2,0:0|0:0,0:0:0:0:
84,244,20529,1,0,0:0:0:0:
148,308,20686,2,0,B|212:284|216:328|272:305,1,127.50000243187,2|0,0:0|0:0,0:0:0:0:
356,340,21154,2,0,P|368:276|356:212,1,127.50000243187,2|0,0:0|0:0,0:0:0:0:
324,132,21623,1,2,0:0:0:0:
456,12,21936,2,0,P|490:64|482:125,1,127.50000243187,2|0,0:0|0:0,0:0:0:0:
444,204,22404,1,0,0:0:0:0:
357,215,22561,6,0,P|323:219|293:215,1,63.7500012159348,0|0,0:0|0:0,0:0:0:0:
220,264,22873,1,2,0:0:0:0:
144,216,23029,2,0,L|148:88,1,127.50000243187,2|0,0:0|0:0,0:0:0:0:
68,52,23498,1,0,0:0:0:0:
56,232,23811,1,2,0:0:0:0:
28,312,23967,2,0,P|56:316|91:312,1,63.7500012159348,0|0,0:0|0:0,0:0:0:0:
168,356,24279,2,0,L|316:348,1,127.50000243187,2|0,0:0|0:0,0:0:0:0:
360,288,24748,2,0,P|354:254|356:224,1,63.7500012159348,2|0,0:0|0:0,0:0:0:0:
432,160,25061,6,0,P|371:177|311:160,1,127.50000243187,2|0,0:0|0:0,0:0:0:0:
256,88,25529,1,2,0:0:0:0:
308,16,25686,2,0,P|337:11|372:16,1,63.7500012159348,2|0,0:0|0:0,0:0:0:0:
256,88,25998,2,0,P|226:92|192:88,1,63.7500012159348,2|0,0:0|0:0,0:0:0:0:
96,24,26311,2,0,B|120:72|120:72|120:152,1,127.50000243187,0|2,0:0|0:0,0:0:0:0:
60,212,26779,2,0,P|120:236|184:212,1,127.50000243187,0|0,0:0|0:0,0:0:0:0:
248,272,27248,2,0,L|248:340,1,63.7500012159348,0|0,0:0|0:0,0:0:0:0:
352,372,27561,6,0,P|336:304|349:236,1,139.500004363632,8|0,0:0|0:0,0:0:0:0:
420,168,28029,2,0,P|435:100|422:32,1,139.500004363632,8|0,0:0|0:0,0:0:0:0:
328,60,28498,2,0,L|258:60,1,69.7500021818162,8|0,0:0|0:0,0:0:0:0:
176,116,28811,2,0,P|175:138|178:162,2,46.5000014545441,2|0|0,0:0|0:0|0:0,0:0:0:0:
140,88,29123,2,0,P|138:62|142:41,2,46.5000014545441,2|0|0,0:0|0:0|0:0,0:0:0:0:
104,116,29436,2,0,P|103:139|106:162,2,46.5000014545441,2|0|0,0:0|0:0|0:0,0:0:0:0:
68,88,29748,1,10,3:2:0:0:
32,268,30061,5,4,3:0:0:0:
116,240,30217,2,0,P|149:240|184:248,1,69.7500021818162,0|8,0:0|3:0,0:0:0:0:
256,304,30529,1,0,0:0:0:0:
324,240,30686,2,0,P|332:188|323:137,1,104.625003272724,8|0,0:0|0:0,0:0:0:0:
312,116,30998,2,0,L|236:112,1,69.7500021818162,8|0,3:0|0:0,0:0:0:0:
348,28,31311,2,0,L|278:31,1,69.7500021818162,2|0,3:2|0:0,0:0:0:0:
404,100,31623,1,8,3:0:0:0:
464,24,31779,1,0,3:0:0:0:
500,116,31936,1,2,3:2:0:0:
404,100,32092,1,0,0:0:0:0:
436,192,32248,2,0,L|436:264,1,69.7500021818162,8|0,3:0|0:0,0:0:0:0:
496,360,32561,5,4,3:0:0:0:
408,340,32717,2,0,P|372:336|338:340,1,69.7500021818162,0|8,0:0|3:0,0:0:0:0:
252,360,33029,1,0,0:0:0:0:
272,272,33186,2,0,L|268:160,1,104.625003272724,8|0,0:0|0:0,0:0:0:0:
255,143,33498,2,0,P|222:136|187:141,1,69.7500021818162,8|0,3:0|0:0,0:0:0:0:
112,88,33811,2,0,L|116:16,1,69.7500021818162,2|0,3:2|0:0,0:0:0:0:
40,140,34123,2,0,L|43:209,1,69.7500021818162,8|0,3:0|3:0,0:0:0:0:
104,279,34436,2,0,P|84:293|63:302,2,46.5000014545441,2|0|0,3:2|0:0|0:0,0:0:0:0:
132,260,34748,2,0,P|181:249|236:260,1,104.625003272724,8|0,3:0|0:0,0:0:0:0:
252,276,35061,5,4,3:0:0:0:
336,308,35217,2,0,L|332:238,1,69.7500021818162,0|8,0:0|3:0,0:0:0:0:
420,264,35529,1,0,0:0:0:0:
444,176,35686,2,0,P|441:125|413:82,1,104.625003272724,8|0,0:0|0:0,0:0:0:0:
392,64,35998,2,0,L|316:60,1,69.7500021818162,8|0,3:0|0:0,0:0:0:0:
244,12,36311,2,0,L|174:15,1,69.7500021818162,2|0,3:2|0:0,0:0:0:0:
112,88,36623,2,0,L|40:84,1,69.7500021818162,8|0,3:0|0:0,0:0:0:0:
172,156,36936,2,0,P|181:205|172:260,1,104.625003272724,2|0,3:2|0:0,0:0:0:0:
160,280,37248,1,8,0:0:0:0:
248,324,37404,1,0,0:0:0:0:
336,280,37561,6,0,L|388:276,2,46.5000014545441,2|0|0,0:0|0:0|0:0,0:0:0:0:
312,244,37873,2,0,L|260:240,2,46.5000014545441,2|0|0,0:0|0:0|0:0,0:0:0:0:
336,208,38186,2,0,L|345:64,1,139.500004363632,8|0,0:0|0:0,0:0:0:0:
152,100,38811,2,0,B|88:76|80:124|15:97,1,139.500004363632,4|0,0:0|0:0,0:0:0:0:
196,24,39436,2,0,P|232:60|228:144,1,139.500004363632,10|0,0:0|0:0,0:0:0:0:
152,324,40061,5,2,0:0:0:0:
200,264,40217,1,2,0:0:0:0:
244,328,40373,2,0,P|278:331|313:328,1,69.7500021818162,0|2,0:0|0:0,0:0:0:0:
408,304,40686,1,8,0:0:0:0:
408,304,40764,1,0,0:0:0:0:
408,304,40842,1,8,0:0:0:0:
340,232,40998,1,8,0:0:0:0:
436,176,41154,6,0,P|427:101|435:27,1,150,4|2,0:0|0:0,0:0:0:0:
340,56,41623,2,0,P|301:55|265:48,1,75,10|0,0:0|0:0,0:0:0:0:
176,92,41936,2,0,P|108:63|41:93,1,150,2|8,0:0|0:0,0:0:0:0:
68,184,42404,6,0,L|143:184,1,75,2|0,0:0|0:0,0:0:0:0:
204,260,42717,2,0,B|242:246|278:265|273:280|306:298|350:284,1,150,2|0,0:0|0:0,0:0:0:0:
436,320,43186,1,2,0:0:0:0:
416,224,43342,1,0,0:0:0:0:
508,252,43498,1,8,0:0:0:0:
400,208,43654,6,0,P|384:136|400:56,1,150,4|0,0:0|0:0,0:0:0:0:
312,12,44123,1,10,0:0:0:0:
224,56,44279,2,0,L|224:206,1,150,2|0,0:0|0:0,0:0:0:0:
128,184,44748,1,8,0:0:0:0:
156,276,44904,6,0,P|221:306|292:276,1,150,2|0,0:0|0:0,0:0:0:0:
380,312,45373,2,0,P|376:276|380:237,1,75,10|0,0:0|0:0,0:0:0:0:
472,276,45686,1,0,0:0:0:0:
476,180,45842,2,0,L|472:100,1,75,2|8,0:0|0:0,0:0:0:0:
360,88,46154,6,0,P|287:108|215:88,1,150,4|0,0:0|0:0,0:0:0:0:
136,32,46623,2,0,P|100:24|61:32,1,75,10|0,0:0|0:0,0:0:0:0:
100,120,46936,2,0,L|100:272,1,150,2|10,0:0|0:0,0:0:0:0:
32,340,47404,6,0,P|96:368|168:340,1,150,2|0,0:0|0:0,0:0:0:0:
244,280,47873,2,0,L|320:280,1,75,10|0,0:0|0:0,0:0:0:0:
408,324,48186,1,2,0:0:0:0:
400,228,48342,1,2,0:0:0:0:
488,264,48498,1,10,0:0:0:0:
464,152,48654,6,0,P|393:131|326:161,1,150,6|0,0:0|0:0,0:0:0:0:
240,116,49123,1,10,0:0:0:0:
168,180,49279,2,0,L|172:336,1,150,2|2,0:0|0:0,0:0:0:0:
172,344,49670,1,0,0:0:0:0:
172,360,49748,1,10,0:0:0:0:
76,368,49904,1,2,0:0:0:0:
16,292,50061,6,0,P|11:254|16:216,1,75,0|2,0:0|0:0,0:0:0:0:
88,152,50373,2,0,P|92:114|88:76,1,75,10|2,0:0|0:0,0:0:0:0:
172,24,50686,2,0,L|246:20,1,75,2|2,0:0|0:0,0:0:0:0:
216,112,50998,1,8,0:0:0:0:
336,88,51154,6,0,P|356:159|336:230,1,150,4|0,0:0|0:0,0:0:0:0:
268,300,51623,2,0,L|192:296,1,75,10|0,0:0|0:0,0:0:0:0:
108,340,51936,1,2,0:0:0:0:
88,244,52092,1,2,0:0:0:0:
8,300,52248,1,10,0:0:0:0:
104,228,52404,6,0,P|108:152|100:76,1,150,2|0,0:0|0:0,0:0:0:0:
184,28,52873,2,0,L|260:36,1,75,10|0,0:0|0:0,0:0:0:0:
332,100,53186,2,0,P|368:72|472:64,1,150,2|10,0:0|0:0,0:0:0:0:
512,152,53654,6,0,L|500:316,1,150,2|0,0:0|0:0,0:0:0:0:
412,344,54123,2,0,P|374:347|339:336,1,75,10|0,0:0|0:0,0:0:0:0:
292,252,54436,2,0,P|327:240|364:244,1,75,8|8,0:0|0:0,0:0:0:0:
240,332,54748,1,8,0:0:0:0:
164,240,54904,6,0,L|172:80,1,150,4|2,0:0|0:0,0:0:0:0:
72,100,55373,1,10,0:0:0:0:
128,20,55529,2,0,P|162:11|202:13,1,75,2|0,0:0|0:0,0:0:0:0:
276,76,55842,2,0,P|310:84|350:82,1,75,2|10,0:0|0:0,0:0:0:0:
436,40,56154,6,0,P|389:97|385:171,1,150,4|0,0:0|0:0,0:0:0:0:
436,256,56623,2,0,L|436:332,1,75,8|0,0:0|0:0,0:0:0:0:
340,332,56936,2,0,L|340:256,1,75,2|2,0:0|0:0,0:0:0:0:
256,208,57248,1,10,0:0:0:0:
168,288,57404,6,0,B|104:308|104:308|24:284,1,150,2|0,0:0|0:0,0:0:0:0:
68,196,57873,2,0,L|68:121,1,75,10|0,0:0|0:0,0:0:0:0:
6,44,58186,2,0,P|37:25|74:24,1,75,2|0,0:0|0:0,0:0:0:0:
160,72,58498,1,8,0:0:0:0:
260,16,58654,6,0,L|412:16,1,150,4|0,0:0|0:0,0:0:0:0:
452,104,59123,2,0,L|444:180,1,75,10|0,0:0|0:0,0:0:0:0:
512,248,59436,2,0,P|443:220|373:241,1,150,10|8,0:0|0:0,0:0:0:0:
376,340,59904,1,2,0:0:0:0:
280,296,60061,6,0,B|228:276|228:276|130:292,1,150,2|10,0:0|0:0,0:0:0:0:
44,320,60529,1,0,0:0:0:0:
4,232,60686,1,8,0:0:0:0:
52,148,60842,2,0,P|56:112|48:73,1,75,8|8,0:0|0:0,0:0:0:0:
148,176,61154,6,0,L|304:172,1,150,4|0,0:0|0:0,0:0:0:0:
392,204,61623,2,0,P|386:166|388:128,1,75,8|0,0:0|0:0,0:0:0:0:
480,164,61936,2,0,P|485:201|484:238,1,75,8|0,0:0|0:0,0:0:0:0:
408,300,62248,1,8,0:0:0:0:
312,276,62404,6,0,L|236:280,1,75,0|8,0:0|0:0,0:0:0:0:
148,321,62717,2,0,B|131:282|143:246|155:246|167:214|147:174,1,150,0|0,0:0|0:0,0:0:0:0:
108,88,63186,1,8,0:0:0:0:
204,96,63342,1,8,0:0:0:0:
160,8,63498,1,8,0:0:0:0:
220,108,63654,6,0,L|372:100,1,150,4|0,0:0|0:0,0:0:0:0:
451,46,64123,1,10,0:0:0:0:
512,120,64279,2,0,P|516:193|504:272,1,150,2|0,0:0|0:0,0:0:0:0:
444,344,64748,1,8,0:0:0:0:
364,292,64904,6,0,B|308:272|308:272|217:291,1,150,2|0,0:0|0:0,0:0:0:0:
140,348,65373,2,0,P|103:340|66:342,1,75,10|0,0:0|0:0,0:0:0:0:
4,264,65686,1,0,0:0:0:0:
56,180,65842,2,0,L|132:184,1,75,2|8,0:0|0:0,0:0:0:0:
212,104,66154,6,0,L|364:96,1,150,4|0,0:0|0:0,0:0:0:0:
408,8,66623,2,0,L|332:4,1,75,10|0,0:0|0:0,0:0:0:0:
472,84,66936,2,0,P|479:158|468:232,1,150,2|8,0:0|0:0,0:0:0:0:
396,292,67404,6,0,P|326:268|257:294,1,150,2|0,0:0|0:0,0:0:0:0:
168,332,67873,2,0,L|168:257,1,75,10|0,0:0|0:0,0:0:0:0:
96,192,68186,1,2,0:0:0:0:
168,128,68342,1,2,0:0:0:0:
88,76,68498,1,10,0:0:0:0:
192,128,68654,6,0,P|246:137|342:125,1,150,6|0,0:0|0:0,0:0:0:0:
424,76,69123,1,10,0:0:0:0:
484,152,69279,2,0,L|484:302,1,150,2|0,0:0|0:0,0:0:0:0:
408,364,69748,1,10,0:0:0:0:
316,304,69904,6,0,L|203:304,1,112.5,2|0,0:0|0:0,0:0:0:0:
176,304,70217,1,2,0:0:0:0:
112,232,70373,1,10,0:0:0:0:
172,156,70529,2,0,L|172:116,2,37.5,10|8|8,0:0|0:0|0:0,0:0:0:0:
240,224,70842,2,0,L|320:224,1,75,8|8,0:0|0:0,0:0:0:0:
412,164,71154,6,0,P|425:86|412:13,1,150,4|0,0:0|0:0,0:0:0:0:
320,48,71623,2,0,P|283:44|246:48,1,75,10|0,0:0|0:0,0:0:0:0:
152,12,71936,1,2,0:0:0:0:
80,76,72092,1,2,0:0:0:0:
8,12,72248,1,10,0:0:0:0:
80,104,72404,6,0,P|92:178|80:254,1,150,2|0,0:0|0:0,0:0:0:0:
44,340,72873,2,0,P|80:348|119:340,1,75,10|0,0:0|0:0,0:0:0:0:
208,304,73186,2,0,P|279:284|351:304,1,150,2|10,0:0|0:0,0:0:0:0:
436,352,73654,6,0,L|436:202,1,150,2|0,0:0|0:0,0:0:0:0:
388,116,74123,2,0,L|312:112,1,75,10|0,0:0|0:0,0:0:0:0:
240,48,74436,1,8,0:0:0:0:
192,132,74592,1,8,0:0:0:0:
192,132,74670,1,8,0:0:0:0:
192,132,74748,1,8,0:0:0:0:
84,84,74904,5,4,0:0:0:0:
88,236,75217,1,2,0:0:0:0:
256,344,75529,1,2,0:0:0:0:
262,186,75842,1,2,0:0:0:0:
392,44,76154,6,0,P|424:108|400:180,1,150,4|0,0:0|0:0,0:0:0:0:
328,116,76623,2,0,L|253:108,1,75,10|0,0:0|0:0,0:0:0:0:
172,52,76936,2,0,L|92:56,2,75,2|2|10,0:0|0:0|0:0,0:0:0:0:
140,144,77404,6,0,L|144:300,1,150,0|0,0:0|0:0,0:0:0:0:
60,340,77873,2,0,P|32:315|17:280,1,75,10|0,0:0|0:0,0:0:0:0:
136,376,78186,2,0,P|176:372|216:372,1,75,2|0,0:0|0:0,0:0:0:0:
288,316,78498,1,8,0:0:0:0:
388,368,78654,6,0,P|401:312|384:216,1,150,4|0,0:0|0:0,0:0:0:0:
416,128,79123,2,0,L|336:136,1,75,10|0,0:0|0:0,0:0:0:0:
252,92,79436,2,0,P|200:76|96:76,1,150,10|8,0:0|0:0,0:0:0:0:
32,140,79904,1,2,0:0:0:0:
92,216,80061,6,0,L|92:372,1,150,2|8,0:0|0:0,0:0:0:0:
184,336,80529,1,8,0:0:0:0:
280,364,80686,1,8,0:0:0:0:
280,364,80842,1,8,0:0:0:0:
248,272,80998,1,8,0:0:0:0:
248,272,81154,1,8,0:0:0:0:
344,192,81311,5,4,0:0:0:0:
256,192,81389,12,0,86154,0:0:0:0:
