osu file format v14

[General]
AudioFilename: audio.mp3
AudioLeadIn: 0
PreviewTime: 40842
Countdown: 0
SampleSet: Soft
StackLeniency: 0.7
Mode: 0
LetterboxInBreaks: 0
WidescreenStoryboard: 1

[Editor]
Bookmarks: 61,10686,27561,29748,37561,41154,60686,61154,74904,76154,81311,86154
DistanceSpacing: 0.9
BeatDivisor: 4
GridSize: 16
TimelineZoom: 1.7

[Metadata]
Title:ASH
TitleUnicode:ASH
Artist:LiSA
ArtistUnicode:LiSA
Creator:SrSkyPlayer
Version:Normal
Source:Fate/Apocrypha
Tags:trynna fate apocrypha jeanne d'arc kyuukai type-moon tv ver size
BeatmapID:1513129
BeatmapSetID:713576

[Difficulty]
HPDrainRate:4
CircleSize:3.5
OverallDifficulty:4
ApproachRate:5
SliderMultiplier:0.999999999999999
SliderTickRate:1

[Events]
//Background and Video events
0,0,"jeanne.jpeg",0,0
Video,0,"video.flv"
//Break Periods
//Storyboard Layer 0 (Background)
//Storyboard Layer 1 (Fail)
//Storyboard Layer 2 (Pass)
//Storyboard Layer 3 (Foreground)
//Storyboard Sound Samples

[TimingPoints]
61,312.5,4,2,1,20,1,0
61,-133.333333333333,4,2,1,20,0,0
8029,-133.333333333333,4,2,1,30,0,0
8498,-133.333333333333,4,2,1,40,0,0
27561,-133.333333333333,4,2,1,50,0,0
41154,-100,4,2,1,60,0,1
60686,-100,4,2,1,60,0,0
61154,-100,4,2,1,60,0,1
74904,-100,4,2,1,60,0,0
76154,-100,4,2,1,60,0,1
81311,-100,4,2,1,60,0,0
86154,-100,4,2,1,5,0,0

[Colours]
Combo1 : 160,49,251
Combo2 : 255,255,128
Combo3 : 152,198,254
Combo4 : 255,139,83

[HitObjects]
213,184,61,6,0,P|275:154|354:176,1,150,2|2,0:0|0:0,0:0:0:0:
390,254,998,1,0,0:0:0:0:
447,184,1311,2,0,P|454:152|441:101,2,75.000002861023,2|0|2,0:0|0:0|0:0,0:0:0:0:
483,266,2248,1,0,0:0:0:0:
425,335,2561,6,0,B|318:388|318:280|210:334,1,225.000008583069,2|2,0:0|0:0,0:0:0:0:
55,243,4123,2,0,P|49:206|57:169,1,75.000002861023,0|2,0:0|0:0,0:0:0:0:
82,132,4592,2,0,L|130:128,1,37.5000014305115,2|0,0:0|0:0,0:0:0:0:
163,50,5061,6,0,L|317:39,1,150.000005722046,2|2,0:0|0:0,0:0:0:0:
397,8,5998,1,0,0:0:0:0:
459,72,6311,2,0,P|467:103|455:155,2,75.000002861023,2|0|2,0:0|0:0|0:0,0:0:0:0:
377,110,7248,1,0,0:0:0:0:
386,199,7561,6,0,L|396:323,1,112.500004291534,2|2,0:0|0:0,0:0:0:0:
256,192,8498,12,2,10061,0:0:0:0:
36,102,10686,6,0,P|85:77|151:94,2,112.500004291534,2|2|2,0:0|0:0|0:0,0:0:0:0:
98,167,11936,2,0,L|102:257,1,75.000002861023,2|0,0:0|0:0,0:0:0:0:
22,285,12561,2,0,B|110:240|110:330|199:286,1,187.500007152557,2|0,0:0|0:0,0:0:0:0:
329,323,13811,2,0,P|422:349|472:312,1,150.000005722046,2|2,0:0|0:0,0:0:0:0:
490,239,14748,2,0,L|488:200,1,37.5000014305115,2|0,0:0|0:0,0:0:0:0:
469,160,15061,6,0,B|451:110|475:71|475:71|441:69|411:44,1,150.000005722046,2|2,0:0|0:0,0:0:0:0:
336,21,15998,1,2,0:0:0:0:
254,58,16311,2,0,B|165:101|165:12|76:56,1,187.500007152557,2|0,0:0|0:0,0:0:0:0:
33,71,17248,1,2,0:0:0:0:
23,161,17561,6,0,P|18:201|30:241,2,75.000002861023,2|0|2,0:0|0:0|0:0,0:0:0:0:
106,194,18498,1,2,0:0:0:0:
190,228,18811,2,0,B|249:259|305:228|305:228|330:265|362:269,1,187.500007152557,2|0,0:0|0:0,0:0:0:0:
400,279,19748,1,0,0:0:0:0:
466,218,20061,2,0,P|473:184|462:138,1,75.000002861023,2|2,0:0|0:0,0:0:0:0:
403,79,20686,6,0,P|452:53|506:63,2,112.500004291534,2|2|2,0:0|0:0|0:0,0:0:0:0:
323,120,21936,2,0,L|247:117,1,75.000002861023,2|0,0:0|0:0,0:0:0:0:
193,45,22561,2,0,B|105:0|105:90|14:45,1,187.500007152557,0|0,0:0|0:0,0:0:0:0:
13,180,23811,2,0,B|35:226|8:264|8:264|26:295|17:323,1,150.000005722046,2|2,0:0|0:0,0:0:0:0:
97,366,24748,2,0,L|147:362,1,37.5000014305115,2|0,0:0|0:0,0:0:0:0:
166,330,25061,6,0,P|233:302|308:338,1,150.000005722046,2|2,0:0|0:0,0:0:0:0:
385,360,25998,1,2,0:0:0:0:
463,314,26311,2,0,L|471:233,1,75.000002861023,0|2,0:0|0:0,0:0:0:0:
502,155,26936,1,2,0:0:0:0:
364,38,27561,6,0,P|332:58|311:89,1,75.000002861023,8|0,0:0|0:0,0:0:0:0:
279,120,28029,2,0,L|271:194,1,75.000002861023,8|0,0:0|0:0,0:0:0:0:
268,239,28498,1,8,0:0:0:0:
195,292,28811,2,0,B|126:247|53:290|53:290|50:249|20:219,1,225.000008583069,2|10,0:0|3:2,0:0:0:0:
102,178,30061,6,0,L|104:134,1,37.5000014305115,4|0,3:0|0:0,0:0:0:0:
75,55,30529,2,0,L|76:17,1,37.5000014305115,0|8,0:0|0:0,0:0:0:0:
166,28,30998,2,0,L|214:26,1,37.5000014305115,8|0,3:0|0:0,0:0:0:0:
241,50,31311,2,0,L|325:44,1,75.000002861023,2|8,3:2|3:0,0:0:0:0:
402,18,31936,1,2,3:2:0:0:
462,84,32248,1,8,3:0:0:0:
427,167,32561,6,0,L|429:218,1,37.5000014305115,4|0,3:0|0:0,0:0:0:0:
452,291,33029,2,0,L|454:342,1,37.5000014305115,0|8,0:0|0:0,0:0:0:0:
365,349,33498,2,0,L|310:345,1,37.5000014305115,8|0,3:0|0:0,0:0:0:0:
286,327,33811,2,0,P|252:320|206:331,1,75.000002861023,2|8,3:2|3:0,0:0:0:0:
129,361,34436,1,2,3:2:0:0:
142,271,34748,1,8,3:0:0:0:
91,196,35061,6,0,L|84:154,1,37.5000014305115,4|0,3:0|0:0,0:0:0:0:
110,73,35529,2,0,L|103:31,1,37.5000014305115,0|8,0:0|0:0,0:0:0:0:
192,52,35998,2,0,L|246:49,1,37.5000014305115,8|0,3:0|0:0,0:0:0:0:
264,78,36311,2,0,L|318:75,1,37.5000014305115,2|0,3:2|0:0,0:0:0:0:
346,75,36623,2,0,P|353:38|345:1,2,75.000002861023,8|2|8,3:0|3:2|0:0,0:0:0:0:
422,123,37561,6,0,P|394:191|418:260,2,150,2|8|4,0:0|0:0|0:0,0:0:0:0:
257,197,39436,1,10,0:0:0:0:
92,127,40061,2,0,P|119:195|95:264,1,150,2|8,0:0|0:0,0:0:0:0:
59,292,40842,2,0,P|57:323|59:342,1,37.5000014305115,8|8,0:0|0:0,0:0:0:0:
68,373,41154,6,0,L|225:367,1,150,4|10,0:0|0:0,0:0:0:0:
279,301,41936,2,0,L|378:297,1,99.9999999999999,2|8,0:0|0:0,0:0:0:0:
419,277,42404,1,2,0:0:0:0:
471,203,42717,1,2,0:0:0:0:
471,203,42873,2,0,P|484:157|469:106,1,99.9999999999999,8|2,0:0|0:0,0:0:0:0:
403,46,43498,1,8,0:0:0:0:
403,46,43654,6,0,P|334:72|265:48,1,150,4|10,0:0|0:0,0:0:0:0:
220,55,44279,2,0,B|240:106|216:152|216:152|227:180|223:211,1,150,2|8,0:0|0:0,0:0:0:0:
183,220,44904,1,2,0:0:0:0:
97,255,45217,1,0,0:0:0:0:
97,255,45373,2,0,P|154:310|230:301,1,150,10|2,0:0|0:0,0:0:0:0:
297,259,46154,6,0,P|363:229|433:260,1,150,4|10,0:0|0:0,0:0:0:0:
512,218,46936,2,0,P|520:267|502:313,1,99.9999999999999,2|10,0:0|0:0,0:0:0:0:
471,346,47404,1,2,0:0:0:0:
381,358,47717,1,0,0:0:0:0:
381,358,47873,2,0,B|309:322|309:394|238:359,1,150,10|2,0:0|0:0,0:0:0:0:
201,276,48654,6,0,B|129:241|129:312|58:277,1,150,6|10,0:0|0:0,0:0:0:0:
29,242,49279,2,0,P|2:174|33:108,1,150,2|10,0:0|0:0,0:0:0:0:
71,84,49904,1,2,0:0:0:0:
152,122,50217,1,2,0:0:0:0:
152,122,50373,2,0,B|177:125|200:114|200:114|246:138|297:118,1,150,10|2,0:0|0:0,0:0:0:0:
358,51,51154,6,0,P|425:22|492:52,1,150,4|10,0:0|0:0,0:0:0:0:
463,137,51936,2,0,P|486:141|511:140,2,50,2|2|10,0:0|0:0|0:0,0:0:0:0:
427,165,52404,2,0,L|418:264,1,99.9999999999999,2|0,0:0|0:0,0:0:0:0:
414,309,52873,1,10,0:0:0:0:
327,285,53186,2,0,P|279:271|232:285,1,99.9999999999999,2|10,0:0|0:0,0:0:0:0:
196,313,53654,6,0,P|129:342|59:311,1,150,2|10,0:0|0:0,0:0:0:0:
15,235,54436,2,0,P|2:187|18:140,1,99.9999999999999,8|8,0:0|0:0,0:0:0:0:
54,113,54904,2,0,L|162:108,1,99.9999999999999,4|2,0:0|0:0,0:0:0:0:
194,89,55373,1,10,0:0:0:0:
194,89,55529,1,2,0:0:0:0:
253,21,55842,1,2,0:0:0:0:
325,74,56154,6,0,L|486:67,1,150,4|8,0:0|0:0,0:0:0:0:
506,152,56936,2,0,P|509:176|508:201,2,50,2|2|10,0:0|0:0|0:0,0:0:0:0:
461,156,57404,2,0,L|361:160,1,99.9999999999999,2|0,0:0|0:0,0:0:0:0:
318,176,57873,1,10,0:0:0:0:
245,122,58186,2,0,P|197:107|150:121,1,99.9999999999999,2|8,0:0|0:0,0:0:0:0:
111,142,58654,6,0,B|131:193|107:239|107:239|118:267|114:298,1,150,4|10,0:0|0:0,0:0:0:0:
189,336,59436,2,0,P|241:348|286:336,1,99.9999999999999,10|2,0:0|0:0,0:0:0:0:
321,307,59904,2,0,L|470:299,1,150,4|8,0:0|0:0,0:0:0:0:
498,167,60842,2,0,P|503:200|501:216,1,50,8|8,0:0|0:0,0:0:0:0:
456,219,61154,6,0,L|300:227,1,150,4|8,0:0|0:0,0:0:0:0:
233,172,61936,2,0,P|221:130|239:71,1,99.9999999999999,8|8,0:0|0:0,0:0:0:0:
259,38,62404,1,0,0:0:0:0:
169,26,62717,1,0,0:0:0:0:
169,26,62873,2,0,L|69:30,1,99.9999999999999,8|8,0:0|0:0,0:0:0:0:
24,108,63498,1,8,0:0:0:0:
24,108,63654,6,0,B|-11:180|60:180|25:251,1,150,4|10,0:0|0:0,0:0:0:0:
50,288,64279,2,0,B|101:268|147:292|147:292|175:281|206:285,1,150,2|8,0:0|0:0,0:0:0:0:
237,301,64904,1,2,0:0:0:0:
286,376,65217,1,0,0:0:0:0:
286,376,65373,2,0,P|323:313|304:243,1,150,10|2,0:0|0:0,0:0:0:0:
367,174,66154,6,0,P|434:202|500:172,1,150,4|10,0:0|0:0,0:0:0:0:
433,110,66936,2,0,L|428:9,1,99.9999999999999,2|8,0:0|0:0,0:0:0:0:
383,6,67404,1,2,0:0:0:0:
303,48,67717,1,0,0:0:0:0:
303,48,67873,2,0,P|234:73|169:41,1,150,10|2,0:0|0:0,0:0:0:0:
133,123,68654,6,0,P|67:90|0:116,1,150,6|10,0:0|0:0,0:0:0:0:
1,161,69279,2,0,B|21:212|-3:258|-3:258|8:286|4:317,1,150,2|10,0:0|0:0,0:0:0:0:
15,350,69904,1,2,0:0:0:0:
93,309,70217,1,2,0:0:0:0:
93,309,70373,2,0,P|159:278|226:307,1,150,10|8,0:0|0:0,0:0:0:0:
307,345,71154,6,0,P|373:376|440:347,1,150,4|10,0:0|0:0,0:0:0:0:
462,257,71936,2,0,P|486:253|511:255,2,50,2|2|10,0:0|0:0|0:0,0:0:0:0:
431,225,72404,2,0,L|441:112,1,99.9999999999999,2|0,0:0|0:0,0:0:0:0:
414,88,72873,1,10,0:0:0:0:
326,110,73186,2,0,L|317:209,1,99.9999999999999,2|10,0:0|0:0,0:0:0:0:
274,224,73654,6,0,B|202:189|202:260|131:225,1,150,2|10,0:0|0:0,0:0:0:0:
50,183,74436,2,0,P|37:135|53:88,1,99.9999999999999,8|8,0:0|0:0,0:0:0:0:
85,57,74904,1,4,0:0:0:0:
169,26,75217,1,2,0:0:0:0:
151,115,75529,1,2,0:0:0:0:
236,86,75842,1,2,0:0:0:0:
318,50,76154,6,0,L|477:43,1,150,4|10,0:0|0:0,0:0:0:0:
457,132,76936,2,0,L|506:130,2,50,2|2|10,0:0|0:0|0:0,0:0:0:0:
426,165,77404,2,0,P|414:207|432:266,1,99.9999999999999,0|0,0:0|0:0,0:0:0:0:
450,299,77873,1,10,0:0:0:0:
374,349,78186,2,0,P|326:363|278:351,1,99.9999999999999,2|8,0:0|0:0,0:0:0:0:
242,325,78654,6,0,B|222:274|246:228|246:228|235:200|239:169,1,150,4|10,0:0|0:0,0:0:0:0:
179,110,79436,2,0,P|114:91|69:108,1,99.9999999999999,10|2,0:0|0:0,0:0:0:0:
49,126,79904,1,4,0:0:0:0:
23,171,80061,2,0,L|29:280,1,99.9999999999999,2|8,0:0|0:0,0:0:0:0:
75,347,80686,2,0,L|124:344,1,50,8|8,0:0|0:0,0:0:0:0:
151,308,80998,2,0,L|200:305,1,50,8|8,0:0|0:0,0:0:0:0:
242,325,81311,5,4,0:0:0:0:
256,192,81623,12,0,86154,0:0:0:0:
