osu file format v14

[General]
AudioFilename: audio.mp3
AudioLeadIn: 0
PreviewTime: 40842
Countdown: 0
SampleSet: Soft
StackLeniency: 0.7
Mode: 0
LetterboxInBreaks: 0
WidescreenStoryboard: 1

[Editor]
DistanceSpacing: 1.4
BeatDivisor: 4
GridSize: 4
TimelineZoom: 2.1

[Metadata]
Title:ASH
TitleUnicode:ASH
Artist:LiSA
ArtistUnicode:LiSA
Creator:SrSkyPlayer
Version:Kyuukai's Advanced
Source:Fate/Apocrypha
Tags:trynna fate apocrypha jeanne d'arc kyuukai type-moon tv ver size
BeatmapID:1523889
BeatmapSetID:713576

[Difficulty]
HPDrainRate:4
CircleSize:3.5
OverallDifficulty:5.5
ApproachRate:6.5
SliderMultiplier:1.3
SliderTickRate:1

[Events]
//Background and Video events
0,0,"jeanne.jpeg",0,0
Video,0,"video.flv"
//Break Periods
//Storyboard Layer 0 (Background)
//Storyboard Layer 1 (Fail)
//Storyboard Layer 2 (Pass)
//Storyboard Layer 3 (Foreground)
//Storyboard Sound Samples

[TimingPoints]
61,312.5,4,2,1,20,1,0
61,-133.333333333333,4,2,1,20,0,0
2561,-200,4,2,1,20,0,0
5061,-133.333333333333,4,2,1,20,0,0
10061,-117.647058823529,4,2,1,40,0,0
27561,-107.52688172043,4,2,1,50,0,0
41154,-100,4,2,1,60,0,1
60686,-100,4,2,1,60,0,0
61154,-100,4,2,1,60,0,1
74904,-100,4,2,1,60,0,0
76154,-100,4,2,1,60,0,1
81311,-100,4,2,1,60,0,0
86154,-100,4,2,1,5,0,0

[Colours]
Combo1 : 160,49,251
Combo2 : 255,255,128
Combo3 : 152,198,254
Combo4 : 255,139,83

[HitObjects]
104,40,61,6,0,L|55:36,2,48.750001859665,2|2|2,0:0|0:0|0:0,0:0:0:0:
256,84,686,2,0,L|372:76,1,97.50000371933,2|0,0:0|0:0,0:0:0:0:
396,228,1311,2,0,L|493:234,2,97.50000371933,2|0|2,0:0|0:0|0:0,0:0:0:0:
244,264,2248,1,0,0:0:0:0:
244,264,2561,6,0,B|224:156|288:192|256:64,2,195,2|2|2,0:0|0:0|0:0,0:0:0:0:
256,316,4592,1,2,0:0:0:0:
256,316,4748,1,0,0:0:0:0:
104,284,5061,6,0,L|107:332,2,48.750001859665,2|2|2,0:0|0:0|0:0,0:0:0:0:
52,136,5686,2,0,L|156:128,1,97.50000371933,2|0,0:0|0:0,0:0:0:0:
296,76,6311,2,0,P|284:120|288:173,1,97.50000371933,2|0,0:0|0:0,0:0:0:0:
412,268,6936,2,0,P|424:224|419:170,1,97.50000371933,2|0,0:0|0:0,0:0:0:0:
384,76,7561,5,2,0:0:0:0:
256,168,8029,1,2,0:0:0:0:
128,76,8498,1,2,0:0:0:0:
256,192,8654,12,2,10061,0:0:0:0:
480,308,10686,6,0,P|424:296|352:320,1,110.50000210762,2|0,0:0|0:0,0:0:0:0:
300,356,11154,2,0,P|244:368|172:344,1,110.50000210762,2|0,0:0|0:0,0:0:0:0:
112,316,11623,2,0,L|104:188,1,110.50000210762,2|2,0:0|0:0,0:0:0:0:
240,92,12248,1,0,0:0:0:0:
256,268,12561,6,0,P|316:280|376:260,1,110.50000210762,2|0,0:0|0:0,0:0:0:0:
436,320,13029,2,0,P|452:260|428:200,1,110.50000210762,2|0,0:0|0:0,0:0:0:0:
400,136,13498,1,2,0:0:0:0:
400,136,13811,2,0,B|264:168|320:84|164:124,1,221.000004215241,2|2,0:0|0:0,0:0:0:0:
24,48,14748,1,2,0:0:0:0:
4,224,15061,6,0,P|60:208|148:272,1,165.75000316143,2|2,0:0|0:0,0:0:0:0:
176,348,15686,2,0,P|208:356|248:348,1,55.2500010538101,2|0,0:0|0:0,0:0:0:0:
256,268,15998,1,2,0:0:0:0:
256,268,16311,2,0,L|264:140,1,110.50000210762,2|0,0:0|0:0,0:0:0:0:
268,68,16779,1,2,0:0:0:0:
444,72,17092,1,0,0:0:0:0:
444,72,17248,1,2,0:0:0:0:
448,248,17561,6,0,P|384:236|324:252,1,110.50000210762,2|0,0:0|0:0,0:0:0:0:
168,288,18186,2,0,P|104:300|44:284,1,110.50000210762,2|2,0:0|0:0,0:0:0:0:
56,116,18811,2,0,P|120:104|180:120,1,110.50000210762,2|0,0:0|0:0,0:0:0:0:
244,152,19279,2,0,P|308:164|368:148,1,110.50000210762,2|0,0:0|0:0,0:0:0:0:
436,128,19748,1,2,0:0:0:0:
496,300,20061,5,2,0:0:0:0:
496,300,20217,2,0,P|432:288|372:304,1,110.50000210762,0|0,0:0|0:0,0:0:0:0:
316,348,20686,2,0,P|252:360|192:344,1,110.50000210762,2|0,0:0|0:0,0:0:0:0:
124,376,21154,2,0,L|112:248,1,110.50000210762,2|0,0:0|0:0,0:0:0:0:
40,216,21623,1,2,0:0:0:0:
136,68,21936,1,2,0:0:0:0:
196,232,22248,2,0,P|220:236|256:228,1,55.2500010538101
316,172,22561,6,0,L|436:176,1,110.50000210762,0|2,0:0|0:0,0:0:0:0:
440,264,23029,2,0,L|320:268,1,110.50000210762,2|0,0:0|0:0,0:0:0:0:
250,230,23498,1,0,0:0:0:0:
250,230,23811,2,0,P|142:207|35:230,1,221.000004215241,2|2,0:0|0:0,0:0:0:0:
0,56,24748,1,0,0:0:0:0:
168,12,25061,6,0,L|280:16,1,110.50000210762,2|0,0:0|0:0,0:0:0:0:
332,84,25529,1,2,0:0:0:0:
332,84,25686,2,0,L|408:80,1,55.2500010538101,2|0,0:0|0:0,0:0:0:0:
412,164,25998,1,2,0:0:0:0:
412,164,26311,2,0,P|400:216|420:280,2,110.50000210762,0|2|8,0:0|0:0|0:0,0:0:0:0:
328,8,27248,1,0,0:0:0:0:
328,8,27561,6,0,P|260:28|200:28,1,120.900003781815,8|0,0:0|0:0,0:0:0:0:
120,16,28029,2,0,P|100:84|100:144,1,120.900003781815,8|0,0:0|0:0,0:0:0:0:
36,200,28498,2,0,P|52:268|82:320,1,120.900003781815,8|2,0:0|0:0,0:0:0:0:
156,356,28967,1,0,0:0:0:0:
156,356,29123,2,0,L|168:288,1,60.4500018909073,2|0,0:0|0:0,0:0:0:0:
248,260,29436,2,0,L|258:319,1,60.4500018909073,2|0,0:0|0:0,0:0:0:0:
340,360,29748,2,0,L|350:300,1,60.4500018909073,8|0,0:0|0:0,0:0:0:0:
368,212,30061,5,8,0:0:0:0:
368,212,30217,1,0,0:0:0:0:
260,64,30530,1,0,0:0:0:0:
260,64,30686,2,0,P|184:76|132:60,1,120.900003781815,8|2,0:0|0:0,0:0:0:0:
52,48,31154,1,0,0:0:0:0:
52,48,31311,2,0,P|64:124|48:176,1,120.900003781815,2|8,0:0|0:0,0:0:0:0:
36,256,31779,1,0,0:0:0:0:
36,256,31936,2,0,P|72:248|112:248,1,60.4500018909073,8|0,0:0|0:0,0:0:0:0:
172,200,32248,2,0,P|180:236|176:276,1,60.4500018909073,2|0,0:0|0:0,0:0:0:0:
168,348,32561,5,8,0:0:0:0:
168,348,32717,1,0,0:0:0:0:
348,348,33029,1,0,0:0:0:0:
348,348,33186,2,0,P|332:280|356:208,1,120.900003781815,8|2,0:0|0:0,0:0:0:0:
424,192,33654,1,0,0:0:0:0:
424,192,33811,2,0,P|434:133|418:75,1,120.900003781815,2|8,0:0|0:0,0:0:0:0:
336,36,34279,1,0,0:0:0:0:
336,36,34436,2,0,L|264:28,1,60.4500018909073,8|0,0:0|0:0,0:0:0:0:
192,8,34748,2,0,L|131:14,1,60.4500018909073,2|0,0:0|0:0,0:0:0:0:
40,28,35061,5,8,0:0:0:0:
40,28,35217,1,0,0:0:0:0:
36,200,35529,1,0,0:0:0:0:
36,200,35686,2,0,L|36:336,1,120.900003781815,8|2,0:0|0:0,0:0:0:0:
108,376,36154,1,0,0:0:0:0:
108,376,36311,2,0,P|140:368|176:368,1,60.4500018909073,2|0,0:0|0:0,0:0:0:0:
216,292,36623,2,0,P|247:301|278:319,1,60.4500018909073,8|0,0:0|0:0,0:0:0:0:
340,372,36936,2,0,P|368:376|404:372,1,60.4500018909073,8|0,0:0|0:0,0:0:0:0:
480,332,37248,2,0,P|484:304|480:268,1,60.4500018909073,2|0,0:0|0:0,0:0:0:0:
452,188,37561,6,0,B|324:148|344:236|200:192,1,241.800007563629,2|8,0:0|0:0,0:0:0:0:
120,12,38811,2,0,B|160:140|72:120|116:264,1,241.800007563629,4|10,0:0|0:0,0:0:0:0:
412,40,40061,5,2,0:0:0:0:
412,40,40217,2,0,L|488:32,2,60.4500018909073
324,56,40686,2,0,P|324:88|331:117,1,60.4500018909073,8|8,0:0|0:0,0:0:0:0:
420,148,40998,1,8,0:0:0:0:
420,148,41154,6,0,P|436:208|416:300,1,130,4|2,0:0|0:0,0:0:0:0:
392,360,41623,2,0,P|352:364|320:356,1,65,10|0,0:0|0:0,0:0:0:0:
252,308,41936,2,0,P|212:304|180:312,1,65,2|0,0:0|0:0,0:0:0:0:
100,336,42248,1,8,0:0:0:0:
100,336,42404,2,0,L|92:260,1,65,2|0,0:0|0:0,0:0:0:0:
24,212,42717,2,0,L|32:56,1,130,2|0,0:0|0:0,0:0:0:0:
100,24,43186,2,0,P|132:20|172:24,1,65,2|0,0:0|0:0,0:0:0:0:
240,72,43498,1,8,0:0:0:0:
240,72,43654,6,0,P|300:88|384:64,1,130,4|0,0:0|0:0,0:0:0:0:
448,36,44123,1,8,0:0:0:0:
448,36,44279,2,0,P|464:96|440:180,1,130,2|0,0:0|0:0,0:0:0:0:
428,248,44748,1,8,0:0:0:0:
428,248,44904,2,0,P|368:232|284:256,1,130,2|0,0:0|0:0,0:0:0:0:
236,308,45373,2,0,P|176:324|92:300,1,130,10|0,0:0|0:0,0:0:0:0:
24,344,45842,2,0,P|20:296|28:264,1,65,2|8,0:0|0:0,0:0:0:0:
92,220,46154,6,0,P|104:136|76:72,1,130,4|0,0:0|0:0,0:0:0:0:
36,20,46623,2,0,P|72:8|124:12,1,65,10|0,0:0|0:0,0:0:0:0:
176,56,46936,2,0,L|248:56,1,65,2|0,0:0|0:0,0:0:0:0:
332,60,47248,1,10,0:0:0:0:
332,60,47404,2,0,P|324:96|332:132,1,65,2|0,0:0|0:0,0:0:0:0:
408,168,47717,1,2,0:0:0:0:
408,168,47873,2,0,P|420:208|400:304,1,130,2|0,0:0|0:0,0:0:0:0:
340,356,48342,2,0,P|292:360|252:348,1,65,2|10,0:0|0:0,0:0:0:0:
192,324,48654,6,0,L|176:176,1,130,6|0,0:0|0:0,0:0:0:0:
168,104,49123,1,10,0:0:0:0:
168,104,49279,2,0,P|230:88|293:101,1,130,2|2,0:0|0:0,0:0:0:0:
356,168,49748,1,10,0:0:0:0:
356,168,49904,2,0,P|418:183|481:170,2,130,2|2|2,0:0|0:0|0:0,0:0:0:0:
293,101,50686,1,2,0:0:0:0:
228,36,50842,2,0,P|191:31|135:43,1,65,2|8,0:0|0:0,0:0:0:0:
148,124,51154,6,0,L|160:260,1,130,4|0,0:0|0:0,0:0:0:0:
244,288,51623,2,0,L|250:223,1,65,10|0,0:0|0:0,0:0:0:0:
340,200,51936,1,2,0:0:0:0:
340,200,52092,2,0,L|346:264,1,65,2|10,0:0|0:0,0:0:0:0:
428,304,52404,2,0,L|440:168,1,130,2|0,0:0|0:0,0:0:0:0:
448,84,52873,2,0,L|352:76,1,65,10|0,0:0|0:0,0:0:0:0:
316,16,53186,2,0,L|186:27,1,130,2|10,0:0|0:0,0:0:0:0:
96,36,53654,6,0,P|116:108|112:192,1,130,2|0,0:0|0:0,0:0:0:0:
192,216,54123,2,0,P|180:264|168:288,1,65,10|0,0:0|0:0,0:0:0:0:
116,348,54436,2,0,P|146:360|177:366,1,65,8|8,0:0|0:0,0:0:0:0:
260,328,54748,1,8,0:0:0:0:
260,328,54904,2,0,P|320:320|400:332,1,130,2|0,0:0|0:0,0:0:0:0:
472,364,55373,1,10,0:0:0:0:
472,364,55529,2,0,L|480:288,1,65,2|0,0:0|0:0,0:0:0:0:
512,216,55842,2,0,L|504:140,1,65,2|10,0:0|0:0,0:0:0:0:
492,59,56154,6,0,P|428:72|365:58,1,130,4|0,0:0|0:0,0:0:0:0:
288,12,56623,2,0,P|248:8|204:20,1,65,8|0,0:0|0:0,0:0:0:0:
164,80,56936,2,0,P|124:84|80:72,1,65,2|2,0:0|0:0,0:0:0:0:
12,64,57248,1,10,0:0:0:0:
12,64,57404,2,0,L|24:204,1,130,2|0,0:0|0:0,0:0:0:0:
108,232,57873,2,0,L|100:320,1,65,10|0,0:0|0:0,0:0:0:0:
168,360,58186,2,0,P|232:348|312:368,1,130,2|8,0:0|0:0,0:0:0:0:
372,312,58654,6,0,P|360:248|380:168,1,130,4|0,0:0|0:0,0:0:0:0:
448,132,59123,2,0,P|452:96|444:56,1,65,10|0,0:0|0:0,0:0:0:0:
372,16,59436,2,0,P|308:4|224:20,1,130,10|8,0:0|0:0,0:0:0:0:
156,36,59904,1,2,0:0:0:0:
72,76,60061,2,0,P|59:139|71:202,1,130,2|10,0:0|0:0,0:0:0:0:
136,268,60529,1,0,0:0:0:0:
136,268,60686,2,0,P|168:264|216:272,1,65,8|0,0:0|0:0,0:0:0:0:
284,228,60998,1,8,0:0:0:0:
368,188,61154,6,0,L|384:316,1,130,4|0,0:0|0:0,0:0:0:0:
316,376,61623,2,0,P|284:380|236:372,1,65,10|0,0:0|0:0,0:0:0:0:
184,316,61936,2,0,P|152:312|104:320,1,65,10|0,0:0|0:0,0:0:0:0:
36,348,62248,1,10,0:0:0:0:
36,348,62404,2,0,L|28:252,1,65,0|10,0:0|0:0,0:0:0:0:
0,196,62717,1,0,0:0:0:0:
0,196,62873,2,0,L|8:100,1,65,8|2,0:0|0:0,0:0:0:0:
64,64,63186,2,0,L|160:56,1,65,8|8,0:0|0:0,0:0:0:0:
208,12,63498,1,8,0:0:0:0:
208,12,63654,6,0,L|337:21,1,130,4|0,0:0|0:0,0:0:0:0:
428,32,64123,1,2,0:0:0:0:
428,32,64279,2,0,P|412:92|418:161,1,130,2|0,0:0|0:0,0:0:0:0:
452,244,64748,1,8,0:0:0:0:
452,244,64904,2,0,L|322:253,1,130,2|0,0:0|0:0,0:0:0:0:
260,320,65373,2,0,L|130:311,1,130,10|0,0:0|0:0,0:0:0:0:
60,368,65842,2,0,P|44:332|44:292,1,65,2|8,0:0|0:0,0:0:0:0:
88,228,66154,6,0,L|88:80,1,130,4|0,0:0|0:0,0:0:0:0:
152,32,66623,2,0,P|184:28|220:32,1,65,10|0,0:0|0:0,0:0:0:0:
284,92,66936,2,0,P|316:96|352:92,1,65,2|0,0:0|0:0,0:0:0:0:
436,76,67248,1,8,0:0:0:0:
436,76,67404,2,0,P|456:120|444:204,1,130,2|0,0:0|0:0,0:0:0:0:
400,276,67873,2,0,P|356:256|272:268,1,130,10|2,0:0|0:0,0:0:0:0:
212,328,68342,2,0,P|172:336|124:328,1,65,2|10,0:0|0:0,0:0:0:0:
76,280,68654,6,0,L|84:124,1,130,6|0,0:0|0:0,0:0:0:0:
168,116,69123,1,10,0:0:0:0:
168,116,69279,2,0,L|174:245,1,130,2|0,0:0|0:0,0:0:0:0:
264,268,69748,1,10,0:0:0:0:
264,268,69904,2,0,L|270:138,1,130,2|2,0:0|0:0,0:0:0:0:
348,88,70373,2,0,L|348:20,2,65,10|10|8,0:0|0:0|0:0,0:0:0:0:
424,136,70842,2,0,L|426:200,1,65,8|8,0:0|0:0,0:0:0:0:
380,280,71154,6,0,P|308:292|232:272,1,130,4|0,0:0|0:0,0:0:0:0:
184,224,71623,2,0,P|144:220|100:232,1,65,10|0,0:0|0:0,0:0:0:0:
44,276,71936,2,0,P|48:316|36:360,2,65,2|2|10,0:0|0:0|0:0,0:0:0:0:
4,192,72404,2,0,L|16:48,1,130,2|0,0:0|0:0,0:0:0:0:
100,32,72873,2,0,L|106:96,1,65,10|0,0:0|0:0,0:0:0:0:
180,148,73186,2,0,P|240:132|308:136,1,130,2|10,0:0|0:0,0:0:0:0:
376,76,73654,6,0,P|408:164|404:224,1,130,2|0,0:0|0:0,0:0:0:0:
428,288,74123,2,0,P|392:284|352:292,1,65,10|0,0:0|0:0,0:0:0:0:
288,340,74436,2,0,P|220:352|136:332,1,130,8|8,0:0|0:0,0:0:0:0:
80,300,74904,5,2,0:0:0:0:
152,132,75217,1,2,0:0:0:0:
0,232,75529,1,2,0:0:0:0:
184,232,75842,1,2,0:0:0:0:
36,124,76154,6,0,P|80:48|136:16,1,130,4|0,0:0|0:0,0:0:0:0:
204,20,76623,2,0,P|236:22|267:32,1,65,10|0,0:0|0:0,0:0:0:0:
344,84,76936,2,0,P|346:52|356:21,2,65,2|2|10,0:0|0:0|0:0,0:0:0:0:
356,172,77404,2,0,L|200:168,1,130
136,168,77873,2,0,P|124:212|128:236,1,65,10|0,0:0|0:0,0:0:0:0:
172,312,78186,2,0,L|328:316,1,130,2|8,0:0|0:0,0:0:0:0:
381,358,78654,6,0,L|397:214,1,130,4|0,0:0|0:0,0:0:0:0:
480,192,79123,2,0,L|476:112,1,65,10|0,0:0|0:0,0:0:0:0:
412,60,79436,2,0,P|352:48|256:60,1,130,10|8,0:0|0:0,0:0:0:0:
200,84,79904,1,2,0:0:0:0:
200,84,80061,2,0,L|188:20,2,65,2|0|8,0:0|0:0|0:0,0:0:0:0:
272,140,80529,1,8,0:0:0:0:
272,140,80686,2,0,L|260:288,1,130,8|8,0:0|0:0,0:0:0:0:
252,360,81154,1,8,0:0:0:0:
180,308,81311,5,4,0:0:0:0:
256,192,81467,12,0,86154,0:0:0:0:
