osu file format v14

[General]
AudioFilename: audio.ogg
AudioLeadIn: 0
PreviewTime: 114149
Countdown: 0
SampleSet: Normal
StackLeniency: 0.7
Mode: 1
LetterboxInBreaks: 0
WidescreenStoryboard: 0

[Editor]
Bookmarks: 354,5223,15589,25327,35537,45589,55484,65537,75589,83128,93181,103233,114228,124280,134333,144542,154594,178939,206584
DistanceSpacing: 0.2
BeatDivisor: 4
GridSize: 32
TimelineZoom: 1.9

[Metadata]
Title:ADAMAS
TitleUnicode:ADAMAS
Artist:LiSA
ArtistUnicode:LiSA
Creator:gaston_2199
Version:Muzukashii
Source:ソードアート・オンライン アリシゼーション
Tags:赤い罠(who loves it?) Akai Wana LADYBUG Sword Art Online SAO Alicization Opening op full long ver. version anime japanese rock jrock j-rock female vocal
BeatmapID:2022264
BeatmapSetID:966093

[Difficulty]
HPDrainRate:5
CircleSize:2
OverallDifficulty:5
ApproachRate:10
SliderMultiplier:1.4
SliderTickRate:1

[Events]
//Background and Video events
0,0,"BG.jpg",0,-60
//Break Periods
//Storyboard Layer 0 (Background)
//Storyboard Layer 1 (Fail)
//Storyboard Layer 2 (Pass)
//Storyboard Layer 3 (Foreground)
//Storyboard Layer 4 (Overlay)
//Storyboard Sound Samples

[TimingPoints]
354,314.13612565445,4,1,0,50,1,0
354,-125,4,1,0,50,0,0
5223,-100,4,1,0,80,0,0
15432,-111.111111111111,4,1,0,80,0,0
25327,-100,4,1,0,80,0,0
35694,-125,4,1,0,80,0,0
44487,-121.212121212121,4,1,0,80,0,0
44565,-119.414337326488,4,1,0,80,0,0
44644,-117.647058823529,4,1,0,80,0,0
44801,-114.285714285714,4,1,0,80,0,0
44958,-111.111111111111,4,1,0,80,0,0
45115,-108.108108108108,4,1,0,80,0,0
45193,-106.675726176321,4,1,0,80,0,0
45272,-105.263157894737,4,1,0,80,0,0
45350,-103.904698874917,4,1,0,80,0,0
45429,-102.564102564103,4,1,0,80,0,0
45508,-101.257658819736,4,1,0,80,0,0
45586,-100,4,1,0,80,0,0
55484,-100,4,1,0,90,0,1
64280,-90.9090909090909,4,1,0,90,0,1
65537,-90.9090909090909,4,1,0,90,0,0
65694,-125,4,1,0,70,0,0
69460,-121.623946327198,4,1,0,80,0,0
69539,-119.993211133741,4,1,0,80,0,0
69618,-118.405627198124,4,1,0,80,0,0
69696,-116.878822945941,4,1,0,80,0,0
69775,-115.372062663185,4,1,0,80,0,0
69853,-113.922010957138,4,1,0,80,0,0
69932,-112.490055688146,4,1,0,80,0,0
70010,-111.111111111111,4,1,0,80,0,0
70089,-109.748525302701,4,1,0,80,0,0
70167,-108.435582822086,4,1,0,80,0,0
70246,-107.137445067434,4,1,0,80,0,0
70324,-105.885876890819,4,1,0,80,0,0
70403,-104.647720544701,4,1,0,80,0,0
70481,-103.453321627158,4,1,0,80,0,0
70560,-102.271083465934,4,1,0,80,0,0
70720,-100,4,1,0,90,0,1
75589,-100,4,1,0,90,0,0
75746,-100,4,1,0,80,0,0
93338,-125,4,1,0,70,0,0
101031,-100,4,1,0,80,0,0
107788,-90.9090909090909,4,1,0,80,0,0
108573,-100,4,1,0,80,0,0
114228,-100,4,1,0,90,0,1
114385,314.13612565445,4,1,0,90,1,1
123023,-90.9090909090909,4,1,0,90,0,1
124280,-90.9090909090909,4,1,0,90,0,0
124437,-125,4,1,0,70,0,0
128203,-121.623946327198,4,1,0,80,0,0
128282,-119.993211133741,4,1,0,80,0,0
128361,-118.405627198124,4,1,0,80,0,0
128439,-116.878822945941,4,1,0,80,0,0
128518,-115.372062663185,4,1,0,80,0,0
128596,-113.922010957138,4,1,0,80,0,0
128675,-112.490055688146,4,1,0,80,0,0
128753,-111.111111111111,4,1,0,80,0,0
128832,-109.748525302701,4,1,0,80,0,0
128910,-108.435582822086,4,1,0,80,0,0
128989,-107.137445067434,4,1,0,80,0,0
129067,-105.885876890819,4,1,0,80,0,0
129146,-104.647720544701,4,1,0,80,0,0
129224,-103.453321627158,4,1,0,80,0,0
129303,-102.271083465934,4,1,0,80,0,0
129463,-100,4,1,0,90,0,1
134332,-100,4,1,0,90,0,0
134803,-100,4,1,0,80,0,0
143387,-101.699029126214,4,1,0,80,0,0
143491,-103.439763001975,4,1,0,80,0,0
143596,-105.258750628036,4,1,0,80,0,0
143701,-107.142857142857,4,1,0,80,0,0
143806,-109.095643117514,4,1,0,80,0,0
143910,-111.101290436627,4,1,0,80,0,0
144015,-113.202449567723,4,1,0,80,0,0
144120,-115.384615384615,4,1,0,80,0,0
144224,-117.630544637844,4,1,0,80,0,0
144539,-125,4,1,0,70,0,0
149879,-123.077676559898,4,1,0,70,0,0
150036,-122.138517618469,4,1,0,70,0,0
150193,-121.213582867065,4,1,0,70,0,0
150350,-105.612641576835,4,1,0,70,0,0
150507,-119.405112610472,4,1,0,70,0,0
150664,-103.562671282273,4,1,0,70,0,0
150821,-117.649812734082,4,1,0,70,0,0
150978,-116.791374262211,4,1,0,70,0,0
151135,-115.945372335517,4,1,0,70,0,0
151292,-115.111538637717,4,1,0,70,0,0
151450,-114.28441493474,4,1,0,70,0,0
151607,-97.8582554517134,4,1,0,70,0,0
151764,-112.67542483074,4,1,0,70,0,0
151921,-96.0957515964973,4,1,0,70,0,0
152078,-111.111111111111,4,1,0,80,0,0
152156,-94.817665591337,4,1,0,80,0,0
152235,-110.345130411873,4,1,0,80,0,0
152313,-109.968492910905,4,1,0,80,0,0
152392,-109.589638480659,4,1,0,80,0,0
152471,-93.1568801897983,4,1,0,80,0,0
152549,-108.844421344421,4,1,0,80,0,0
152628,-108.473259377563,4,1,0,80,0,0
152706,-108.109270810927,4,1,0,80,0,0
152785,-107.743097238896,4,1,0,80,0,0
152863,-107.383984274848,4,1,0,80,0,0
152942,-90.7793732502484,4,1,0,80,0,0
153020,-106.668364531602,4,1,0,80,0,0
153099,-90.013611290207,4,1,0,80,0,0
153177,-105.962219598583,4,1,0,80,0,0
153256,-89.260660308665,4,1,0,80,0,0
153334,-105.265362543459,4,1,0,80,0,0
153413,-88.5202014864912,4,1,0,80,0,0
153491,-104.577611319184,4,1,0,80,0,0
153570,-104.234933012568,4,1,0,80,0,0
153649,-103.894493137093,4,1,0,80,0,0
153727,-103.5605373774,4,1,0,80,0,0
153806,-103.224481413021,4,1,0,80,0,0
153884,-86.3707446168652,4,1,0,80,0,0
153963,-102.563056077055,4,1,0,80,0,0
154041,-85.6772697828236,4,1,0,80,0,0
154120,-101.91005312462,4,1,0,80,0,0
154198,-101.588713263532,4,1,0,80,0,0
154277,-101.265312701483,4,1,0,80,0,0
154355,-100.948019603117,4,1,0,80,0,0
154434,-100.628678973291,4,1,0,80,0,0
154591,-100,4,1,0,80,0,0
154751,-111.111111111111,4,1,0,70,0,0
162444,-109.589638480659,4,1,0,70,0,0
162601,-108.844421344421,4,1,0,70,0,0
162758,-108.109270810927,4,1,0,70,0,0
162916,-107.379395803957,4,1,0,70,0,0
163073,-106.663837011885,4,1,0,70,0,0
163230,-105.957751823586,4,1,0,70,0,0
163308,-105.610422357638,4,1,0,70,0,0
163387,-105.26095333836,4,1,0,70,0,0
163465,-104.918169672679,4,1,0,70,0,0
163544,-104.573259539761,4,1,0,70,0,0
163622,-98.1602281160892,4,1,0,70,0,0
163701,-103.894493137093,4,1,0,70,0,0
163779,-96.9708662936523,4,1,0,70,0,0
163858,-103.224481413021,4,1,0,70,0,0
163936,-95.809981318388,4,1,0,70,0,0
164015,-102.563056077055,4,1,0,70,0,0
164094,-102.23343232578,4,1,0,70,0,0
164172,-101.91005312462,4,1,0,70,0,0
164251,-93.5626791764399,4,1,0,70,0,0
164329,-101.265312701483,4,1,0,70,0,0
164408,-92.4815073786479,4,1,0,70,0,0
164486,-100.628678973291,4,1,0,70,0,0
164565,-100.311352387035,4,1,0,70,0,0
164646,-100,4,1,0,80,0,1
174067,-83.3333333333333,4,1,0,80,0,1
175798,-66.6666666666667,4,1,0,90,0,0
175955,314.13612565445,10,1,0,20,1,0
175955,-66.6666666666667,4,1,0,20,0,0
178939,-100,4,1,0,90,0,1
179096,314.13612565445,4,1,0,90,1,1
187734,-90.9090909090909,4,1,0,90,0,1
188991,-90.9090909090909,4,1,0,90,0,0
189148,-125,4,1,0,70,0,0
193073,-121.171257946446,4,1,0,80,0,0
193151,-119.377490985007,4,1,0,80,0,0
193230,-117.614061331339,4,1,0,80,0,0
193308,-115.923332104681,4,1,0,80,0,0
193387,-114.259763851044,4,1,0,80,0,0
193465,-112.663442593588,4,1,0,80,0,0
193544,-111.091487107029,4,1,0,80,0,0
193622,-109.581881533101,4,1,0,80,0,0
193701,-108.094174256745,4,1,0,80,0,0
193779,-106.664405629981,4,1,0,80,0,0
193858,-105.254350736278,4,1,0,80,0,0
193936,-103.89824909151,4,1,0,80,0,0
194015,-102.559921734877,4,1,0,80,0,0
194174,-100,4,1,0,90,0,1
199043,-100,4,1,0,90,0,0
199200,-100,4,1,0,80,0,0
219148,-66.6666666666667,4,1,0,80,0,0

[HitObjects]
256,191,354,5,0,0:0:0:0:
256,191,668,1,8,0:0:0:0:
256,191,825,1,0,0:0:0:0:
256,191,1139,1,0,0:0:0:0:
256,191,1296,1,8,0:0:0:0:
256,191,1453,1,0,0:0:0:0:
256,191,1610,1,0,0:0:0:0:
256,191,1767,1,8,0:0:0:0:
256,191,2238,1,8,0:0:0:0:
256,191,2552,1,8,0:0:0:0:
256,191,2867,1,0,0:0:0:0:
256,191,3181,1,8,0:0:0:0:
256,191,3338,1,0,0:0:0:0:
256,191,3652,1,0,0:0:0:0:
256,191,3809,1,8,0:0:0:0:
192,7,3966,1,8,0:0:0:0:
256,191,4123,1,0,0:0:0:0:
197,43,4202,1,0,0:0:0:0:
256,191,4280,1,0,0:0:0:0:
256,191,4437,1,8,0:0:0:0:
256,191,4594,1,8,0:0:0:0:
256,191,5223,1,4,0:0:0:0:
256,191,5694,1,8,0:0:0:0:
207,38,5851,1,0,0:0:0:0:
256,191,6008,1,8,0:0:0:0:
256,191,6322,1,8,0:0:0:0:
256,191,6636,1,0,0:0:0:0:
216,50,6715,1,0,0:0:0:0:
216,50,6793,1,0,0:0:0:0:
256,191,6950,1,8,0:0:0:0:
256,191,7264,1,0,0:0:0:0:
256,191,7422,1,0,0:0:0:0:
256,191,7579,1,8,0:0:0:0:
255,203,7736,1,0,0:0:0:0:
256,191,8207,1,8,0:0:0:0:
256,191,8364,1,8,0:0:0:0:
256,191,8521,1,0,0:0:0:0:
256,191,8835,1,8,0:0:0:0:
256,191,9149,1,0,0:0:0:0:
256,191,9306,1,0,0:0:0:0:
256,191,9463,1,8,0:0:0:0:
256,191,9621,1,0,0:0:0:0:
256,191,9778,1,8,0:0:0:0:
256,191,9935,1,8,0:0:0:0:
225,49,10013,1,8,0:0:0:0:
256,191,10092,1,8,0:0:0:0:
255,203,10249,1,4,0:0:0:0:
256,191,10720,1,8,0:0:0:0:
187,46,10877,1,0,0:0:0:0:
256,191,11034,1,8,0:0:0:0:
256,191,11348,1,8,0:0:0:0:
256,191,11662,1,0,0:0:0:0:
184,38,11741,1,0,0:0:0:0:
184,38,11819,1,0,0:0:0:0:
256,191,11977,1,8,0:0:0:0:
256,191,12291,1,0,0:0:0:0:
256,191,12448,1,0,0:0:0:0:
256,191,12605,1,8,0:0:0:0:
255,203,12762,1,0,0:0:0:0:
256,191,13233,1,8,0:0:0:0:
244,180,13390,1,8,0:0:0:0:
256,191,13547,1,0,0:0:0:0:
256,191,13861,1,8,0:0:0:0:
256,191,14175,1,0,0:0:0:0:
263,182,14254,1,0,0:0:0:0:
256,191,14333,1,0,0:0:0:0:
256,191,14490,1,8,0:0:0:0:
256,191,14647,1,0,0:0:0:0:
256,191,14804,1,8,0:0:0:0:
256,191,14961,1,8,0:0:0:0:
217,51,15039,1,8,0:0:0:0:
256,191,15118,1,8,0:0:0:0:
255,203,15275,1,4,0:0:0:0:
265,180,15746,1,8,0:0:0:0:
265,180,16060,1,8,0:0:0:0:
197,31,16217,1,0,0:0:0:0:
265,180,16374,1,8,0:0:0:0:
265,180,16689,1,8,0:0:0:0:
265,180,17003,1,8,0:0:0:0:
265,180,17317,1,8,0:0:0:0:
254,193,17474,1,0,0:0:0:0:
265,180,17631,1,8,0:0:0:0:
254,193,17788,1,0,0:0:0:0:
270,201,17945,1,8,0:0:0:0:
265,180,18259,1,8,0:0:0:0:
265,180,18573,1,8,0:0:0:0:
265,180,18730,1,0,0:0:0:0:
266,174,18888,1,8,0:0:0:0:
265,180,19202,1,8,0:0:0:0:
265,180,19516,1,8,0:0:0:0:
265,180,19673,1,0,0:0:0:0:
266,174,19830,1,8,0:0:0:0:
265,180,19987,1,0,0:0:0:0:
265,180,20144,1,8,0:0:0:0:
222,51,20301,1,0,0:0:0:0:
265,180,20458,1,8,0:0:0:0:
266,174,20772,1,8,0:0:0:0:
265,180,21086,1,8,0:0:0:0:
265,180,21244,1,0,0:0:0:0:
265,180,21401,1,8,0:0:0:0:
266,174,21715,1,8,0:0:0:0:
265,180,22029,1,8,0:0:0:0:
265,180,22343,1,8,0:0:0:0:
265,180,22500,1,0,0:0:0:0:
266,174,22657,1,8,0:0:0:0:
265,180,22814,1,0,0:0:0:0:
257,176,22971,1,8,0:0:0:0:
265,180,23285,1,8,0:0:0:0:
265,180,23443,1,0,0:0:0:0:
266,174,23600,1,8,0:0:0:0:
265,180,23757,1,0,0:0:0:0:
213,28,23835,1,0,0:0:0:0:
265,180,23914,1,0,0:0:0:0:
265,180,24071,1,12,0:0:0:0:
267,184,25327,1,4,0:0:0:0:
267,184,25799,1,8,0:0:0:0:
267,184,26113,1,0,0:0:0:0:
267,184,26270,1,0,0:0:0:0:
267,184,26427,1,8,0:0:0:0:
267,184,26741,1,8,0:0:0:0:
267,184,26898,1,0,0:0:0:0:
267,184,27055,1,8,0:0:0:0:
212,46,27212,1,8,0:0:0:0:
267,184,27369,1,0,0:0:0:0:
267,184,27683,1,8,0:0:0:0:
267,184,27840,1,0,0:0:0:0:
267,184,28312,1,8,0:0:0:0:
267,184,28626,1,0,0:0:0:0:
267,184,28783,1,0,0:0:0:0:
267,184,28940,1,8,0:0:0:0:
267,184,29254,1,0,0:0:0:0:
267,184,29411,1,0,0:0:0:0:
267,184,29568,1,8,0:0:0:0:
218,55,29725,1,8,0:0:0:0:
267,184,29882,1,0,0:0:0:0:
201,21,30039,1,0,0:0:0:0:
267,184,30196,1,8,0:0:0:0:
255,182,30511,1,4,0:0:0:0:
255,182,31139,1,0,0:0:0:0:
215,41,31296,1,0,0:0:0:0:
255,182,31453,1,8,0:0:0:0:
255,182,31767,1,8,0:0:0:0:
255,182,31924,1,0,0:0:0:0:
255,182,32081,1,8,0:0:0:0:
215,41,32238,1,8,0:0:0:0:
255,182,32395,1,0,0:0:0:0:
255,182,32710,1,8,0:0:0:0:
272,174,33024,1,0,0:0:0:0:
272,174,33338,1,8,0:0:0:0:
272,174,33495,1,0,0:0:0:0:
272,174,33652,1,8,0:0:0:0:
201,37,33809,1,0,0:0:0:0:
272,174,33966,1,8,0:0:0:0:
272,174,34280,1,8,0:0:0:0:
272,174,34437,1,0,0:0:0:0:
272,174,34516,1,0,0:0:0:0:
272,174,34594,1,0,0:0:0:0:
272,174,34751,1,0,0:0:0:0:
272,174,34908,1,8,0:0:0:0:
272,174,35066,1,0,0:0:0:0:
272,174,35223,1,8,0:0:0:0:
272,174,35537,1,4,0:0:0:0:
266,161,36165,1,8,0:0:0:0:
266,161,36479,1,8,0:0:0:0:
266,161,36793,1,0,0:0:0:0:
266,161,37107,1,0,0:0:0:0:
266,161,37422,1,8,0:0:0:0:
266,161,37736,1,0,0:0:0:0:
266,161,37893,1,8,0:0:0:0:
266,161,38050,1,0,0:0:0:0:
266,161,38678,1,8,0:0:0:0:
266,161,38992,1,0,0:0:0:0:
266,161,39306,1,8,0:0:0:0:
266,161,39621,1,0,0:0:0:0:
219,67,39778,1,8,0:0:0:0:
266,161,40092,1,8,0:0:0:0:
266,161,40406,1,0,0:0:0:0:
219,67,40484,1,0,0:0:0:0:
266,161,40563,1,0,0:0:0:0:
265,153,41191,1,8,0:0:0:0:
265,153,41505,1,8,0:0:0:0:
265,153,41819,1,0,0:0:0:0:
265,153,42134,1,0,0:0:0:0:
265,153,42448,1,8,0:0:0:0:
265,153,42762,1,0,0:0:0:0:
265,153,42919,1,8,0:0:0:0:
265,153,43076,1,0,0:0:0:0:
265,153,43704,1,8,0:0:0:0:
265,153,44018,1,8,0:0:0:0:
265,153,44333,1,0,0:0:0:0:
265,153,44490,1,8,0:0:0:0:
199,26,44804,1,8,0:0:0:0:
265,153,44961,1,0,0:0:0:0:
265,153,45118,1,8,0:0:0:0:
265,153,45275,1,8,0:0:0:0:
265,153,45353,1,8,0:0:0:0:
265,153,45432,1,8,0:0:0:0:
265,153,45589,1,4,0:0:0:0:
265,153,45903,1,8,0:0:0:0:
265,153,46217,1,0,0:0:0:0:
196,67,46374,1,0,0:0:0:0:
265,153,46532,1,8,0:0:0:0:
165,99,46689,1,0,0:0:0:0:
165,99,46767,1,0,0:0:0:0:
265,153,46846,1,0,0:0:0:0:
229,59,47003,1,0,0:0:0:0:
268,164,47160,1,8,0:0:0:0:
268,164,47474,1,0,0:0:0:0:
268,164,47631,1,0,0:0:0:0:
268,164,47788,1,8,0:0:0:0:
268,164,48102,1,0,0:0:0:0:
268,164,48416,1,8,0:0:0:0:
268,164,49045,1,8,0:0:0:0:
220,63,49202,1,0,0:0:0:0:
220,63,49280,1,0,0:0:0:0:
268,164,49359,1,0,0:0:0:0:
220,63,49516,1,0,0:0:0:0:
268,164,49673,1,8,0:0:0:0:
220,63,49830,1,0,0:0:0:0:
268,164,49987,1,8,0:0:0:0:
268,164,50301,1,0,0:0:0:0:
268,164,50615,1,12,0:0:0:0:
268,164,50929,1,0,0:0:0:0:
268,164,51086,1,12,0:0:0:0:
268,164,51558,1,12,0:0:0:0:
268,164,51872,1,12,0:0:0:0:
268,164,52186,1,0,0:0:0:0:
268,164,52343,1,12,0:0:0:0:
268,164,52814,1,12,0:0:0:0:
268,164,53128,1,8,0:0:0:0:
268,164,53285,1,0,0:0:0:0:
209,44,53364,1,0,0:0:0:0:
268,164,53443,1,0,0:0:0:0:
268,164,53600,1,8,0:0:0:0:
206,32,53757,1,0,0:0:0:0:
268,164,53914,1,0,0:0:0:0:
268,164,54071,1,8,0:0:0:0:
268,164,54228,1,4,0:0:0:0:
272,171,55484,1,12,0:0:0:0:
272,171,55956,1,8,0:0:0:0:
272,171,56270,1,8,0:0:0:0:
272,171,56427,1,0,0:0:0:0:
272,171,56584,1,8,0:0:0:0:
272,171,56898,1,0,0:0:0:0:
196,72,56977,1,0,0:0:0:0:
200,58,57055,1,0,0:0:0:0:
272,171,57212,1,8,0:0:0:0:
272,171,57369,1,0,0:0:0:0:
117,198,57683,1,0,0:0:0:0:
272,171,57840,1,8,0:0:0:0:
272,171,58155,1,0,0:0:0:0:
237,80,58312,1,0,0:0:0:0:
272,171,58469,1,8,0:0:0:0:
237,80,58626,1,0,0:0:0:0:
272,171,58783,1,8,0:0:0:0:
272,171,58940,1,8,0:0:0:0:
242,97,59254,1,8,0:0:0:0:
272,171,59411,1,0,0:0:0:0:
272,171,59725,1,8,0:0:0:0:
272,171,60039,1,8,0:0:0:0:
281,167,60196,1,0,0:0:0:0:
272,171,60353,1,8,0:0:0:0:
232,35,60511,1,8,0:0:0:0:
232,35,60589,1,8,0:0:0:0:
272,171,60668,1,8,0:0:0:0:
265,173,60825,1,0,0:0:0:0:
265,173,60982,1,8,0:0:0:0:
265,173,61296,1,0,0:0:0:0:
175,50,61453,1,0,0:0:0:0:
265,173,61610,1,8,0:0:0:0:
265,173,61924,1,0,0:0:0:0:
265,173,62552,1,8,0:0:0:0:
265,173,62710,1,8,0:0:0:0:
265,173,62867,1,0,0:0:0:0:
265,173,63024,1,8,0:0:0:0:
224,55,63181,1,0,0:0:0:0:
265,173,63338,1,8,0:0:0:0:
265,173,63652,1,8,0:0:0:0:
265,173,63730,1,8,0:0:0:0:
265,173,63809,1,8,0:0:0:0:
260,164,63966,1,0,0:0:0:0:
265,173,64123,1,8,0:0:0:0:
265,173,64280,1,4,0:0:0:0:
266,186,64594,1,4,0:0:0:0:
266,186,64908,1,12,0:0:0:0:
266,186,65223,1,12,0:0:0:0:
266,186,65537,1,4,0:0:0:0:
259,167,66008,1,8,0:0:0:0:
259,167,66636,1,8,0:0:0:0:
259,167,66950,1,0,0:0:0:0:
259,167,67264,1,8,0:0:0:0:
261,129,67579,1,0,0:0:0:0:
259,167,68050,1,8,0:0:0:0:
259,167,68521,1,0,0:0:0:0:
252,133,68835,1,8,0:0:0:0:
259,167,69149,1,0,0:0:0:0:
259,167,69463,1,8,0:0:0:0:
259,167,69542,1,8,0:0:0:0:
259,167,69621,1,8,0:0:0:0:
259,167,69778,1,0,0:0:0:0:
259,167,69935,1,8,0:0:0:0:
259,167,70092,1,0,0:0:0:0:
259,167,70249,1,0,0:0:0:0:
259,167,70406,1,8,0:0:0:0:
259,167,70720,1,12,0:0:0:0:
259,167,71034,1,0,0:0:0:0:
259,167,71191,1,12,0:0:0:0:
259,167,71662,1,12,0:0:0:0:
259,167,71977,1,0,0:0:0:0:
259,167,72134,1,12,0:0:0:0:
259,167,72605,1,12,0:0:0:0:
259,167,72919,1,12,0:0:0:0:
263,157,73233,1,0,0:0:0:0:
263,157,73547,1,8,0:0:0:0:
263,157,73704,1,8,0:0:0:0:
263,157,73861,1,0,0:0:0:0:
263,157,73940,1,0,0:0:0:0:
263,157,74018,1,0,0:0:0:0:
263,157,74175,1,8,0:0:0:0:
263,157,74333,1,0,0:0:0:0:
273,134,74490,1,8,0:0:0:0:
263,157,74804,1,8,0:0:0:0:
263,157,74961,1,0,0:0:0:0:
263,157,75118,1,8,0:0:0:0:
263,157,75275,1,8,0:0:0:0:
273,134,75353,1,8,0:0:0:0:
263,157,75432,1,8,0:0:0:0:
263,157,75589,1,4,0:0:0:0:
256,169,76060,1,8,0:0:0:0:
256,169,76374,1,0,0:0:0:0:
256,169,76532,1,0,0:0:0:0:
254,157,76689,1,8,0:0:0:0:
248,126,76846,1,8,0:0:0:0:
254,157,77003,1,0,0:0:0:0:
254,157,77317,1,8,0:0:0:0:
254,157,77631,1,8,0:0:0:0:
258,120,77788,1,0,0:0:0:0:
254,157,77945,1,8,0:0:0:0:
254,157,78102,1,8,0:0:0:0:
256,169,78573,1,8,0:0:0:0:
256,169,78888,1,8,0:0:0:0:
256,169,79045,1,0,0:0:0:0:
254,157,79202,1,8,0:0:0:0:
244,126,79359,1,8,0:0:0:0:
254,157,79516,1,0,0:0:0:0:
254,157,79830,1,8,0:0:0:0:
254,157,80144,1,0,0:0:0:0:
252,113,80301,1,0,0:0:0:0:
254,157,80458,1,8,0:0:0:0:
254,157,80615,1,4,0:0:0:0:
256,169,81086,1,8,0:0:0:0:
256,169,81401,1,0,0:0:0:0:
256,169,81558,1,0,0:0:0:0:
254,157,81715,1,8,0:0:0:0:
254,157,82029,1,8,0:0:0:0:
230,96,82107,1,8,0:0:0:0:
254,157,82186,1,8,0:0:0:0:
254,157,82343,1,8,0:0:0:0:
254,157,82500,1,0,0:0:0:0:
254,157,82657,1,0,0:0:0:0:
245,122,82814,1,8,0:0:0:0:
254,157,82971,1,8,0:0:0:0:
256,191,83128,1,4,0:0:0:0:
256,191,83600,1,8,0:0:0:0:
207,38,83757,1,0,0:0:0:0:
256,191,83914,1,8,0:0:0:0:
256,191,84228,1,8,0:0:0:0:
256,191,84542,1,0,0:0:0:0:
216,50,84621,1,0,0:0:0:0:
216,50,84699,1,0,0:0:0:0:
256,191,84856,1,8,0:0:0:0:
256,191,85170,1,0,0:0:0:0:
256,191,85327,1,0,0:0:0:0:
256,191,85484,1,8,0:0:0:0:
255,203,85641,1,0,0:0:0:0:
256,191,86113,1,8,0:0:0:0:
256,191,86270,1,8,0:0:0:0:
256,191,86427,1,0,0:0:0:0:
256,191,86741,1,8,0:0:0:0:
256,191,87055,1,0,0:0:0:0:
256,191,87212,1,0,0:0:0:0:
256,191,87369,1,8,0:0:0:0:
256,191,87526,1,0,0:0:0:0:
256,191,87683,1,8,0:0:0:0:
256,191,87840,1,8,0:0:0:0:
225,49,87919,1,8,0:0:0:0:
256,191,87997,1,8,0:0:0:0:
255,203,88155,1,4,0:0:0:0:
256,191,88626,1,8,0:0:0:0:
187,46,88783,1,0,0:0:0:0:
256,191,88940,1,8,0:0:0:0:
256,191,89254,1,8,0:0:0:0:
256,191,89568,1,0,0:0:0:0:
184,38,89647,1,0,0:0:0:0:
184,38,89725,1,0,0:0:0:0:
256,191,89882,1,8,0:0:0:0:
256,191,90196,1,0,0:0:0:0:
256,191,90353,1,0,0:0:0:0:
256,191,90511,1,8,0:0:0:0:
255,203,90668,1,0,0:0:0:0:
256,191,91139,5,8,0:0:0:0:
244,180,91296,1,0,0:0:0:0:
256,191,91453,1,8,0:0:0:0:
249,188,91610,1,0,0:0:0:0:
256,191,91767,1,8,0:0:0:0:
256,191,92081,1,8,0:0:0:0:
263,182,92160,1,8,0:0:0:0:
256,191,92238,1,8,0:0:0:0:
256,191,92395,1,0,0:0:0:0:
256,191,92552,1,0,0:0:0:0:
256,191,92710,1,8,0:0:0:0:
256,191,92867,1,8,0:0:0:0:
250,170,92945,1,8,0:0:0:0:
256,191,93024,1,8,0:0:0:0:
255,203,93181,1,4,0:0:0:0:
260,180,93966,5,8,0:0:0:0:
260,180,94594,1,0,0:0:0:0:
260,180,95066,1,0,0:0:0:0:
260,180,95223,1,8,0:0:0:0:
260,180,95694,1,0,0:0:0:0:
260,180,96479,1,8,0:0:0:0:
260,180,97107,1,0,0:0:0:0:
260,180,97579,1,0,0:0:0:0:
260,180,97736,1,8,0:0:0:0:
260,180,98207,1,4,0:0:0:0:
260,180,98992,1,8,0:0:0:0:
260,180,99621,1,0,0:0:0:0:
260,180,100092,1,0,0:0:0:0:
260,180,100249,1,8,0:0:0:0:
260,180,100720,1,0,0:0:0:0:
267,179,101034,1,8,0:0:0:0:
267,179,101113,1,8,0:0:0:0:
267,179,101191,1,8,0:0:0:0:
267,179,101348,1,0,0:0:0:0:
267,179,101505,1,8,0:0:0:0:
260,180,101662,1,0,0:0:0:0:
267,179,101819,1,8,0:0:0:0:
267,179,101977,1,4,0:0:0:0:
267,184,103233,1,12,0:0:0:0:
276,172,103547,1,0,0:0:0:0:
267,184,103704,1,8,0:0:0:0:
267,184,104018,1,0,0:0:0:0:
267,184,104333,1,8,0:0:0:0:
267,184,104647,1,0,0:0:0:0:
267,184,104804,1,0,0:0:0:0:
267,184,104961,1,8,0:0:0:0:
261,173,105118,1,8,0:0:0:0:
267,184,105275,1,0,0:0:0:0:
267,184,105589,1,8,0:0:0:0:
267,184,105746,1,0,0:0:0:0:
258,138,106060,1,8,0:0:0:0:
276,172,106374,1,0,0:0:0:0:
267,184,106532,1,8,0:0:0:0:
276,172,106846,1,0,0:0:0:0:
267,184,107160,1,8,0:0:0:0:
267,184,107317,1,8,0:0:0:0:
267,184,107474,1,0,0:0:0:0:
267,184,107788,1,12,0:0:0:0:
267,184,108102,1,12,0:0:0:0:
255,182,108416,1,4,0:0:0:0:
255,182,109045,1,8,0:0:0:0:
255,182,109202,1,0,0:0:0:0:
255,182,109359,1,8,0:0:0:0:
255,182,109673,1,0,0:0:0:0:
255,182,109830,1,8,0:0:0:0:
255,182,110144,1,8,0:0:0:0:
255,182,110301,1,0,0:0:0:0:
232,140,110458,1,0,0:0:0:0:
255,182,110615,1,8,0:0:0:0:
272,174,110929,1,0,0:0:0:0:
272,174,111244,1,8,0:0:0:0:
249,151,111401,1,0,0:0:0:0:
272,174,111558,1,8,0:0:0:0:
249,151,111715,1,0,0:0:0:0:
262,153,111872,1,8,0:0:0:0:
272,174,112186,1,0,0:0:0:0:
272,174,112264,1,0,0:0:0:0:
272,174,112343,1,0,0:0:0:0:
272,174,112500,1,8,0:0:0:0:
272,174,112657,1,0,0:0:0:0:
272,174,112814,1,8,0:0:0:0:
272,174,112971,1,8,0:0:0:0:
272,174,113128,1,0,0:0:0:0:
272,174,113443,1,8,0:0:0:0:
272,174,114228,1,12,0:0:0:0:
272,174,114699,1,8,0:0:0:0:
272,174,115013,1,8,0:0:0:0:
272,174,115170,1,0,0:0:0:0:
272,174,115327,1,8,0:0:0:0:
272,174,115641,1,0,0:0:0:0:
196,75,115720,1,0,0:0:0:0:
200,61,115798,1,0,0:0:0:0:
272,174,115955,1,8,0:0:0:0:
272,174,116112,1,0,0:0:0:0:
226,118,116426,1,0,0:0:0:0:
272,174,116583,1,8,0:0:0:0:
272,174,116898,1,8,0:0:0:0:
237,83,117055,1,0,0:0:0:0:
272,174,117212,1,8,0:0:0:0:
237,83,117369,1,8,0:0:0:0:
272,174,117526,1,0,0:0:0:0:
272,174,117683,1,8,0:0:0:0:
242,100,117997,1,8,0:0:0:0:
272,174,118154,1,0,0:0:0:0:
272,174,118468,1,8,0:0:0:0:
272,174,118782,1,0,0:0:0:0:
281,170,118939,1,8,0:0:0:0:
272,174,119097,1,8,0:0:0:0:
232,38,119254,1,0,0:0:0:0:
232,38,119332,1,0,0:0:0:0:
272,174,119411,1,0,0:0:0:0:
265,176,119568,1,0,0:0:0:0:
265,176,119725,1,8,0:0:0:0:
265,176,120039,1,8,0:0:0:0:
175,53,120196,1,0,0:0:0:0:
265,176,120353,1,8,0:0:0:0:
265,176,120667,1,0,0:0:0:0:
265,176,121295,1,8,0:0:0:0:
265,176,121453,1,8,0:0:0:0:
265,176,121610,1,0,0:0:0:0:
265,176,121767,1,8,0:0:0:0:
224,58,121924,1,0,0:0:0:0:
265,176,122081,1,8,0:0:0:0:
265,176,122395,1,8,0:0:0:0:
265,176,122474,1,8,0:0:0:0:
265,176,122552,1,8,0:0:0:0:
260,167,122709,1,0,0:0:0:0:
265,176,122866,1,8,0:0:0:0:
265,176,123023,1,4,0:0:0:0:
266,189,123337,1,4,0:0:0:0:
266,189,123652,1,12,0:0:0:0:
266,189,123966,1,12,0:0:0:0:
266,189,124280,1,4,0:0:0:0:
259,167,124751,5,8,0:0:0:0:
259,167,125379,1,8,0:0:0:0:
259,167,125693,1,0,0:0:0:0:
259,167,126008,1,8,0:0:0:0:
268,172,126165,1,8,0:0:0:0:
268,172,126243,1,8,0:0:0:0:
268,172,126322,1,8,0:0:0:0:
259,167,126636,1,0,0:0:0:0:
259,167,126793,1,8,0:0:0:0:
259,167,127264,1,0,0:0:0:0:
229,84,127578,1,8,0:0:0:0:
259,167,127892,1,0,0:0:0:0:
259,167,128206,1,8,0:0:0:0:
259,167,128285,1,8,0:0:0:0:
259,167,128364,1,8,0:0:0:0:
259,167,128521,1,0,0:0:0:0:
259,167,128678,1,8,0:0:0:0:
259,167,128835,1,0,0:0:0:0:
259,167,128992,1,0,0:0:0:0:
259,167,129149,1,8,0:0:0:0:
259,167,129463,1,12,0:0:0:0:
259,167,129777,1,0,0:0:0:0:
259,167,129934,1,12,0:0:0:0:
259,167,130405,1,12,0:0:0:0:
259,167,130720,1,0,0:0:0:0:
259,167,130877,1,12,0:0:0:0:
259,167,131348,1,12,0:0:0:0:
259,167,131662,1,12,0:0:0:0:
263,157,131976,1,0,0:0:0:0:
263,157,132290,1,0,0:0:0:0:
263,157,132447,1,8,0:0:0:0:
263,157,132604,1,0,0:0:0:0:
263,157,132761,1,0,0:0:0:0:
263,157,132919,1,8,0:0:0:0:
249,152,133076,1,0,0:0:0:0:
263,143,133233,1,8,0:0:0:0:
263,157,133547,1,8,0:0:0:0:
263,157,133861,1,0,0:0:0:0:
243,125,133939,1,0,0:0:0:0:
263,157,134018,1,0,0:0:0:0:
263,157,134175,5,8,0:0:0:0:
263,157,134332,1,4,0:0:0:0:
256,192,134489,12,0,137002,0:0:0:0:
256,187,139201,5,0,0:0:0:0:
236,186,139515,1,12,0:0:0:0:
256,192,139672,12,0,142028,0:0:0:0:
259,184,143285,5,8,0:0:0:0:
259,184,143704,1,8,0:0:0:0:
259,184,143913,1,8,0:0:0:0:
259,184,144227,1,8,0:0:0:0:
259,184,144542,1,4,0:0:0:0:
259,184,145484,1,0,0:0:0:0:
259,184,145798,1,8,0:0:0:0:
259,184,147055,1,0,0:0:0:0:
259,184,147997,1,0,0:0:0:0:
259,184,148311,1,8,0:0:0:0:
260,186,149568,1,4,0:0:0:0:
260,186,149882,1,0,0:0:0:0:
260,186,150196,1,8,0:0:0:0:
260,186,150510,1,8,0:0:0:0:
260,186,150824,1,0,0:0:0:0:
260,186,150981,1,0,0:0:0:0:
260,186,151138,1,8,0:0:0:0:
260,186,151453,1,0,0:0:0:0:
260,186,151767,1,8,0:0:0:0:
260,186,152081,1,8,0:0:0:0:
260,186,152238,1,0,0:0:0:0:
260,186,152395,1,8,0:0:0:0:
260,186,152552,1,8,0:0:0:0:
260,186,152709,1,0,0:0:0:0:
274,179,152788,1,0,0:0:0:0:
260,186,152866,1,0,0:0:0:0:
260,186,153023,1,8,0:0:0:0:
260,186,153337,1,8,0:0:0:0:
260,186,153494,1,8,0:0:0:0:
270,171,153573,1,8,0:0:0:0:
260,186,153652,1,8,0:0:0:0:
260,186,153809,1,0,0:0:0:0:
260,186,153966,1,8,0:0:0:0:
260,186,154123,1,0,0:0:0:0:
260,186,154280,1,8,0:0:0:0:
272,210,154594,1,4,0:0:0:0:
265,186,155222,1,8,0:0:0:0:
228,96,155693,1,8,0:0:0:0:
265,186,155850,1,0,0:0:0:0:
277,190,156008,1,8,0:0:0:0:
277,190,156165,1,0,0:0:0:0:
265,186,156479,1,8,0:0:0:0:
271,168,157107,1,0,0:0:0:0:
265,186,157735,1,8,0:0:0:0:
265,186,157892,1,0,0:0:0:0:
265,186,158049,1,8,0:0:0:0:
265,186,158364,1,0,0:0:0:0:
213,94,158521,1,0,0:0:0:0:
265,186,158678,1,8,0:0:0:0:
265,186,158992,1,0,0:0:0:0:
265,186,159620,1,12,0:0:0:0:
265,186,160248,1,8,0:0:0:0:
265,186,160563,1,0,0:0:0:0:
265,186,160877,1,8,0:0:0:0:
265,186,161034,1,8,0:0:0:0:
265,186,161191,1,0,0:0:0:0:
265,186,161505,1,8,0:0:0:0:
265,186,162133,1,8,0:0:0:0:
265,186,162447,1,0,0:0:0:0:
265,186,162604,1,0,0:0:0:0:
265,186,162761,1,8,0:0:0:0:
256,119,162919,1,8,0:0:0:0:
265,186,163076,1,8,0:0:0:0:
265,186,163390,1,0,0:0:0:0:
265,186,163468,1,0,0:0:0:0:
265,186,163547,1,0,0:0:0:0:
265,186,163704,1,8,0:0:0:0:
265,186,163861,1,0,0:0:0:0:
265,186,164018,1,8,0:0:0:0:
265,186,164332,1,8,0:0:0:0:
265,186,164489,1,8,0:0:0:0:
265,186,164646,1,0,0:0:0:0:
265,186,164960,1,8,0:0:0:0:
256,152,165117,1,0,0:0:0:0:
265,186,165275,1,8,0:0:0:0:
265,186,165589,1,8,0:0:0:0:
278,175,165903,1,8,0:0:0:0:
268,147,166060,1,0,0:0:0:0:
278,175,166217,1,8,0:0:0:0:
267,147,166374,1,0,0:0:0:0:
278,175,166531,1,8,0:0:0:0:
278,175,166845,1,8,0:0:0:0:
278,175,167159,1,0,0:0:0:0:
278,175,167474,1,8,0:0:0:0:
276,152,167631,1,0,0:0:0:0:
278,175,167788,1,8,0:0:0:0:
278,175,167866,1,8,0:0:0:0:
278,175,167945,1,8,0:0:0:0:
278,175,168102,1,8,0:0:0:0:
278,175,168416,1,8,0:0:0:0:
278,175,168573,1,0,0:0:0:0:
278,175,168730,1,8,0:0:0:0:
280,163,168887,1,8,0:0:0:0:
278,175,169044,1,0,0:0:0:0:
228,67,169123,1,0,0:0:0:0:
278,175,169201,1,0,0:0:0:0:
278,175,169358,1,8,0:0:0:0:
265,154,169515,1,0,0:0:0:0:
278,175,169672,1,8,0:0:0:0:
278,175,170301,1,8,0:0:0:0:
278,175,170458,1,0,0:0:0:0:
278,175,170615,1,8,0:0:0:0:
284,133,170772,1,0,0:0:0:0:
278,175,170929,1,8,0:0:0:0:
278,175,171243,1,0,0:0:0:0:
278,175,171557,1,8,0:0:0:0:
288,141,171714,1,0,0:0:0:0:
278,175,171871,1,8,0:0:0:0:
278,175,172186,1,8,0:0:0:0:
278,175,172264,1,8,0:0:0:0:
278,175,172343,1,8,0:0:0:0:
278,175,172500,1,0,0:0:0:0:
278,175,172657,1,8,0:0:0:0:
278,175,172971,1,8,0:0:0:0:
278,175,173128,1,0,0:0:0:0:
268,157,173285,1,0,0:0:0:0:
278,175,173442,1,8,0:0:0:0:
278,175,173521,1,8,0:0:0:0:
278,175,173599,1,8,0:0:0:0:
278,175,173756,1,0,0:0:0:0:
278,175,174070,1,12,0:0:0:0:
278,175,174227,1,12,0:0:0:0:
278,175,174384,1,12,0:0:0:0:
278,175,174542,1,12,0:0:0:0:
256,192,174699,12,0,175641,0:0:0:0:
271,179,175798,5,4,0:0:0:0:
272,171,178939,1,12,0:0:0:0:
272,171,179410,1,8,0:0:0:0:
272,171,179724,1,8,0:0:0:0:
272,171,179881,1,0,0:0:0:0:
272,171,180038,1,8,0:0:0:0:
272,171,180352,1,0,0:0:0:0:
196,72,180431,1,0,0:0:0:0:
200,58,180509,1,0,0:0:0:0:
272,171,180666,1,8,0:0:0:0:
272,171,180823,1,0,0:0:0:0:
117,198,181137,1,0,0:0:0:0:
272,171,181294,1,8,0:0:0:0:
272,171,181609,1,0,0:0:0:0:
237,80,181766,1,0,0:0:0:0:
272,171,181923,1,8,0:0:0:0:
237,80,182080,1,0,0:0:0:0:
272,171,182237,1,8,0:0:0:0:
272,171,182394,1,8,0:0:0:0:
242,97,182708,1,8,0:0:0:0:
272,171,182865,1,0,0:0:0:0:
272,171,183179,1,8,0:0:0:0:
272,171,183493,1,0,0:0:0:0:
281,167,183650,1,8,0:0:0:0:
272,171,183808,1,8,0:0:0:0:
232,35,183886,1,8,0:0:0:0:
232,35,183965,1,8,0:0:0:0:
272,171,184122,1,0,0:0:0:0:
265,173,184279,1,0,0:0:0:0:
265,173,184436,1,8,0:0:0:0:
265,173,184750,1,8,0:0:0:0:
175,50,184907,1,0,0:0:0:0:
265,173,185064,1,8,0:0:0:0:
265,173,185378,1,0,0:0:0:0:
265,173,186006,1,8,0:0:0:0:
265,173,186164,1,8,0:0:0:0:
265,173,186321,1,0,0:0:0:0:
265,173,186478,1,8,0:0:0:0:
224,55,186635,1,0,0:0:0:0:
265,173,186792,1,8,0:0:0:0:
265,173,187106,1,8,0:0:0:0:
265,173,187263,1,0,0:0:0:0:
213,63,187342,1,0,0:0:0:0:
260,164,187420,1,0,0:0:0:0:
265,173,187577,1,8,0:0:0:0:
265,173,187734,1,4,0:0:0:0:
266,186,188048,1,4,0:0:0:0:
266,186,188363,1,12,0:0:0:0:
266,186,188677,1,12,0:0:0:0:
266,186,188991,1,4,0:0:0:0:
259,167,189462,5,8,0:0:0:0:
259,167,190090,1,8,0:0:0:0:
259,167,190404,1,0,0:0:0:0:
259,167,190719,1,8,0:0:0:0:
259,167,191033,1,0,0:0:0:0:
259,167,191504,1,8,0:0:0:0:
239,104,191975,1,0,0:0:0:0:
239,104,192289,1,8,0:0:0:0:
259,167,192603,1,0,0:0:0:0:
259,167,192917,1,8,0:0:0:0:
252,139,193075,1,8,0:0:0:0:
259,167,193232,1,0,0:0:0:0:
259,167,193389,1,8,0:0:0:0:
259,167,193546,1,0,0:0:0:0:
271,173,193624,1,0,0:0:0:0:
259,167,193703,1,0,0:0:0:0:
259,167,193860,1,8,0:0:0:0:
259,167,194174,1,12,0:0:0:0:
259,167,194488,1,0,0:0:0:0:
259,167,194645,1,12,0:0:0:0:
259,167,195116,1,12,0:0:0:0:
259,167,195431,1,0,0:0:0:0:
259,167,195588,1,12,0:0:0:0:
259,167,196059,1,12,0:0:0:0:
259,167,196373,1,12,0:0:0:0:
263,157,196687,1,0,0:0:0:0:
271,173,197001,1,8,0:0:0:0:
263,157,197158,1,8,0:0:0:0:
263,157,197237,1,8,0:0:0:0:
263,157,197315,1,8,0:0:0:0:
263,157,197472,1,0,0:0:0:0:
263,157,197630,1,8,0:0:0:0:
263,157,197787,1,0,0:0:0:0:
263,157,197944,1,8,0:0:0:0:
263,157,198258,1,0,0:0:0:0:
263,157,198415,1,0,0:0:0:0:
263,157,198572,1,8,0:0:0:0:
263,157,198729,1,8,0:0:0:0:
208,75,198808,1,8,0:0:0:0:
263,157,198886,1,8,0:0:0:0:
263,157,199043,1,4,0:0:0:0:
256,169,199514,1,8,0:0:0:0:
256,169,199828,1,0,0:0:0:0:
256,169,199986,1,0,0:0:0:0:
254,157,200143,1,8,0:0:0:0:
256,169,200300,1,8,0:0:0:0:
254,157,200457,1,0,0:0:0:0:
254,157,200771,1,8,0:0:0:0:
254,157,201085,1,8,0:0:0:0:
259,153,201242,1,0,0:0:0:0:
254,157,201399,1,8,0:0:0:0:
254,157,201556,1,8,0:0:0:0:
256,169,202027,1,8,0:0:0:0:
256,169,202342,1,8,0:0:0:0:
256,169,202499,1,0,0:0:0:0:
254,157,202656,1,8,0:0:0:0:
256,169,202813,1,8,0:0:0:0:
254,157,202970,1,0,0:0:0:0:
254,157,203284,1,8,0:0:0:0:
254,157,203598,1,8,0:0:0:0:
257,161,203755,1,0,0:0:0:0:
254,157,203912,1,8,0:0:0:0:
254,157,204069,1,8,0:0:0:0:
256,169,204541,1,8,0:0:0:0:
256,169,204855,1,0,0:0:0:0:
256,169,205012,1,0,0:0:0:0:
254,157,205169,1,8,0:0:0:0:
254,157,205483,1,8,0:0:0:0:
191,33,205561,1,8,0:0:0:0:
196,75,205640,1,8,0:0:0:0:
254,157,205797,1,8,0:0:0:0:
254,157,205954,1,0,0:0:0:0:
254,157,206111,1,8,0:0:0:0:
257,175,206268,1,8,0:0:0:0:
257,175,206347,1,8,0:0:0:0:
254,157,206425,1,8,0:0:0:0:
256,191,206582,1,4,0:0:0:0:
256,191,207054,1,8,0:0:0:0:
207,38,207211,1,0,0:0:0:0:
256,191,207368,1,8,0:0:0:0:
256,191,207682,1,8,0:0:0:0:
256,191,207996,1,0,0:0:0:0:
216,50,208075,1,0,0:0:0:0:
216,50,208153,1,0,0:0:0:0:
256,191,208310,1,8,0:0:0:0:
256,191,208624,1,0,0:0:0:0:
256,191,208781,1,0,0:0:0:0:
256,191,208938,1,8,0:0:0:0:
255,203,209095,1,0,0:0:0:0:
256,191,209567,1,8,0:0:0:0:
256,191,209724,1,8,0:0:0:0:
256,191,209881,1,0,0:0:0:0:
256,191,210195,1,8,0:0:0:0:
256,191,210509,1,0,0:0:0:0:
256,191,210666,1,8,0:0:0:0:
256,191,210823,1,8,0:0:0:0:
250,184,210902,1,8,0:0:0:0:
256,191,210980,1,8,0:0:0:0:
256,191,211137,1,0,0:0:0:0:
256,191,211294,1,8,0:0:0:0:
225,49,211373,1,8,0:0:0:0:
256,191,211452,1,8,0:0:0:0:
255,203,211609,5,4,0:0:0:0:
256,191,212080,1,8,0:0:0:0:
257,175,212237,1,8,0:0:0:0:
256,191,212394,1,0,0:0:0:0:
259,62,212472,1,0,0:0:0:0:
256,191,212551,1,0,0:0:0:0:
256,191,212708,1,8,0:0:0:0:
256,191,213022,1,0,0:0:0:0:
257,175,213101,1,0,0:0:0:0:
257,175,213179,1,0,0:0:0:0:
256,191,213336,1,8,0:0:0:0:
257,175,213493,1,0,0:0:0:0:
256,191,213650,1,8,0:0:0:0:
256,191,213808,1,8,0:0:0:0:
256,191,213965,1,8,0:0:0:0:
255,203,214122,1,0,0:0:0:0:
256,191,214593,1,8,0:0:0:0:
247,69,214750,1,8,0:0:0:0:
256,191,214907,1,0,0:0:0:0:
247,69,214986,1,0,0:0:0:0:
247,69,215064,1,0,0:0:0:0:
256,191,215221,1,8,0:0:0:0:
256,191,215535,1,8,0:0:0:0:
256,191,215692,1,8,0:0:0:0:
263,182,215771,1,8,0:0:0:0:
256,191,215849,1,8,0:0:0:0:
256,191,216006,1,0,0:0:0:0:
256,191,216164,1,8,0:0:0:0:
256,191,216321,1,8,0:0:0:0:
257,175,216399,1,8,0:0:0:0:
256,191,216478,1,8,0:0:0:0:
255,203,216635,1,4,0:0:0:0:
251,197,219148,5,4,0:0:0:0:
