osu file format v14

[General]
AudioFilename: audio.ogg
AudioLeadIn: 0
PreviewTime: 114149
Countdown: 0
SampleSet: Normal
StackLeniency: 0.7
Mode: 1
LetterboxInBreaks: 0
WidescreenStoryboard: 1

[Editor]
Bookmarks: 354,5223,15589,25327,35537,45589,55484,65537,75589,83128,93181,103233,114228,124280,134333,144542,154594,178939,206584
DistanceSpacing: 0.2
BeatDivisor: 4
GridSize: 32
TimelineZoom: 2

[Metadata]
Title:ADAMAS
TitleUnicode:ADAMAS
Artist:LiSA
ArtistUnicode:LiSA
Creator:gaston_2199
Version:Inner Oni
Source:ソードアート・オンライン アリシゼーション
Tags:赤い罠(who loves it?) Akai Wana LADYBUG Sword Art Online SAO Alicization Opening op full long ver. version anime japanese rock jrock j-rock female vocal
BeatmapID:2022263
BeatmapSetID:966093

[Difficulty]
HPDrainRate:6
CircleSize:2
OverallDifficulty:6
ApproachRate:10
SliderMultiplier:1.4
SliderTickRate:1

[Events]
//Background and Video events
0,0,"BG.jpg",0,-60
//Break Periods
//Storyboard Layer 0 (Background)
//Storyboard Layer 1 (Fail)
//Storyboard Layer 2 (Pass)
//Storyboard Layer 3 (Foreground)
//Storyboard Layer 4 (Overlay)
//Storyboard Sound Samples

[TimingPoints]
354,314.13612565445,4,1,0,50,1,0
354,-125,4,1,0,50,0,0
5223,-100,4,1,0,80,0,0
15432,-111.111111111111,4,1,0,80,0,0
25327,-100,4,1,0,80,0,0
35694,-125,4,1,0,80,0,0
44487,-121.212121212121,4,1,0,80,0,0
44565,-119.414337326488,4,1,0,80,0,0
44644,-117.647058823529,4,1,0,80,0,0
44801,-114.285714285714,4,1,0,80,0,0
44958,-111.111111111111,4,1,0,80,0,0
45115,-108.108108108108,4,1,0,80,0,0
45193,-106.675726176321,4,1,0,80,0,0
45272,-105.263157894737,4,1,0,80,0,0
45350,-103.904698874917,4,1,0,80,0,0
45429,-102.564102564103,4,1,0,80,0,0
45508,-101.257658819736,4,1,0,80,0,0
45586,-100,4,1,0,80,0,0
52968,-97.8275909782759,4,1,0,80,0,0
53047,-96.7697782644402,4,1,0,80,0,0
53125,-95.7475622968581,4,1,0,80,0,0
53204,-94.7340211711108,4,1,0,80,0,0
53282,-93.7541440127304,4,1,0,80,0,0
53361,-92.7821522309711,4,1,0,80,0,0
53440,-91.8301078062086,4,1,0,80,0,0
53518,-90.9090909090909,4,1,0,80,0,0
53597,-89.9949083503055,4,1,0,80,0,0
53675,-89.110158810184,4,1,0,80,0,0
53754,-88.2316236116311,4,1,0,80,0,0
53832,-87.3810406624645,4,1,0,80,0,0
53911,-86.5361077111383,4,1,0,80,0,0
53989,-85.717749757517,4,1,0,80,0,0
54068,-84.904527440855,4,1,0,80,0,0
54225,-83.3333333333333,4,1,0,80,0,0
55484,-100,4,1,0,90,0,1
64280,-83.3333333333333,4,1,0,90,0,1
65537,-83.3333333333333,4,1,0,90,0,0
65694,-125,4,1,0,70,0,0
69460,-121.623946327198,4,1,0,80,0,0
69539,-119.993211133741,4,1,0,80,0,0
69618,-118.405627198124,4,1,0,80,0,0
69696,-116.878822945941,4,1,0,80,0,0
69775,-115.372062663185,4,1,0,80,0,0
69853,-113.922010957138,4,1,0,80,0,0
69932,-112.490055688146,4,1,0,80,0,0
70010,-111.111111111111,4,1,0,80,0,0
70089,-109.748525302701,4,1,0,80,0,0
70167,-108.435582822086,4,1,0,80,0,0
70246,-107.137445067434,4,1,0,80,0,0
70324,-105.885876890819,4,1,0,80,0,0
70403,-104.647720544701,4,1,0,80,0,0
70481,-103.453321627158,4,1,0,80,0,0
70560,-102.271083465934,4,1,0,80,0,0
70720,-100,4,1,0,90,0,1
73073,-98.8376397423558,4,1,0,90,0,1
73152,-98.2629177094067,4,1,0,90,0,1
73230,-97.7019906323185,4,1,0,90,0,1
73309,-97.1403623662956,4,1,0,90,0,1
73387,-96.5921423920122,4,1,0,90,0,1
73466,-96.0431654676259,4,1,0,90,0,1
73544,-95.5072256402919,4,1,0,90,0,1
73623,-94.9704773422494,4,1,0,90,0,1
73701,-94.4464096215069,4,1,0,90,0,1
73780,-93.9214858590123,4,1,0,90,0,1
73858,-93.408900083963,4,1,0,90,0,1
73937,-92.8954143761742,4,1,0,90,0,1
74015,-92.3939372966987,4,1,0,90,0,1
74094,-91.8915198237885,4,1,0,90,0,1
74172,-91.4007941941668,4,1,0,90,0,1
74251,-90.9090909090909,4,1,0,90,0,1
74330,-90.4226496884313,4,1,0,90,0,1
74408,-89.9474464357903,4,1,0,90,0,1
74487,-89.4712150660144,4,1,0,90,0,1
74565,-89.0059337289153,4,1,0,90,0,1
74644,-88.5395941106248,4,1,0,90,0,1
74722,-88.0839271575614,4,1,0,90,0,1
74801,-87.6271742697735,4,1,0,90,0,1
74879,-87.1808267485143,4,1,0,90,0,1
74958,-86.733367983368,4,1,0,90,0,1
75036,-86.2960568842922,4,1,0,90,0,1
75115,-85.8576114219564,4,1,0,90,0,1
75193,-85.4290650796698,4,1,0,90,0,1
75272,-84.9993633006494,4,1,0,90,0,1
75350,-84.5793208312215,4,1,0,90,0,1
75429,-84.1581037634748,4,1,0,90,0,1
75589,-83.3333333333333,4,1,0,90,0,0
75746,-100,4,1,0,80,0,0
82026,-101.26582278481,4,1,0,80,0,0
82104,-101.906693711968,4,1,0,80,0,0
82183,-102.564102564103,4,1,0,80,0,0
82261,-103.221564760026,4,1,0,80,0,0
82340,-103.896103896104,4,1,0,80,0,0
82419,-104.579517069109,4,1,0,80,0,0
82497,-105.263157894737,4,1,0,80,0,0
82576,-105.964734666329,4,1,0,80,0,0
82654,-106.666666666667,4,1,0,80,0,0
82733,-107.387140902873,4,1,0,80,0,0
82811,-108.108108108108,4,1,0,80,0,0
82890,-108.848253748158,4,1,0,80,0,0
82968,-109.58904109589,4,1,0,80,0,0
83125,-100,4,1,0,80,0,0
90979,-97.5619225095116,4,1,0,80,0,0
91057,-96.9746083198271,4,1,0,80,0,0
91136,-96.3869285056766,4,1,0,80,0,0
91214,-95.8136342839713,4,1,0,80,0,0
91293,-95.2398999469416,4,1,0,80,0,0
91371,-94.6801296059076,4,1,0,80,0,0
91450,-94.1198501872659,4,1,0,80,0,0
91529,-93.5661627820389,4,1,0,80,0,0
91607,-93.0258384541349,4,1,0,80,0,0
91686,-92.48491093773,4,1,0,80,0,0
91764,-91.9569672131148,4,1,0,80,0,0
91843,-91.4283635305246,4,1,0,80,0,0
91921,-90.9123797120324,4,1,0,80,0,0
92000,-90.3956834532374,4,1,0,80,0,0
92078,-89.8912576906568,4,1,0,80,0,0
92157,-89.3860709966565,4,1,0,80,0,0
92235,-88.8928192430138,4,1,0,80,0,0
92314,-88.3987617841565,4,1,0,80,0,0
92392,-87.9163168205989,4,1,0,80,0,0
92471,-87.4330248416951,4,1,0,80,0,0
92549,-86.9610353657692,4,1,0,80,0,0
92628,-86.4881607929515,4,1,0,80,0,0
92707,-86.0204011775176,4,1,0,80,0,0
92785,-85.5635001702418,4,1,0,80,0,0
92864,-85.1056624221078,4,1,0,80,0,0
92942,-84.6584018326371,4,1,0,80,0,0
93021,-84.2101735808592,4,1,0,80,0,0
93178,-83.3333333333333,4,1,0,80,0,0
93338,-125,4,1,0,70,0,0
101031,-100,4,1,0,80,0,0
101110,-100.844829430007,4,1,0,80,0,0
101188,-101.693087458212,4,1,0,80,0,0
101267,-102.566891450946,4,1,0,80,0,0
101345,-103.444493198771,4,1,0,80,0,0
101424,-104.348788314706,4,1,0,80,0,0
101502,-105.257283178926,4,1,0,80,0,0
101581,-106.193693693694,4,1,0,80,0,0
101659,-107.134742104067,4,1,0,80,0,0
101738,-108.105009744354,4,1,0,80,0,0
101816,-109.08039329092,4,1,0,80,0,0
101974,-111.111111111111,4,1,0,80,0,0
103233,-100,4,1,0,80,0,0
107788,-83.3333333333333,4,1,0,80,0,0
108573,-100,4,1,0,80,0,0
113443,-83.3333333333333,4,1,0,80,0,0
114228,-100,4,1,0,90,0,1
114385,314.13612565445,4,1,0,90,1,1
123023,-83.3333333333333,4,1,0,90,0,1
124280,-83.3333333333333,4,1,0,90,0,0
124437,-125,4,1,0,70,0,0
128203,-121.623946327198,4,1,0,80,0,0
128282,-119.993211133741,4,1,0,80,0,0
128361,-118.405627198124,4,1,0,80,0,0
128439,-116.878822945941,4,1,0,80,0,0
128518,-115.372062663185,4,1,0,80,0,0
128596,-113.922010957138,4,1,0,80,0,0
128675,-112.490055688146,4,1,0,80,0,0
128753,-111.111111111111,4,1,0,80,0,0
128832,-109.748525302701,4,1,0,80,0,0
128910,-108.435582822086,4,1,0,80,0,0
128989,-107.137445067434,4,1,0,80,0,0
129067,-105.885876890819,4,1,0,80,0,0
129146,-104.647720544701,4,1,0,80,0,0
129224,-103.453321627158,4,1,0,80,0,0
129303,-102.271083465934,4,1,0,80,0,0
129463,-100,4,1,0,90,0,1
131816,-98.8449577965349,4,1,0,90,0,1
131895,-98.2701509017299,4,1,0,90,0,1
131973,-97.7091414769816,4,1,0,90,0,1
132131,-96.5921423920122,4,1,0,90,0,1
132288,-95.5072256402919,4,1,0,90,0,1
132366,-94.977233921457,4,1,0,90,0,1
132445,-94.4464096215069,4,1,0,90,0,1
132523,-93.9280939984521,4,1,0,90,0,1
132601,-93.4154362885732,4,1,0,90,0,1
132758,-92.4003322259136,4,1,0,90,0,1
132916,-91.4007941941668,4,1,0,90,0,1
133020,-90.7545887151598,4,1,0,90,0,1
133125,-90.1113736078299,4,1,0,90,0,1
133231,-89.4712150660144,4,1,0,90,0,1
133334,-88.8578274760383,4,1,0,90,0,1
133439,-88.2411263137022,4,1,0,90,0,1
133545,-87.6271742697735,4,1,0,90,0,1
133702,-86.733367983368,4,1,0,90,0,1
133859,-85.8576114219564,4,1,0,90,0,1
133937,-85.4290650796698,4,1,0,90,0,1
134016,-84.9993633006494,4,1,0,90,0,1
134094,-84.5793208312215,4,1,0,90,0,1
134173,-84.1581037634748,4,1,0,90,0,1
134332,-83.3333333333333,4,1,0,90,0,0
134803,-100,4,1,0,80,0,0
143387,-101.699029126214,4,1,0,80,0,0
143491,-103.439763001975,4,1,0,80,0,0
143596,-105.258750628036,4,1,0,80,0,0
143701,-107.142857142857,4,1,0,80,0,0
143806,-109.095643117514,4,1,0,80,0,0
143910,-111.101290436627,4,1,0,80,0,0
144015,-113.202449567723,4,1,0,80,0,0
144120,-115.384615384615,4,1,0,80,0,0
144224,-117.630544637844,4,1,0,80,0,0
144539,-125,4,1,0,70,0,0
149565,-111.111111111111,4,1,0,70,0,0
149879,-108.844421344421,4,1,0,70,0,0
150036,-107.745406992947,4,1,0,70,0,0
150193,-106.668364531602,4,1,0,70,0,0
150350,-105.612641576835,4,1,0,70,0,0
150507,-104.577611319184,4,1,0,70,0,0
150664,-103.562671282273,4,1,0,70,0,0
150821,-102.567242153381,4,1,0,70,0,0
150978,-101.590766680816,4,1,0,70,0,0
151135,-100.63270863367,4,1,0,70,0,0
151292,-99.6925518198949,4,1,0,70,0,0
151450,-98.7639764978679,4,1,0,70,0,0
151607,-97.8582554517134,4,1,0,70,0,0
151764,-96.96899538886,4,1,0,70,0,0
151921,-96.0957515964973,4,1,0,70,0,0
152078,-95.2380952380952,4,1,0,80,0,0
152156,-94.817665591337,4,1,0,80,0,0
152235,-94.3956126511907,4,1,0,80,0,0
152313,-93.9825722727103,4,1,0,80,0,0
152392,-93.5679046821186,4,1,0,80,0,0
152471,-93.1568801897983,4,1,0,80,0,0
152549,-92.7545860554387,4,1,0,80,0,0
152628,-92.3506605663047,4,1,0,80,0,0
152706,-91.9552847759665,4,1,0,80,0,0
152785,-91.5582759500128,4,1,0,80,0,0
152863,-91.169641561457,4,1,0,80,0,0
152942,-90.7793732502484,4,1,0,80,0,0
153020,-90.3973093041242,4,1,0,80,0,0
153099,-90.013611290207,4,1,0,80,0,0
153177,-89.6379525593009,4,1,0,80,0,0
153256,-89.260660308665,4,1,0,80,0,0
153334,-88.8912470596558,4,1,0,80,0,0
153413,-88.5202014864912,4,1,0,80,0,0
153491,-88.1568792534905,4,1,0,80,0,0
153570,-87.7919264965327,4,1,0,80,0,0
153649,-87.429982952371,4,1,0,80,0,0
153727,-87.0755370755371,4,1,0,80,0,0
153806,-86.7194644305261,4,1,0,80,0,0
153884,-86.3707446168652,4,1,0,80,0,0
153963,-86.0204011775176,4,1,0,80,0,0
154041,-85.6772697828236,4,1,0,80,0,0
154120,-85.3325183789198,4,1,0,80,0,0
154198,-84.994842135525,4,1,0,80,0,0
154277,-84.6555499410477,4,1,0,80,0,0
154355,-84.3231997852493,4,1,0,80,0,0
154434,-83.9892381477582,4,1,0,80,0,0
154591,-83.3333333333333,4,1,0,80,0,0
154751,-111.111111111111,4,1,0,70,0,0
158992,-90.9090909090908,4,1,0,70,0,0
159777,-111.111111111111,4,1,0,70,0,0
162444,-108.109270810927,4,1,0,70,0,0
162601,-106.668364531602,4,1,0,70,0,0
162758,-105.265362543459,4,1,0,70,0,0
162916,-103.890198023895,4,1,0,70,0,0
163073,-102.558870342407,4,1,0,70,0,0
163230,-101.261232219849,4,1,0,70,0,0
163308,-100.628678973291,4,1,0,70,0,0
163387,-99.9960208507421,4,1,0,70,0,0
163465,-99.37912761498,4,1,0,70,0,0
163544,-98.7620357634113,4,1,0,70,0,0
163622,-98.1602281160892,4,1,0,70,0,0
163701,-97.5581350207694,4,1,0,70,0,0
163779,-96.9708662936523,4,1,0,70,0,0
163858,-96.3832316956238,4,1,0,70,0,0
163936,-95.809981318388,4,1,0,70,0,0
164015,-95.2362905976428,4,1,0,70,0,0
164094,-94.6694292710492,4,1,0,70,0,0
164172,-94.1163252312648,4,1,0,70,0,0
164251,-93.5626791764399,4,1,0,70,0,0
164329,-93.0223949657598,4,1,0,70,0,0
164408,-92.4815073786479,4,1,0,70,0,0
164486,-91.9536024003805,4,1,0,70,0,0
164565,-91.4250372903554,4,1,0,70,0,0
164646,-90.9090909090909,4,1,0,80,0,1
172025,-91.5029960053262,4,1,0,80,0,1
172104,-91.80478436939,4,1,0,80,0,1
172183,-92.1085699924604,4,1,0,80,0,1
172261,-92.4104891578417,4,1,0,80,0,1
172340,-92.7183033267277,4,1,0,80,0,1
172418,-93.0242396040442,4,1,0,80,0,1
172497,-93.3361629881154,4,1,0,80,0,1
172575,-93.6461970871306,4,1,0,80,0,1
172654,-93.9623125240354,4,1,0,80,0,1
172732,-94.2765273311897,4,1,0,80,0,1
172811,-94.5969199001979,4,1,0,80,0,1
172889,-94.9154005524862,4,1,0,80,0,1
172968,-95.2401576508294,4,1,0,80,0,1
173046,-95.562991612707,4,1,0,80,0,1
173125,-95.8922030350602,4,1,0,80,0,1
173203,-96.2194801785245,4,1,0,80,0,1
173282,-96.5532381997805,4,1,0,80,0,1
173361,-96.8893197039126,4,1,0,80,0,1
173439,-97.2234503492793,4,1,0,80,0,1
173518,-97.5642220151737,4,1,0,80,0,1
173596,-97.9030319219981,4,1,0,80,0,1
173675,-98.2485926190689,4,1,0,80,0,1
173753,-98.5921807747489,4,1,0,80,0,1
173832,-98.9426321709786,4,1,0,80,0,1
173910,-99.2911003747686,4,1,0,80,0,1
173989,-99.6465470364329,4,1,0,80,0,1
174067,-66.6666666666667,4,1,0,80,0,1
175798,-50,4,1,0,90,0,0
175955,314.13612565445,10,1,0,20,1,0
175955,-50,4,1,0,20,0,0
178939,-100,4,1,0,90,0,1
179096,314.13612565445,4,1,0,90,1,1
187734,-83.3333333333333,4,1,0,90,0,1
188991,-83.3333333333333,4,1,0,90,0,0
189148,-125,4,1,0,70,0,0
193073,-121.171257946446,4,1,0,80,0,0
193151,-119.377490985007,4,1,0,80,0,0
193230,-117.614061331339,4,1,0,80,0,0
193308,-115.923332104681,4,1,0,80,0,0
193387,-114.259763851044,4,1,0,80,0,0
193465,-112.663442593588,4,1,0,80,0,0
193544,-111.091487107029,4,1,0,80,0,0
193622,-109.581881533101,4,1,0,80,0,0
193701,-108.094174256745,4,1,0,80,0,0
193779,-106.664405629981,4,1,0,80,0,0
193858,-105.254350736278,4,1,0,80,0,0
193936,-103.89824909151,4,1,0,80,0,0
194015,-102.559921734877,4,1,0,80,0,0
194174,-100,4,1,0,90,0,1
196527,-98.7736813143621,4,1,0,90,0,1
196606,-98.1640625,4,1,0,90,0,1
196685,-97.5619225095116,4,1,0,90,0,1
196764,-96.9671245562587,4,1,0,90,0,1
196842,-96.3869285056766,4,1,0,90,0,1
196921,-95.8063286313382,4,1,0,90,0,1
196999,-95.2398999469416,4,1,0,90,0,1
197078,-94.6729957805907,4,1,0,90,0,1
197156,-94.1198501872659,4,1,0,90,0,1
197235,-93.5661627820389,4,1,0,90,0,1
197313,-93.0258384541349,4,1,0,90,0,1
197392,-92.48491093773,4,1,0,90,0,1
197470,-91.9569672131148,4,1,0,90,0,1
197548,-91.4350167370106,4,1,0,90,0,1
197627,-90.9123797120324,4,1,0,90,0,1
197706,-90.3956834532374,4,1,0,90,0,1
197785,-89.8848272408613,4,1,0,90,0,1
197862,-89.3924302788845,4,1,0,90,0,1
197941,-88.8928192430138,4,1,0,90,0,1
198020,-88.3987617841565,4,1,0,90,0,1
198099,-87.9101658154341,4,1,0,90,0,1
198177,-87.4330248416951,4,1,0,90,0,1
198256,-86.9550173010381,4,1,0,90,0,1
198334,-86.4881607929515,4,1,0,90,0,1
198413,-86.0204011775176,4,1,0,90,0,1
198491,-85.5635001702418,4,1,0,90,0,1
198570,-85.1056624221078,4,1,0,90,0,1
198647,-84.6641061923051,4,1,0,90,0,1
198727,-84.2101735808592,4,1,0,90,0,1
198805,-83.7722514834322,4,1,0,90,0,1
198884,-83.3333333333333,4,1,0,90,0,1
199043,-83.3333333333333,4,1,0,90,0,0
199200,-100,4,1,0,80,0,0
205479,-101.26582278481,4,1,0,80,0,0
205557,-101.906693711968,4,1,0,80,0,0
205636,-102.564102564103,4,1,0,80,0,0
205714,-103.221564760026,4,1,0,80,0,0
205793,-103.896103896104,4,1,0,80,0,0
205872,-104.579517069109,4,1,0,80,0,0
205950,-105.263157894737,4,1,0,80,0,0
206029,-105.964734666329,4,1,0,80,0,0
206107,-106.666666666667,4,1,0,80,0,0
206186,-107.387140902873,4,1,0,80,0,0
206264,-108.108108108108,4,1,0,80,0,0
206343,-108.848253748158,4,1,0,80,0,0
206421,-109.58904109589,4,1,0,80,0,0
206579,-100,4,1,0,80,0,0
211998,-99.6700228445723,4,1,0,80,0,0
212077,-99.3380275751571,4,1,0,80,0,0
212155,-99.0123975625131,4,1,0,80,0,0
212234,-98.6847616654101,4,1,0,80,0,0
212312,-98.3633934535738,4,1,0,80,0,0
212391,-98.0400316258167,4,1,0,80,0,0
212469,-97.7228420921648,4,1,0,80,0,0
212548,-97.4036712419382,4,1,0,80,0,0
212627,-97.0865784810648,4,1,0,80,0,0
212705,-96.7755185869788,4,1,0,80,0,0
212784,-96.4624959056666,4,1,0,80,0,0
212862,-96.1554158844176,4,1,0,80,0,0
212941,-95.8463854196331,4,1,0,80,0,0
213019,-95.5432093758871,4,1,0,80,0,0
213098,-95.2380952380952,4,1,0,80,0,0
213176,-94.9387491940683,4,1,0,80,0,0
213255,-94.6374774051014,4,1,0,80,0,0
213333,-94.3418892403796,4,1,0,80,0,0
213412,-94.0443876736388,4,1,0,80,0,0
213490,-93.7524870672503,4,1,0,80,0,0
213569,-93.4586853901384,4,1,0,80,0,0
213647,-93.1704037647803,4,1,0,80,0,0
213726,-92.8802333832689,4,1,0,80,0,0
213805,-92.5918648064453,4,1,0,80,0,0
213883,-92.308897856835,4,1,0,80,0,0
213962,-92.024060620264,4,1,0,80,0,0
214040,-91.7445482866044,4,1,0,80,0,0
214119,-91.4631779183975,4,1,0,80,0,0
214197,-91.1870573208964,4,1,0,80,0,0
214276,-90.9090909090909,4,1,0,80,0,0
214354,-90.6363006847734,4,1,0,80,0,0
214433,-90.3616768304376,4,1,0,80,0,0
214511,-90.0921570876831,4,1,0,80,0,0
214590,-89.8208158597026,4,1,0,80,0,0
214668,-89.5545081344078,4,1,0,80,0,0
214747,-89.286391025884,4,1,0,80,0,0
214825,-89.0232382391838,4,1,0,80,0,0
214904,-88.7582881253767,4,1,0,80,0,0
214983,-88.4949104158059,4,1,0,80,0,0
215061,-88.2363956406127,4,1,0,80,0,0
215140,-87.9761015683346,4,1,0,80,0,0
215218,-87.7206046615534,4,1,0,80,0,0
215297,-87.4633403868285,4,1,0,80,0,0
215375,-87.2108088099204,4,1,0,80,0,0
215454,-86.9565217391304,4,1,0,80,0,0
215532,-86.7069041660533,4,1,0,80,0,0
215611,-86.4555429158563,4,1,0,80,0,0
215689,-86.2087891982875,4,1,0,80,0,0
215768,-85.9603035610041,4,1,0,80,0,0
215846,-85.7163646947537,4,1,0,80,0,0
215925,-85.4707056049338,4,1,0,80,0,0
216003,-85.2295336975003,4,1,0,80,0,0
216082,-84.9866531996249,4,1,0,80,0,0
216161,-84.7451530520485,4,1,0,80,0,0
216239,-84.5080526561211,4,1,0,80,0,0
216318,-84.2692610344088,4,1,0,80,0,0
216396,-84.0348123840776,4,1,0,80,0,0
216475,-83.798683976525,4,1,0,80,0,0
216632,-66.6666666666667,4,1,0,80,0,0
219148,-50,4,1,0,80,0,0

[HitObjects]
261,190,354,5,0,0:0:0:0:
261,190,511,1,0,0:0:0:0:
261,190,668,1,8,0:0:0:0:
261,190,825,1,8,0:0:0:0:
263,178,903,1,8,0:0:0:0:
261,190,982,1,0,0:0:0:0:
261,190,1139,1,0,0:0:0:0:
261,190,1296,1,8,0:0:0:0:
261,190,1453,1,0,0:0:0:0:
239,177,1532,1,8,0:0:0:0:
261,190,1610,1,0,0:0:0:0:
256,209,1767,1,0,0:0:0:0:
256,209,1924,1,8,0:0:0:0:
267,189,2081,1,0,0:0:0:0:
267,189,2160,1,0,0:0:0:0:
261,190,2238,1,8,0:0:0:0:
261,190,2395,1,0,0:0:0:0:
261,190,2552,1,8,0:0:0:0:
234,188,2710,1,8,0:0:0:0:
261,190,2788,1,8,0:0:0:0:
261,190,2867,1,0,0:0:0:0:
241,184,3024,1,0,0:0:0:0:
241,184,3181,1,8,0:0:0:0:
241,184,3338,1,0,0:0:0:0:
270,180,3416,1,8,0:0:0:0:
270,180,3495,1,0,0:0:0:0:
241,183,3652,1,0,0:0:0:0:
241,183,3809,1,8,0:0:0:0:
269,191,3966,1,0,0:0:0:0:
269,191,4045,1,0,0:0:0:0:
241,184,4123,1,8,0:0:0:0:
241,184,4202,1,0,0:0:0:0:
241,184,4280,1,8,0:0:0:0:
241,183,4359,1,8,0:0:0:0:
241,183,4437,1,0,0:0:0:0:
269,191,4516,1,0,0:0:0:0:
241,183,4594,1,8,0:0:0:0:
239,177,5223,1,4,0:0:0:0:
241,183,5537,1,0,0:0:0:0:
239,177,5694,1,8,0:0:0:0:
239,177,5772,1,8,0:0:0:0:
231,178,5851,1,0,0:0:0:0:
239,177,6008,1,8,0:0:0:0:
239,177,6165,1,0,0:0:0:0:
236,133,6244,1,0,0:0:0:0:
241,183,6322,1,8,0:0:0:0:
241,183,6479,1,0,0:0:0:0:
239,177,6636,1,8,0:0:0:0:
239,177,6715,1,0,0:0:0:0:
239,177,6793,1,0,0:0:0:0:
229,116,6872,1,0,0:0:0:0:
239,177,6950,1,8,0:0:0:0:
239,177,7107,1,0,0:0:0:0:
241,183,7264,1,8,0:0:0:0:
241,183,7422,1,0,0:0:0:0:
231,131,7500,1,0,0:0:0:0:
241,183,7579,1,8,0:0:0:0:
239,177,7736,1,8,0:0:0:0:
227,185,7814,1,8,0:0:0:0:
227,185,7893,1,0,0:0:0:0:
231,178,8050,1,0,0:0:0:0:
231,178,8207,1,8,0:0:0:0:
238,170,8285,1,0,0:0:0:0:
241,183,8364,1,8,0:0:0:0:
238,170,8521,1,0,0:0:0:0:
239,177,8678,1,0,0:0:0:0:
232,135,8757,1,0,0:0:0:0:
238,170,8835,1,8,0:0:0:0:
238,170,8992,1,0,0:0:0:0:
238,170,9149,1,8,0:0:0:0:
238,170,9228,1,0,0:0:0:0:
245,182,9306,1,8,0:0:0:0:
232,135,9385,1,0,0:0:0:0:
245,182,9463,1,8,0:0:0:0:
245,182,9621,1,0,0:0:0:0:
238,170,9778,1,8,0:0:0:0:
238,170,9856,1,8,0:0:0:0:
238,170,9935,1,8,0:0:0:0:
238,170,10013,1,8,0:0:0:0:
238,170,10092,1,8,0:0:0:0:
234,148,10170,1,8,0:0:0:0:
239,177,10249,1,4,0:0:0:0:
241,183,10563,1,0,0:0:0:0:
239,177,10720,1,8,0:0:0:0:
239,177,10799,1,8,0:0:0:0:
231,178,10877,1,0,0:0:0:0:
243,34,10956,1,0,0:0:0:0:
239,177,11034,1,8,0:0:0:0:
239,177,11191,1,0,0:0:0:0:
268,131,11270,1,0,0:0:0:0:
241,183,11348,1,8,0:0:0:0:
241,183,11505,1,0,0:0:0:0:
239,177,11662,1,8,0:0:0:0:
239,177,11741,1,0,0:0:0:0:
239,177,11819,1,0,0:0:0:0:
236,173,11898,1,0,0:0:0:0:
239,177,11977,1,8,0:0:0:0:
232,112,12055,1,8,0:0:0:0:
239,177,12134,1,0,0:0:0:0:
241,183,12291,1,8,0:0:0:0:
241,183,12448,1,0,0:0:0:0:
241,183,12526,1,0,0:0:0:0:
241,183,12605,1,8,0:0:0:0:
239,177,12762,1,8,0:0:0:0:
213,143,12840,1,8,0:0:0:0:
213,143,12919,1,0,0:0:0:0:
231,178,13076,1,0,0:0:0:0:
231,178,13233,1,8,0:0:0:0:
238,170,13312,1,0,0:0:0:0:
241,183,13390,1,8,0:0:0:0:
241,183,13469,1,8,0:0:0:0:
238,170,13547,1,0,0:0:0:0:
239,177,13704,1,0,0:0:0:0:
236,94,13783,1,0,0:0:0:0:
238,170,13861,1,8,0:0:0:0:
238,181,14018,1,0,0:0:0:0:
238,181,14097,1,0,0:0:0:0:
238,170,14175,1,8,0:0:0:0:
238,181,14254,1,8,0:0:0:0:
238,181,14333,1,0,0:0:0:0:
237,169,14411,1,0,0:0:0:0:
245,182,14490,1,8,0:0:0:0:
243,180,14568,1,0,0:0:0:0:
245,182,14647,1,0,0:0:0:0:
239,177,14725,1,0,0:0:0:0:
238,170,14804,1,8,0:0:0:0:
238,170,14882,1,0,0:0:0:0:
238,170,14961,1,8,0:0:0:0:
252,171,15039,1,0,0:0:0:0:
238,170,15118,1,8,0:0:0:0:
238,170,15275,1,4,0:0:0:0:
236,174,15589,1,0,0:0:0:0:
238,170,15746,1,8,0:0:0:0:
238,170,16060,1,8,0:0:0:0:
240,129,16217,1,0,0:0:0:0:
236,174,16374,1,8,0:0:0:0:
239,177,16689,1,8,0:0:0:0:
240,129,16846,1,0,0:0:0:0:
238,170,17003,1,8,0:0:0:0:
236,174,17160,1,0,0:0:0:0:
219,151,17238,1,0,0:0:0:0:
234,163,17317,1,8,0:0:0:0:
239,177,17474,1,0,0:0:0:0:
239,177,17631,1,8,0:0:0:0:
238,170,17788,1,0,0:0:0:0:
236,174,17945,1,8,0:0:0:0:
236,174,18259,1,8,0:0:0:0:
239,177,18573,1,8,0:0:0:0:
243,161,18730,1,0,0:0:0:0:
236,174,18888,1,8,0:0:0:0:
243,161,19045,1,0,0:0:0:0:
236,174,19202,1,8,0:0:0:0:
239,177,19516,1,8,0:0:0:0:
238,170,19673,1,0,0:0:0:0:
236,174,19830,1,8,0:0:0:0:
236,174,19987,1,0,0:0:0:0:
236,174,20066,1,0,0:0:0:0:
236,174,20144,1,8,0:0:0:0:
239,177,20301,1,0,0:0:0:0:
238,170,20458,1,8,0:0:0:0:
236,174,20772,1,8,0:0:0:0:
215,117,20929,1,0,0:0:0:0:
234,163,21086,1,8,0:0:0:0:
243,161,21244,1,0,0:0:0:0:
230,174,21401,1,8,0:0:0:0:
236,174,21715,1,8,0:0:0:0:
243,161,21872,1,0,0:0:0:0:
236,174,22029,1,8,0:0:0:0:
230,174,22186,1,0,0:0:0:0:
221,136,22264,1,0,0:0:0:0:
230,174,22343,1,8,0:0:0:0:
230,174,22500,1,0,0:0:0:0:
236,174,22657,1,8,0:0:0:0:
236,174,22814,1,0,0:0:0:0:
236,174,22971,1,8,0:0:0:0:
230,174,23285,1,8,0:0:0:0:
230,174,23443,1,0,0:0:0:0:
230,174,23521,1,0,0:0:0:0:
236,174,23600,1,8,0:0:0:0:
241,168,23678,1,0,0:0:0:0:
241,168,23757,1,0,0:0:0:0:
241,168,23835,1,0,0:0:0:0:
241,168,23914,1,8,0:0:0:0:
230,174,24071,1,12,0:0:0:0:
256,192,24228,12,0,25170,0:0:0:0:
241,177,25327,5,4,0:0:0:0:
241,177,25641,1,8,0:0:0:0:
241,177,25799,1,8,0:0:0:0:
254,167,25877,1,8,0:0:0:0:
244,158,25956,1,0,0:0:0:0:
249,182,26113,1,8,0:0:0:0:
245,170,26270,1,0,0:0:0:0:
237,168,26348,1,0,0:0:0:0:
245,189,26427,1,8,0:0:0:0:
245,189,26584,1,0,0:0:0:0:
245,189,26741,1,8,0:0:0:0:
253,180,26819,1,0,0:0:0:0:
249,182,26898,1,8,0:0:0:0:
266,188,26977,1,0,0:0:0:0:
252,177,27055,1,8,0:0:0:0:
252,177,27212,1,0,0:0:0:0:
245,189,27369,1,8,0:0:0:0:
245,189,27526,1,0,0:0:0:0:
239,178,27605,1,0,0:0:0:0:
245,189,27683,1,8,0:0:0:0:
230,145,27762,1,0,0:0:0:0:
245,189,27840,1,8,0:0:0:0:
208,151,27919,1,8,0:0:0:0:
208,151,27997,1,0,0:0:0:0:
255,143,28155,1,0,0:0:0:0:
222,139,28233,1,0,0:0:0:0:
245,189,28312,1,8,0:0:0:0:
245,164,28469,1,0,0:0:0:0:
243,196,28626,1,8,0:0:0:0:
245,164,28704,1,0,0:0:0:0:
243,196,28783,1,8,0:0:0:0:
243,188,28940,1,0,0:0:0:0:
250,175,29097,1,8,0:0:0:0:
250,175,29254,1,0,0:0:0:0:
222,139,29333,1,8,0:0:0:0:
243,188,29411,1,0,0:0:0:0:
245,177,29490,1,0,0:0:0:0:
243,188,29568,1,8,0:0:0:0:
243,188,29725,1,0,0:0:0:0:
243,188,29882,1,8,0:0:0:0:
245,182,29961,1,0,0:0:0:0:
243,188,30039,1,8,0:0:0:0:
246,159,30118,1,8,0:0:0:0:
245,189,30196,1,0,0:0:0:0:
244,154,30275,1,0,0:0:0:0:
243,188,30353,1,8,0:0:0:0:
255,195,30511,1,4,0:0:0:0:
255,195,30825,1,8,0:0:0:0:
255,195,30982,1,0,0:0:0:0:
255,195,31060,1,0,0:0:0:0:
255,195,31139,1,8,0:0:0:0:
255,195,31296,1,0,0:0:0:0:
255,195,31453,1,8,0:0:0:0:
224,170,31610,1,8,0:0:0:0:
224,170,31689,1,0,0:0:0:0:
207,48,31767,1,8,0:0:0:0:
207,33,31846,1,8,0:0:0:0:
245,182,31924,1,0,0:0:0:0:
245,182,32081,1,8,0:0:0:0:
245,182,32238,1,0,0:0:0:0:
245,182,32395,1,8,0:0:0:0:
245,182,32474,1,0,0:0:0:0:
245,182,32552,1,8,0:0:0:0:
243,157,32631,1,0,0:0:0:0:
245,182,32710,1,8,0:0:0:0:
244,154,32788,1,8,0:0:0:0:
221,156,32867,1,0,0:0:0:0:
245,182,33024,1,8,0:0:0:0:
245,182,33181,1,0,0:0:0:0:
245,182,33259,1,0,0:0:0:0:
245,182,33338,1,8,0:0:0:0:
245,182,33495,1,0,0:0:0:0:
245,182,33652,1,8,0:0:0:0:
254,182,33730,1,8,0:0:0:0:
245,182,33809,1,0,0:0:0:0:
252,185,33888,1,0,0:0:0:0:
245,182,33966,1,8,0:0:0:0:
242,173,34123,1,0,0:0:0:0:
245,182,34280,1,8,0:0:0:0:
245,182,34437,1,0,0:0:0:0:
245,182,34516,1,0,0:0:0:0:
245,182,34594,1,8,0:0:0:0:
245,182,34673,1,0,0:0:0:0:
245,182,34751,1,0,0:0:0:0:
259,189,34830,1,0,0:0:0:0:
259,189,34908,1,8,0:0:0:0:
259,189,34987,1,8,0:0:0:0:
259,189,35066,1,0,0:0:0:0:
259,189,35144,1,0,0:0:0:0:
259,189,35223,1,8,0:0:0:0:
259,189,35301,1,0,0:0:0:0:
259,189,35380,1,0,0:0:0:0:
234,148,35458,1,0,0:0:0:0:
245,182,35537,1,12,0:0:0:0:
245,182,35851,1,0,0:0:0:0:
259,189,36008,1,0,0:0:0:0:
245,182,36165,1,8,0:0:0:0:
275,145,36322,1,0,0:0:0:0:
254,189,36479,1,8,0:0:0:0:
254,189,36636,1,0,0:0:0:0:
254,189,36793,1,8,0:0:0:0:
249,182,36950,1,8,0:0:0:0:
254,189,37107,1,0,0:0:0:0:
259,189,37264,1,0,0:0:0:0:
254,189,37422,1,8,0:0:0:0:
279,145,37579,1,0,0:0:0:0:
237,173,37736,1,8,0:0:0:0:
245,182,37893,1,8,0:0:0:0:
245,182,37971,1,8,0:0:0:0:
245,182,38050,1,0,0:0:0:0:
245,182,38364,1,0,0:0:0:0:
254,189,38521,1,0,0:0:0:0:
254,189,38678,1,8,0:0:0:0:
264,162,38835,1,0,0:0:0:0:
254,189,38992,1,0,0:0:0:0:
254,189,39149,1,0,0:0:0:0:
245,182,39306,1,8,0:0:0:0:
235,176,39463,1,8,0:0:0:0:
247,175,39621,1,0,0:0:0:0:
254,189,39778,1,8,0:0:0:0:
235,176,39935,1,0,0:0:0:0:
235,176,40092,1,8,0:0:0:0:
235,176,40249,1,0,0:0:0:0:
245,182,40406,1,0,0:0:0:0:
257,185,40484,1,8,0:0:0:0:
245,182,40563,1,0,0:0:0:0:
251,178,40877,1,8,0:0:0:0:
245,182,41034,1,8,0:0:0:0:
251,178,41191,1,0,0:0:0:0:
273,156,41348,1,0,0:0:0:0:
251,178,41505,1,8,0:0:0:0:
245,160,41662,1,8,0:0:0:0:
251,178,41819,1,0,0:0:0:0:
247,171,41977,1,0,0:0:0:0:
245,160,42134,1,8,0:0:0:0:
245,160,42291,1,8,0:0:0:0:
245,160,42448,1,0,0:0:0:0:
224,103,42605,1,0,0:0:0:0:
251,178,42762,1,8,0:0:0:0:
251,178,42919,1,8,0:0:0:0:
251,178,42997,1,8,0:0:0:0:
251,178,43076,1,0,0:0:0:0:
251,178,43390,1,0,0:0:0:0:
245,160,43547,1,0,0:0:0:0:
251,178,43704,1,8,0:0:0:0:
240,84,43861,1,8,0:0:0:0:
251,178,44018,1,0,0:0:0:0:
251,178,44175,1,8,0:0:0:0:
251,178,44333,1,0,0:0:0:0:
251,178,44490,1,8,0:0:0:0:
226,56,44568,1,8,0:0:0:0:
235,105,44647,1,0,0:0:0:0:
251,178,44804,1,8,0:0:0:0:
251,178,44961,1,0,0:0:0:0:
251,178,45118,1,8,0:0:0:0:
218,91,45196,1,8,0:0:0:0:
251,178,45275,1,8,0:0:0:0:
251,178,45353,1,8,0:0:0:0:
251,178,45432,1,8,0:0:0:0:
211,155,45511,1,8,0:0:0:0:
251,178,45589,1,4,0:0:0:0:
251,178,45903,1,8,0:0:0:0:
251,178,46060,1,0,0:0:0:0:
243,173,46139,1,0,0:0:0:0:
251,178,46217,1,8,0:0:0:0:
251,178,46374,1,0,0:0:0:0:
251,178,46532,1,8,0:0:0:0:
243,173,46689,1,8,0:0:0:0:
243,173,46767,1,0,0:0:0:0:
243,173,46846,1,8,0:0:0:0:
243,173,46924,1,8,0:0:0:0:
243,173,47003,1,0,0:0:0:0:
243,173,47160,1,8,0:0:0:0:
243,173,47317,1,0,0:0:0:0:
243,173,47395,1,0,0:0:0:0:
243,173,47474,1,8,0:0:0:0:
243,173,47631,1,0,0:0:0:0:
258,121,47710,1,0,0:0:0:0:
243,173,47788,1,8,0:0:0:0:
243,173,47867,1,8,0:0:0:0:
243,173,47945,1,8,0:0:0:0:
227,103,48024,1,8,0:0:0:0:
243,173,48102,1,0,0:0:0:0:
245,185,48259,1,0,0:0:0:0:
251,178,48416,1,8,0:0:0:0:
251,178,48573,1,0,0:0:0:0:
243,173,48652,1,0,0:0:0:0:
251,178,48730,1,8,0:0:0:0:
251,178,48888,1,0,0:0:0:0:
251,178,49045,1,8,0:0:0:0:
245,130,49123,1,0,0:0:0:0:
243,173,49202,1,0,0:0:0:0:
243,173,49280,1,0,0:0:0:0:
243,173,49359,1,8,0:0:0:0:
258,121,49437,1,8,0:0:0:0:
194,38,49516,1,0,0:0:0:0:
243,173,49673,1,8,0:0:0:0:
243,173,49830,1,0,0:0:0:0:
239,169,49908,1,0,0:0:0:0:
239,169,49987,1,8,0:0:0:0:
243,173,50144,1,0,0:0:0:0:
243,173,50301,1,8,0:0:0:0:
243,173,50380,1,8,0:0:0:0:
239,169,50458,1,0,0:0:0:0:
239,169,50615,1,12,0:0:0:0:
239,165,50772,1,0,0:0:0:0:
239,169,50929,1,0,0:0:0:0:
239,169,51086,1,12,0:0:0:0:
239,165,51244,1,0,0:0:0:0:
239,165,51401,1,0,0:0:0:0:
239,169,51558,1,12,0:0:0:0:
239,165,51715,1,0,0:0:0:0:
239,169,51872,1,12,0:0:0:0:
239,169,52029,1,0,0:0:0:0:
239,165,52186,1,0,0:0:0:0:
239,165,52343,1,12,0:0:0:0:
245,153,52500,1,0,0:0:0:0:
239,165,52657,1,0,0:0:0:0:
239,169,52814,1,12,0:0:0:0:
231,170,52971,1,0,0:0:0:0:
222,115,53050,1,0,0:0:0:0:
231,170,53128,1,8,0:0:0:0:
231,170,53207,1,8,0:0:0:0:
231,170,53285,1,0,0:0:0:0:
231,170,53364,1,0,0:0:0:0:
231,170,53443,1,8,0:0:0:0:
231,170,53521,1,0,0:0:0:0:
231,170,53600,1,8,0:0:0:0:
231,170,53678,1,8,0:0:0:0:
231,170,53757,1,0,0:0:0:0:
231,170,53835,1,0,0:0:0:0:
231,170,53914,1,0,0:0:0:0:
207,124,53992,1,0,0:0:0:0:
231,170,54071,1,8,0:0:0:0:
221,178,54228,1,4,0:0:0:0:
231,170,55484,1,12,0:0:0:0:
252,194,55799,1,0,0:0:0:0:
252,194,55956,1,8,0:0:0:0:
252,194,56034,1,8,0:0:0:0:
252,194,56113,1,0,0:0:0:0:
252,194,56270,1,8,0:0:0:0:
252,194,56427,1,0,0:0:0:0:
275,178,56505,1,0,0:0:0:0:
252,194,56584,1,8,0:0:0:0:
252,194,56741,1,0,0:0:0:0:
252,194,56898,1,8,0:0:0:0:
252,194,56977,1,8,0:0:0:0:
252,194,57055,1,0,0:0:0:0:
252,194,57134,1,0,0:0:0:0:
252,194,57212,1,8,0:0:0:0:
254,140,57291,1,0,0:0:0:0:
252,194,57369,1,8,0:0:0:0:
252,194,57526,1,0,0:0:0:0:
252,194,57683,1,0,0:0:0:0:
240,111,57762,1,0,0:0:0:0:
252,194,57840,1,8,0:0:0:0:
247,184,57997,1,8,0:0:0:0:
247,184,58076,1,0,0:0:0:0:
247,184,58155,1,8,0:0:0:0:
247,184,58312,1,0,0:0:0:0:
247,184,58469,1,8,0:0:0:0:
247,184,58626,1,8,0:0:0:0:
244,186,58704,1,0,0:0:0:0:
247,184,58783,1,8,0:0:0:0:
244,142,58861,1,8,0:0:0:0:
247,184,58940,1,0,0:0:0:0:
239,184,59097,1,8,0:0:0:0:
244,142,59254,1,0,0:0:0:0:
247,184,59411,1,8,0:0:0:0:
244,142,59490,1,8,0:0:0:0:
247,184,59568,1,0,0:0:0:0:
252,186,59725,1,8,0:0:0:0:
244,121,59804,1,8,0:0:0:0:
247,184,59882,1,8,0:0:0:0:
247,184,60039,1,0,0:0:0:0:
247,184,60196,1,0,0:0:0:0:
242,130,60275,1,0,0:0:0:0:
247,184,60353,1,8,0:0:0:0:
247,184,60511,1,8,0:0:0:0:
247,184,60589,1,8,0:0:0:0:
252,186,60668,1,0,0:0:0:0:
230,144,60825,1,0,0:0:0:0:
250,129,60903,1,0,0:0:0:0:
247,184,60982,1,8,0:0:0:0:
247,184,61139,1,0,0:0:0:0:
247,184,61296,1,8,0:0:0:0:
252,125,61374,1,0,0:0:0:0:
247,184,61453,1,0,0:0:0:0:
230,104,61532,1,0,0:0:0:0:
247,184,61610,1,8,0:0:0:0:
247,184,61767,1,0,0:0:0:0:
247,184,61924,1,8,0:0:0:0:
247,184,62003,1,8,0:0:0:0:
247,184,62081,1,0,0:0:0:0:
247,184,62238,1,8,0:0:0:0:
247,184,62395,1,0,0:0:0:0:
247,184,62552,1,8,0:0:0:0:
247,184,62631,1,0,0:0:0:0:
247,184,62710,1,8,0:0:0:0:
247,184,62788,1,8,0:0:0:0:
247,184,62867,1,0,0:0:0:0:
265,160,62945,1,0,0:0:0:0:
247,184,63024,1,8,0:0:0:0:
239,173,63181,1,0,0:0:0:0:
247,184,63338,1,8,0:0:0:0:
245,170,63495,1,0,0:0:0:0:
245,170,63573,1,0,0:0:0:0:
245,170,63652,1,8,0:0:0:0:
245,170,63730,1,0,0:0:0:0:
245,170,63809,1,8,0:0:0:0:
245,170,63888,1,8,0:0:0:0:
252,169,63966,1,0,0:0:0:0:
252,169,64045,1,0,0:0:0:0:
252,169,64123,1,8,0:0:0:0:
252,169,64280,1,4,0:0:0:0:
252,184,64594,1,4,0:0:0:0:
252,184,64908,1,12,0:0:0:0:
252,184,65223,1,12,0:0:0:0:
252,184,65537,1,4,0:0:0:0:
250,125,65851,1,0,0:0:0:0:
248,166,66008,1,0,0:0:0:0:
239,173,66322,1,8,0:0:0:0:
248,166,66636,1,0,0:0:0:0:
239,173,66793,1,8,0:0:0:0:
248,166,66950,1,0,0:0:0:0:
248,193,67264,1,8,0:0:0:0:
248,193,67579,1,8,0:0:0:0:
248,166,67736,1,0,0:0:0:0:
248,166,67814,1,0,0:0:0:0:
248,166,67893,1,0,0:0:0:0:
248,166,68050,1,8,0:0:0:0:
257,168,68364,1,8,0:0:0:0:
248,193,68521,1,0,0:0:0:0:
257,168,68678,1,8,0:0:0:0:
257,168,68992,1,0,0:0:0:0:
257,168,69149,1,8,0:0:0:0:
257,168,69306,1,0,0:0:0:0:
248,166,69463,1,8,0:0:0:0:
248,166,69542,1,8,0:0:0:0:
248,166,69621,1,8,0:0:0:0:
248,166,69699,1,8,0:0:0:0:
248,166,69778,1,0,0:0:0:0:
248,166,69856,1,0,0:0:0:0:
248,166,69935,1,8,0:0:0:0:
248,166,70013,1,0,0:0:0:0:
248,166,70092,1,8,0:0:0:0:
248,166,70170,1,0,0:0:0:0:
248,166,70249,1,0,0:0:0:0:
248,166,70327,1,0,0:0:0:0:
248,166,70406,1,8,0:0:0:0:
248,166,70484,1,8,0:0:0:0:
248,166,70563,1,0,0:0:0:0:
248,166,70720,1,12,0:0:0:0:
248,166,70877,1,0,0:0:0:0:
248,166,71034,1,0,0:0:0:0:
248,166,71191,1,12,0:0:0:0:
248,166,71348,1,0,0:0:0:0:
248,166,71505,1,0,0:0:0:0:
248,166,71662,1,12,0:0:0:0:
248,166,71819,1,0,0:0:0:0:
248,166,71977,1,0,0:0:0:0:
248,166,72134,1,12,0:0:0:0:
248,166,72291,1,0,0:0:0:0:
248,166,72448,1,0,0:0:0:0:
248,166,72605,1,12,0:0:0:0:
248,166,72762,1,0,0:0:0:0:
248,166,72919,1,12,0:0:0:0:
248,166,73076,1,0,0:0:0:0:
239,123,73155,1,0,0:0:0:0:
248,166,73233,1,8,0:0:0:0:
248,166,73312,1,0,0:0:0:0:
248,166,73390,1,0,0:0:0:0:
237,153,73469,1,0,0:0:0:0:
248,166,73547,1,8,0:0:0:0:
248,156,73626,1,8,0:0:0:0:
248,166,73704,1,0,0:0:0:0:
248,166,73783,1,0,0:0:0:0:
248,166,73861,1,8,0:0:0:0:
248,166,73940,1,8,0:0:0:0:
248,166,74018,1,8,0:0:0:0:
248,156,74097,1,8,0:0:0:0:
248,166,74175,1,0,0:0:0:0:
248,156,74254,1,0,0:0:0:0:
248,166,74333,1,0,0:0:0:0:
248,166,74411,1,0,0:0:0:0:
248,166,74490,1,8,0:0:0:0:
248,166,74568,5,8,0:0:0:0:
248,166,74647,1,0,0:0:0:0:
248,166,74725,1,0,0:0:0:0:
248,166,74804,1,8,0:0:0:0:
248,166,74882,1,0,0:0:0:0:
248,166,74961,1,0,0:0:0:0:
248,166,75039,1,0,0:0:0:0:
248,166,75118,1,8,0:0:0:0:
248,166,75196,1,0,0:0:0:0:
248,166,75275,1,8,0:0:0:0:
264,110,75353,1,0,0:0:0:0:
255,174,75432,1,8,0:0:0:0:
255,174,75589,1,4,0:0:0:0:
253,155,75903,1,0,0:0:0:0:
253,155,76060,1,8,0:0:0:0:
253,155,76217,1,0,0:0:0:0:
253,155,76296,1,0,0:0:0:0:
253,155,76374,1,8,0:0:0:0:
253,155,76532,1,0,0:0:0:0:
253,155,76689,1,8,0:0:0:0:
253,155,76846,1,8,0:0:0:0:
233,87,76924,1,0,0:0:0:0:
253,155,77003,1,8,0:0:0:0:
259,168,77081,1,8,0:0:0:0:
253,155,77160,1,0,0:0:0:0:
253,155,77317,1,8,0:0:0:0:
248,149,77474,1,0,0:0:0:0:
248,149,77631,1,8,0:0:0:0:
248,149,77710,1,8,0:0:0:0:
248,149,77788,1,0,0:0:0:0:
248,149,77867,1,0,0:0:0:0:
248,149,77945,1,8,0:0:0:0:
253,155,78102,1,8,0:0:0:0:
243,128,78181,1,8,0:0:0:0:
243,128,78259,1,0,0:0:0:0:
253,155,78416,1,0,0:0:0:0:
253,155,78573,1,8,0:0:0:0:
253,155,78730,1,0,0:0:0:0:
248,149,78809,1,0,0:0:0:0:
253,155,78888,1,8,0:0:0:0:
253,155,79045,1,0,0:0:0:0:
253,155,79202,1,8,0:0:0:0:
253,155,79359,1,0,0:0:0:0:
253,155,79437,1,0,0:0:0:0:
253,155,79516,1,8,0:0:0:0:
253,155,79594,1,0,0:0:0:0:
253,155,79673,1,0,0:0:0:0:
253,155,79830,1,8,0:0:0:0:
248,149,79987,1,0,0:0:0:0:
248,149,80144,1,8,0:0:0:0:
248,149,80223,1,0,0:0:0:0:
248,149,80301,1,0,0:0:0:0:
248,149,80380,1,0,0:0:0:0:
248,149,80458,1,8,0:0:0:0:
248,149,80615,1,4,0:0:0:0:
253,155,80929,1,0,0:0:0:0:
253,155,81086,1,8,0:0:0:0:
253,155,81244,1,0,0:0:0:0:
253,155,81322,1,0,0:0:0:0:
253,155,81401,1,8,0:0:0:0:
253,155,81558,1,0,0:0:0:0:
253,155,81715,1,8,0:0:0:0:
239,133,81793,1,0,0:0:0:0:
260,152,81872,1,0,0:0:0:0:
253,155,82029,1,8,0:0:0:0:
239,142,82107,1,8,0:0:0:0:
253,155,82186,1,0,0:0:0:0:
239,142,82264,1,0,0:0:0:0:
239,142,82343,1,8,0:0:0:0:
239,142,82422,1,0,0:0:0:0:
239,142,82500,1,8,0:0:0:0:
239,142,82579,1,8,0:0:0:0:
239,142,82657,1,0,0:0:0:0:
239,142,82736,1,0,0:0:0:0:
239,142,82814,1,8,0:0:0:0:
248,149,82893,1,0,0:0:0:0:
248,149,82971,1,8,0:0:0:0:
248,149,83128,1,4,0:0:0:0:
241,183,83443,1,0,0:0:0:0:
239,177,83600,1,8,0:0:0:0:
239,177,83678,1,8,0:0:0:0:
231,178,83757,1,0,0:0:0:0:
239,177,83914,1,8,0:0:0:0:
239,177,84071,1,0,0:0:0:0:
221,160,84149,1,0,0:0:0:0:
241,183,84228,1,8,0:0:0:0:
241,183,84385,1,0,0:0:0:0:
239,177,84542,1,8,0:0:0:0:
239,177,84621,1,0,0:0:0:0:
239,177,84699,1,0,0:0:0:0:
249,168,84778,1,0,0:0:0:0:
239,177,84856,1,8,0:0:0:0:
239,177,85013,1,0,0:0:0:0:
241,183,85170,1,8,0:0:0:0:
241,183,85327,1,0,0:0:0:0:
241,183,85406,1,0,0:0:0:0:
241,183,85484,1,8,0:0:0:0:
239,177,85641,1,8,0:0:0:0:
249,133,85720,1,8,0:0:0:0:
249,133,85799,1,0,0:0:0:0:
231,178,85956,1,0,0:0:0:0:
231,178,86113,1,8,0:0:0:0:
238,170,86191,1,0,0:0:0:0:
241,183,86270,1,8,0:0:0:0:
238,170,86427,1,0,0:0:0:0:
239,177,86584,1,0,0:0:0:0:
241,183,86662,1,0,0:0:0:0:
238,170,86741,1,8,0:0:0:0:
238,170,86898,1,0,0:0:0:0:
238,170,87055,1,8,0:0:0:0:
238,170,87134,1,0,0:0:0:0:
245,182,87212,1,8,0:0:0:0:
248,148,87291,1,0,0:0:0:0:
245,182,87369,1,8,0:0:0:0:
245,182,87526,1,0,0:0:0:0:
238,170,87683,1,8,0:0:0:0:
238,170,87762,1,8,0:0:0:0:
238,170,87840,1,8,0:0:0:0:
238,170,87919,1,8,0:0:0:0:
238,170,87997,1,8,0:0:0:0:
208,135,88076,1,8,0:0:0:0:
239,177,88155,1,4,0:0:0:0:
241,183,88469,1,0,0:0:0:0:
239,177,88626,1,8,0:0:0:0:
239,177,88704,1,8,0:0:0:0:
231,178,88783,1,0,0:0:0:0:
238,170,88861,1,0,0:0:0:0:
239,177,88940,1,8,0:0:0:0:
239,177,89097,1,0,0:0:0:0:
226,143,89175,1,0,0:0:0:0:
241,183,89254,1,8,0:0:0:0:
241,183,89411,1,0,0:0:0:0:
239,177,89568,1,8,0:0:0:0:
239,177,89647,1,0,0:0:0:0:
239,177,89725,1,0,0:0:0:0:
236,173,89804,1,0,0:0:0:0:
239,177,89882,1,8,0:0:0:0:
232,168,89961,1,8,0:0:0:0:
239,177,90039,1,0,0:0:0:0:
241,183,90196,1,8,0:0:0:0:
241,183,90353,1,0,0:0:0:0:
241,183,90432,1,0,0:0:0:0:
241,183,90511,1,8,0:0:0:0:
239,177,90668,1,4,0:0:0:0:
231,178,90982,1,0,0:0:0:0:
252,130,91060,1,0,0:0:0:0:
231,178,91139,1,8,0:0:0:0:
238,170,91217,1,0,0:0:0:0:
241,183,91296,1,0,0:0:0:0:
241,183,91374,1,0,0:0:0:0:
238,170,91453,1,8,0:0:0:0:
234,164,91532,1,8,0:0:0:0:
239,177,91610,1,0,0:0:0:0:
234,164,91689,1,0,0:0:0:0:
238,170,91767,1,8,0:0:0:0:
234,164,91846,1,0,0:0:0:0:
238,181,91924,1,0,0:0:0:0:
238,181,92003,1,0,0:0:0:0:
238,170,92081,1,8,0:0:0:0:
238,181,92160,1,8,0:0:0:0:
238,181,92238,1,8,0:0:0:0:
237,169,92317,1,0,0:0:0:0:
245,182,92395,1,8,0:0:0:0:
234,164,92474,1,8,0:0:0:0:
245,182,92552,1,0,0:0:0:0:
239,177,92631,1,0,0:0:0:0:
238,170,92710,1,8,0:0:0:0:
238,170,92788,1,0,0:0:0:0:
249,173,92867,1,8,0:0:0:0:
249,173,92945,1,0,0:0:0:0:
249,173,93024,1,8,0:0:0:0:
238,170,93181,1,4,0:0:0:0:
234,164,93652,1,0,0:0:0:0:
234,164,93966,1,8,0:0:0:0:
234,164,94594,1,0,0:0:0:0:
234,164,95066,1,0,0:0:0:0:
234,164,95144,1,0,0:0:0:0:
234,164,95223,1,8,0:0:0:0:
234,164,95537,1,8,0:0:0:0:
234,164,95694,1,0,0:0:0:0:
234,164,96165,1,0,0:0:0:0:
234,164,96479,1,8,0:0:0:0:
234,164,97107,1,0,0:0:0:0:
234,164,97579,1,0,0:0:0:0:
234,164,97657,1,0,0:0:0:0:
234,164,97736,1,8,0:0:0:0:
234,164,98050,1,8,0:0:0:0:
234,164,98207,1,4,0:0:0:0:
234,164,98678,1,0,0:0:0:0:
234,164,98992,1,8,0:0:0:0:
234,164,99621,1,0,0:0:0:0:
234,164,100092,1,0,0:0:0:0:
234,164,100170,1,0,0:0:0:0:
234,164,100249,1,8,0:0:0:0:
234,164,100563,1,8,0:0:0:0:
234,164,100720,1,0,0:0:0:0:
232,151,101034,1,8,0:0:0:0:
232,151,101113,1,8,0:0:0:0:
234,164,101191,1,0,0:0:0:0:
232,151,101270,1,0,0:0:0:0:
232,151,101348,1,8,0:0:0:0:
232,151,101427,1,0,0:0:0:0:
234,164,101505,1,8,0:0:0:0:
232,151,101584,1,0,0:0:0:0:
232,151,101662,1,0,0:0:0:0:
232,151,101741,1,0,0:0:0:0:
232,151,101819,1,8,0:0:0:0:
234,164,101977,1,4,0:0:0:0:
241,177,103233,5,12,0:0:0:0:
241,177,103547,1,8,0:0:0:0:
237,162,103626,1,0,0:0:0:0:
241,177,103704,1,8,0:0:0:0:
228,169,103861,1,0,0:0:0:0:
249,182,104018,1,8,0:0:0:0:
221,86,104097,1,8,0:0:0:0:
245,170,104175,1,0,0:0:0:0:
245,189,104333,1,8,0:0:0:0:
245,189,104490,1,0,0:0:0:0:
237,164,104647,1,8,0:0:0:0:
234,165,104725,1,0,0:0:0:0:
234,165,104804,1,8,0:0:0:0:
241,174,104882,1,8,0:0:0:0:
234,165,104961,1,0,0:0:0:0:
220,148,105039,1,0,0:0:0:0:
252,177,105118,1,8,0:0:0:0:
237,168,105275,1,0,0:0:0:0:
245,189,105353,1,8,0:0:0:0:
245,189,105432,1,0,0:0:0:0:
245,189,105589,1,8,0:0:0:0:
245,189,105746,1,8,0:0:0:0:
220,148,105825,1,8,0:0:0:0:
220,148,105903,1,0,0:0:0:0:
243,196,106060,1,8,0:0:0:0:
239,195,106139,1,8,0:0:0:0:
246,180,106217,1,8,0:0:0:0:
241,153,106374,1,0,0:0:0:0:
243,196,106532,1,8,0:0:0:0:
235,192,106610,1,8,0:0:0:0:
243,196,106689,1,0,0:0:0:0:
243,188,106846,1,8,0:0:0:0:
250,175,107003,1,0,0:0:0:0:
250,175,107160,1,8,0:0:0:0:
250,175,107238,1,0,0:0:0:0:
243,188,107317,1,8,0:0:0:0:
245,177,107395,1,0,0:0:0:0:
243,188,107474,1,8,0:0:0:0:
234,150,107552,1,8,0:0:0:0:
243,188,107631,1,0,0:0:0:0:
243,188,107788,1,12,0:0:0:0:
243,188,108102,1,12,0:0:0:0:
253,184,108416,1,4,0:0:0:0:
255,195,108730,1,8,0:0:0:0:
255,195,108888,1,8,0:0:0:0:
255,195,108966,1,0,0:0:0:0:
255,195,109045,1,8,0:0:0:0:
255,195,109202,1,0,0:0:0:0:
255,195,109359,1,8,0:0:0:0:
224,170,109516,1,0,0:0:0:0:
224,170,109594,1,0,0:0:0:0:
255,195,109673,1,8,0:0:0:0:
245,182,109830,1,8,0:0:0:0:
250,163,109908,1,8,0:0:0:0:
245,182,109987,1,8,0:0:0:0:
245,182,110144,1,0,0:0:0:0:
223,159,110223,1,0,0:0:0:0:
245,182,110301,1,8,0:0:0:0:
245,182,110380,1,0,0:0:0:0:
245,182,110458,1,8,0:0:0:0:
271,177,110537,1,0,0:0:0:0:
245,182,110615,1,8,0:0:0:0:
251,168,110772,1,0,0:0:0:0:
229,169,110851,1,0,0:0:0:0:
245,182,110929,1,8,0:0:0:0:
245,182,111086,1,0,0:0:0:0:
245,182,111244,1,8,0:0:0:0:
245,182,111401,1,0,0:0:0:0:
236,149,111479,1,0,0:0:0:0:
245,182,111558,1,8,0:0:0:0:
254,182,111636,1,0,0:0:0:0:
245,182,111715,1,0,0:0:0:0:
245,182,111872,1,8,0:0:0:0:
242,173,112029,1,0,0:0:0:0:
231,105,112107,1,0,0:0:0:0:
245,182,112186,1,8,0:0:0:0:
238,166,112264,1,8,0:0:0:0:
245,182,112343,1,0,0:0:0:0:
245,182,112422,1,0,0:0:0:0:
245,182,112500,1,8,0:0:0:0:
245,182,112579,1,0,0:0:0:0:
245,182,112657,1,0,0:0:0:0:
259,189,112736,1,0,0:0:0:0:
259,189,112814,1,8,0:0:0:0:
259,189,112893,1,8,0:0:0:0:
259,189,112971,1,8,0:0:0:0:
259,189,113050,1,0,0:0:0:0:
259,189,113128,1,8,0:0:0:0:
259,189,113207,1,8,0:0:0:0:
259,189,113285,1,0,0:0:0:0:
250,147,113364,1,0,0:0:0:0:
245,182,113443,1,8,0:0:0:0:
260,173,113495,1,8,0:0:0:0:
245,182,113652,1,8,0:0:0:0:
260,173,113704,1,8,0:0:0:0:
259,189,113861,1,8,0:0:0:0:
260,173,113914,1,8,0:0:0:0:
231,170,114228,1,12,0:0:0:0:
252,194,114542,1,0,0:0:0:0:
252,194,114699,1,8,0:0:0:0:
252,194,114777,1,8,0:0:0:0:
252,194,114856,1,0,0:0:0:0:
252,194,115013,1,8,0:0:0:0:
252,194,115170,1,0,0:0:0:0:
231,170,115248,1,0,0:0:0:0:
252,194,115327,1,8,0:0:0:0:
252,194,115484,1,0,0:0:0:0:
252,194,115641,1,8,0:0:0:0:
252,194,115720,1,8,0:0:0:0:
252,194,115798,1,0,0:0:0:0:
252,194,115877,1,0,0:0:0:0:
252,194,115955,1,8,0:0:0:0:
254,140,116034,1,0,0:0:0:0:
252,194,116112,1,8,0:0:0:0:
252,194,116269,1,0,0:0:0:0:
252,194,116426,1,0,0:0:0:0:
244,166,116505,1,0,0:0:0:0:
252,194,116583,1,8,0:0:0:0:
247,184,116741,1,8,0:0:0:0:
247,184,116819,1,0,0:0:0:0:
247,184,116898,1,8,0:0:0:0:
247,184,117055,1,0,0:0:0:0:
247,184,117212,1,8,0:0:0:0:
247,184,117369,1,0,0:0:0:0:
244,186,117447,1,0,0:0:0:0:
247,184,117526,1,8,0:0:0:0:
244,142,117604,1,0,0:0:0:0:
247,184,117683,1,8,0:0:0:0:
239,184,117840,1,0,0:0:0:0:
244,142,117997,1,8,0:0:0:0:
244,142,118076,1,0,0:0:0:0:
247,184,118154,1,8,0:0:0:0:
247,184,118311,1,0,0:0:0:0:
252,186,118468,1,8,0:0:0:0:
244,121,118547,1,8,0:0:0:0:
247,184,118625,1,8,0:0:0:0:
247,184,118782,1,0,0:0:0:0:
247,184,118939,1,8,0:0:0:0:
242,130,119018,1,0,0:0:0:0:
247,184,119097,1,8,0:0:0:0:
247,184,119254,1,8,0:0:0:0:
247,184,119332,1,8,0:0:0:0:
252,186,119411,1,0,0:0:0:0:
228,139,119568,1,0,0:0:0:0:
250,129,119646,1,0,0:0:0:0:
247,184,119725,1,8,0:0:0:0:
247,184,119882,1,0,0:0:0:0:
247,184,120039,1,8,0:0:0:0:
252,125,120117,1,8,0:0:0:0:
247,184,120196,1,0,0:0:0:0:
247,184,120353,1,8,0:0:0:0:
247,184,120510,1,0,0:0:0:0:
247,184,120667,1,8,0:0:0:0:
247,184,120746,1,0,0:0:0:0:
247,184,120824,1,0,0:0:0:0:
247,184,120903,1,0,0:0:0:0:
247,184,120981,1,8,0:0:0:0:
247,184,121138,1,8,0:0:0:0:
247,184,121295,1,0,0:0:0:0:
247,184,121374,1,8,0:0:0:0:
247,184,121453,1,0,0:0:0:0:
247,184,121531,1,0,0:0:0:0:
247,184,121610,1,8,0:0:0:0:
265,160,121688,1,0,0:0:0:0:
247,184,121767,1,8,0:0:0:0:
239,173,121924,1,0,0:0:0:0:
247,184,122081,1,8,0:0:0:0:
245,170,122238,1,0,0:0:0:0:
245,170,122316,1,0,0:0:0:0:
245,170,122395,1,8,0:0:0:0:
245,170,122474,1,8,0:0:0:0:
245,170,122552,1,0,0:0:0:0:
245,170,122631,1,0,0:0:0:0:
252,169,122709,1,8,0:0:0:0:
252,169,122788,1,0,0:0:0:0:
252,169,122866,1,8,0:0:0:0:
252,169,123023,1,4,0:0:0:0:
252,184,123337,1,4,0:0:0:0:
252,184,123652,1,12,0:0:0:0:
252,184,123966,1,12,0:0:0:0:
252,184,124280,1,4,0:0:0:0:
250,125,124594,1,0,0:0:0:0:
248,166,124751,1,0,0:0:0:0:
239,173,125065,1,8,0:0:0:0:
223,80,125222,1,8,0:0:0:0:
248,166,125379,1,0,0:0:0:0:
239,173,125536,1,0,0:0:0:0:
248,166,125693,1,8,0:0:0:0:
223,87,126008,1,0,0:0:0:0:
217,70,126165,1,8,0:0:0:0:
217,70,126243,1,8,0:0:0:0:
248,193,126322,1,0,0:0:0:0:
248,166,126479,1,0,0:0:0:0:
248,166,126557,1,0,0:0:0:0:
248,166,126636,1,0,0:0:0:0:
248,166,126793,1,8,0:0:0:0:
257,168,127107,1,8,0:0:0:0:
248,193,127264,1,0,0:0:0:0:
257,168,127421,1,8,0:0:0:0:
257,168,127735,1,0,0:0:0:0:
218,55,127892,1,8,0:0:0:0:
257,168,128049,1,0,0:0:0:0:
248,166,128206,1,8,0:0:0:0:
248,166,128285,1,8,0:0:0:0:
248,166,128364,1,8,0:0:0:0:
248,166,128442,1,8,0:0:0:0:
248,166,128521,1,0,0:0:0:0:
248,166,128599,1,0,0:0:0:0:
248,166,128678,1,8,0:0:0:0:
248,166,128756,1,0,0:0:0:0:
248,166,128835,1,8,0:0:0:0:
248,166,128913,1,0,0:0:0:0:
248,166,128992,1,0,0:0:0:0:
248,166,129070,1,0,0:0:0:0:
248,166,129149,1,8,0:0:0:0:
248,166,129227,1,8,0:0:0:0:
248,166,129306,1,0,0:0:0:0:
248,166,129463,1,12,0:0:0:0:
248,166,129620,1,0,0:0:0:0:
248,166,129777,1,0,0:0:0:0:
248,166,129934,1,12,0:0:0:0:
248,166,130091,1,0,0:0:0:0:
248,166,130248,1,0,0:0:0:0:
248,166,130405,1,12,0:0:0:0:
229,135,130563,1,0,0:0:0:0:
248,166,130720,1,0,0:0:0:0:
248,166,130877,1,12,0:0:0:0:
248,166,131034,1,0,0:0:0:0:
248,166,131191,1,0,0:0:0:0:
248,166,131348,1,12,0:0:0:0:
248,166,131505,1,0,0:0:0:0:
248,166,131662,1,12,0:0:0:0:
248,166,131819,1,0,0:0:0:0:
255,155,131898,1,0,0:0:0:0:
248,166,131976,1,8,0:0:0:0:
248,166,132133,1,0,0:0:0:0:
248,166,132290,1,0,0:0:0:0:
223,123,132369,1,0,0:0:0:0:
248,166,132447,1,8,0:0:0:0:
248,156,132526,1,8,0:0:0:0:
248,166,132604,1,0,0:0:0:0:
248,166,132761,1,0,0:0:0:0:
248,166,132919,1,8,0:0:0:0:
248,166,133023,1,8,0:0:0:0:
248,166,133128,1,0,0:0:0:0:
248,166,133233,1,8,0:0:0:0:
248,166,133337,1,0,0:0:0:0:
248,166,133442,1,0,0:0:0:0:
248,166,133547,1,8,0:0:0:0:
248,166,133704,1,8,0:0:0:0:
248,166,133861,1,0,0:0:0:0:
248,166,133939,1,0,0:0:0:0:
248,166,134018,1,0,0:0:0:0:
238,95,134097,1,0,0:0:0:0:
255,174,134175,1,8,0:0:0:0:
255,174,134332,1,4,0:0:0:0:
256,192,134489,12,0,137002,0:0:0:0:
262,190,139201,5,0,0:0:0:0:
262,190,139306,1,0,0:0:0:0:
262,190,139411,1,0,0:0:0:0:
262,190,139515,1,12,0:0:0:0:
256,192,139672,12,0,142028,0:0:0:0:
265,188,143285,5,8,0:0:0:0:
265,188,143390,1,8,0:0:0:0:
265,188,143494,1,8,0:0:0:0:
265,188,143599,1,0,0:0:0:0:
265,188,143704,1,8,0:0:0:0:
265,188,143809,1,8,0:0:0:0:
265,188,143913,1,8,0:0:0:0:
265,188,144018,1,0,0:0:0:0:
265,188,144123,1,0,0:0:0:0:
265,188,144227,1,8,0:0:0:0:
265,188,144542,1,4,0:0:0:0:
274,181,145170,1,8,0:0:0:0:
260,188,145484,1,0,0:0:0:0:
260,188,145641,1,0,0:0:0:0:
246,173,145798,1,8,0:0:0:0:
274,181,146426,1,8,0:0:0:0:
246,173,146741,1,0,0:0:0:0:
246,173,147055,1,4,0:0:0:0:
257,200,147683,1,8,0:0:0:0:
257,200,147997,1,0,0:0:0:0:
257,200,148154,1,0,0:0:0:0:
257,200,148311,1,8,0:0:0:0:
246,189,148939,1,0,0:0:0:0:
232,115,149254,1,8,0:0:0:0:
246,189,149568,1,4,0:0:0:0:
246,178,149882,1,0,0:0:0:0:
246,189,150039,1,8,0:0:0:0:
246,178,150196,1,0,0:0:0:0:
261,182,150353,1,0,0:0:0:0:
246,178,150510,1,8,0:0:0:0:
259,181,150667,1,8,0:0:0:0:
246,178,150824,1,0,0:0:0:0:
246,178,150981,1,8,0:0:0:0:
246,178,151138,1,0,0:0:0:0:
245,185,151295,1,0,0:0:0:0:
246,178,151453,1,8,0:0:0:0:
256,160,151610,1,8,0:0:0:0:
245,185,151767,1,0,0:0:0:0:
256,160,151924,1,0,0:0:0:0:
245,169,152081,1,8,0:0:0:0:
245,169,152159,1,0,0:0:0:0:
245,169,152238,1,8,0:0:0:0:
245,169,152316,1,0,0:0:0:0:
245,169,152395,1,8,0:0:0:0:
245,169,152474,1,8,0:0:0:0:
246,170,152552,1,0,0:0:0:0:
246,170,152631,1,0,0:0:0:0:
245,169,152709,1,8,0:0:0:0:
245,169,152788,1,0,0:0:0:0:
245,170,152866,1,8,0:0:0:0:
245,170,152945,1,8,0:0:0:0:
245,169,153023,1,0,0:0:0:0:
245,169,153102,1,8,0:0:0:0:
245,169,153180,1,0,0:0:0:0:
245,169,153259,1,0,0:0:0:0:
245,169,153337,1,8,0:0:0:0:
245,169,153416,1,0,0:0:0:0:
245,169,153494,1,0,0:0:0:0:
246,170,153573,1,0,0:0:0:0:
246,170,153652,1,8,0:0:0:0:
245,169,153730,1,0,0:0:0:0:
245,169,153809,1,8,0:0:0:0:
245,170,153887,1,0,0:0:0:0:
245,170,153966,1,8,0:0:0:0:
245,169,154044,1,8,0:0:0:0:
245,169,154123,1,0,0:0:0:0:
240,162,154201,1,0,0:0:0:0:
245,169,154280,1,0,0:0:0:0:
240,162,154358,1,0,0:0:0:0:
240,162,154437,1,8,0:0:0:0:
252,171,154594,1,4,0:0:0:0:
238,127,154908,1,8,0:0:0:0:
253,179,155065,1,0,0:0:0:0:
253,179,155222,1,8,0:0:0:0:
253,179,155693,1,8,0:0:0:0:
200,89,155772,1,0,0:0:0:0:
253,179,155850,1,8,0:0:0:0:
245,148,156008,1,8,0:0:0:0:
253,179,156165,1,0,0:0:0:0:
245,148,156322,1,0,0:0:0:0:
253,179,156479,1,8,0:0:0:0:
253,179,156714,1,0,0:0:0:0:
253,179,156950,1,8,0:0:0:0:
253,179,157264,1,0,0:0:0:0:
253,179,157421,1,8,0:0:0:0:
253,179,157578,1,0,0:0:0:0:
253,179,157657,1,0,0:0:0:0:
253,179,157735,1,8,0:0:0:0:
253,179,157892,1,0,0:0:0:0:
253,179,158049,1,8,0:0:0:0:
236,114,158128,1,8,0:0:0:0:
253,179,158206,1,0,0:0:0:0:
253,179,158364,1,8,0:0:0:0:
253,179,158521,1,0,0:0:0:0:
253,179,158678,1,8,0:0:0:0:
253,179,158756,1,8,0:0:0:0:
253,179,158835,1,8,0:0:0:0:
253,179,158992,1,4,0:0:0:0:
253,179,159227,1,4,0:0:0:0:
253,179,159463,1,4,0:0:0:0:
253,162,159620,1,12,0:0:0:0:
253,162,159934,1,8,0:0:0:0:
253,162,160091,1,0,0:0:0:0:
253,162,160170,1,0,0:0:0:0:
253,162,160248,1,8,0:0:0:0:
253,162,160405,1,0,0:0:0:0:
253,162,160563,1,8,0:0:0:0:
254,168,160641,1,0,0:0:0:0:
253,162,160720,1,8,0:0:0:0:
253,162,160877,1,8,0:0:0:0:
253,162,161034,1,0,0:0:0:0:
253,162,161191,1,8,0:0:0:0:
253,162,161269,1,8,0:0:0:0:
254,168,161348,1,0,0:0:0:0:
254,144,161505,1,8,0:0:0:0:
254,144,161819,1,0,0:0:0:0:
254,144,162133,1,8,0:0:0:0:
254,144,162447,1,0,0:0:0:0:
254,144,162604,1,0,0:0:0:0:
254,144,162761,1,8,0:0:0:0:
254,144,162919,1,8,0:0:0:0:
254,144,163076,1,8,0:0:0:0:
254,144,163233,1,0,0:0:0:0:
254,144,163311,1,0,0:0:0:0:
254,144,163390,1,8,0:0:0:0:
254,144,163468,1,8,0:0:0:0:
254,144,163547,1,0,0:0:0:0:
254,144,163625,1,0,0:0:0:0:
254,144,163704,1,8,0:0:0:0:
254,144,163782,1,0,0:0:0:0:
254,144,163861,1,0,0:0:0:0:
254,144,163939,1,0,0:0:0:0:
254,144,164018,1,8,0:0:0:0:
254,144,164097,1,8,0:0:0:0:
254,144,164175,1,0,0:0:0:0:
254,144,164254,1,0,0:0:0:0:
254,144,164332,1,8,0:0:0:0:
250,126,164411,1,0,0:0:0:0:
250,126,164489,1,8,0:0:0:0:
238,121,164568,1,0,0:0:0:0:
250,126,164646,1,8,0:0:0:0:
250,126,164803,1,0,0:0:0:0:
236,126,164960,1,8,0:0:0:0:
236,126,165117,1,0,0:0:0:0:
236,126,165196,1,0,0:0:0:0:
236,126,165275,1,8,0:0:0:0:
236,126,165432,1,0,0:0:0:0:
236,126,165589,1,8,0:0:0:0:
236,126,165746,1,8,0:0:0:0:
236,126,165824,1,0,0:0:0:0:
236,126,165903,1,8,0:0:0:0:
218,103,165981,1,8,0:0:0:0:
236,126,166060,1,0,0:0:0:0:
236,126,166217,1,8,0:0:0:0:
236,126,166374,1,0,0:0:0:0:
236,126,166453,1,0,0:0:0:0:
236,126,166531,1,8,0:0:0:0:
218,103,166610,1,8,0:0:0:0:
236,126,166688,1,0,0:0:0:0:
222,80,166767,1,0,0:0:0:0:
236,126,166845,1,8,0:0:0:0:
236,126,167002,1,0,0:0:0:0:
236,126,167081,1,0,0:0:0:0:
236,126,167159,1,8,0:0:0:0:
231,137,167238,1,0,0:0:0:0:
236,126,167316,1,0,0:0:0:0:
236,126,167395,1,0,0:0:0:0:
236,126,167474,1,8,0:0:0:0:
244,129,167552,1,8,0:0:0:0:
236,126,167631,1,0,0:0:0:0:
236,126,167709,1,0,0:0:0:0:
236,126,167788,1,8,0:0:0:0:
239,119,167866,1,0,0:0:0:0:
236,126,167945,1,8,0:0:0:0:
236,126,168023,1,0,0:0:0:0:
236,126,168102,1,8,0:0:0:0:
236,126,168180,1,8,0:0:0:0:
236,126,168259,1,0,0:0:0:0:
246,117,168337,1,0,0:0:0:0:
236,126,168416,1,8,0:0:0:0:
245,116,168494,1,0,0:0:0:0:
236,126,168573,1,8,0:0:0:0:
236,126,168652,1,0,0:0:0:0:
236,126,168730,1,8,0:0:0:0:
236,126,168809,1,8,0:0:0:0:
236,126,168887,1,0,0:0:0:0:
236,126,168966,1,0,0:0:0:0:
236,126,169044,1,8,0:0:0:0:
236,126,169123,1,8,0:0:0:0:
236,126,169201,1,8,0:0:0:0:
236,126,169280,1,0,0:0:0:0:
236,126,169358,1,8,0:0:0:0:
236,126,169437,1,8,0:0:0:0:
236,126,169515,1,0,0:0:0:0:
199,66,169594,1,0,0:0:0:0:
236,126,169672,1,8,0:0:0:0:
236,126,169830,1,0,0:0:0:0:
242,122,169987,1,8,0:0:0:0:
242,122,170144,1,0,0:0:0:0:
242,122,170222,1,0,0:0:0:0:
242,122,170301,1,8,0:0:0:0:
242,122,170458,1,0,0:0:0:0:
242,122,170615,1,8,0:0:0:0:
242,122,170693,1,8,0:0:0:0:
242,122,170772,1,0,0:0:0:0:
242,122,170850,1,0,0:0:0:0:
242,122,170929,1,8,0:0:0:0:
241,133,171008,1,0,0:0:0:0:
226,122,171086,1,0,0:0:0:0:
226,122,171243,1,8,0:0:0:0:
226,122,171400,1,0,0:0:0:0:
226,122,171479,1,0,0:0:0:0:
226,122,171557,1,8,0:0:0:0:
226,122,171636,1,0,0:0:0:0:
226,122,171714,1,0,0:0:0:0:
226,122,171871,1,8,0:0:0:0:
226,122,172028,1,0,0:0:0:0:
226,122,172107,1,0,0:0:0:0:
226,122,172186,1,8,0:0:0:0:
226,122,172264,1,8,0:0:0:0:
226,122,172343,1,0,0:0:0:0:
226,122,172421,1,0,0:0:0:0:
226,122,172500,1,8,0:0:0:0:
226,122,172578,1,0,0:0:0:0:
226,122,172657,1,8,0:0:0:0:
226,122,172735,1,8,0:0:0:0:
226,122,172814,1,0,0:0:0:0:
226,122,172892,1,0,0:0:0:0:
226,122,172971,1,8,0:0:0:0:
226,122,173049,1,0,0:0:0:0:
226,122,173128,1,8,0:0:0:0:
226,122,173206,1,0,0:0:0:0:
226,122,173285,1,0,0:0:0:0:
226,122,173364,1,0,0:0:0:0:
226,122,173442,1,8,0:0:0:0:
226,122,173521,1,8,0:0:0:0:
226,122,173599,1,0,0:0:0:0:
226,122,173678,1,0,0:0:0:0:
226,122,173756,1,8,0:0:0:0:
226,122,173835,1,0,0:0:0:0:
209,81,173913,1,0,0:0:0:0:
232,78,173992,1,0,0:0:0:0:
226,122,174070,1,12,0:0:0:0:
226,122,174227,1,12,0:0:0:0:
226,122,174384,1,12,0:0:0:0:
226,122,174542,1,12,0:0:0:0:
256,192,174699,12,0,175641,0:0:0:0:
250,175,175798,5,4,0:0:0:0:
231,170,178939,1,12,0:0:0:0:
252,194,179253,1,0,0:0:0:0:
252,194,179410,1,8,0:0:0:0:
232,78,179488,1,8,0:0:0:0:
252,194,179567,1,0,0:0:0:0:
252,194,179724,1,8,0:0:0:0:
275,178,179802,1,0,0:0:0:0:
252,194,179881,1,0,0:0:0:0:
237,152,179959,1,0,0:0:0:0:
252,194,180038,1,8,0:0:0:0:
252,194,180195,1,0,0:0:0:0:
252,194,180352,1,8,0:0:0:0:
252,194,180431,1,8,0:0:0:0:
252,194,180509,1,0,0:0:0:0:
252,194,180588,1,0,0:0:0:0:
252,194,180666,1,8,0:0:0:0:
254,140,180745,1,0,0:0:0:0:
252,194,180823,1,8,0:0:0:0:
252,194,180902,1,8,0:0:0:0:
252,194,180980,1,0,0:0:0:0:
252,194,181137,1,0,0:0:0:0:
237,93,181216,1,0,0:0:0:0:
252,194,181294,1,8,0:0:0:0:
247,184,181452,1,8,0:0:0:0:
247,184,181530,1,0,0:0:0:0:
247,184,181609,1,8,0:0:0:0:
247,184,181766,1,0,0:0:0:0:
247,184,181923,1,8,0:0:0:0:
247,184,182080,1,8,0:0:0:0:
244,186,182158,1,0,0:0:0:0:
247,184,182237,1,8,0:0:0:0:
244,142,182315,1,8,0:0:0:0:
247,184,182394,1,0,0:0:0:0:
245,165,182472,1,0,0:0:0:0:
239,184,182551,1,8,0:0:0:0:
244,142,182708,1,0,0:0:0:0:
247,184,182865,1,8,0:0:0:0:
239,52,182944,1,0,0:0:0:0:
247,184,183022,1,0,0:0:0:0:
252,186,183179,1,8,0:0:0:0:
244,121,183258,1,8,0:0:0:0:
247,184,183336,1,8,0:0:0:0:
247,184,183493,1,0,0:0:0:0:
247,184,183572,1,0,0:0:0:0:
247,184,183650,1,8,0:0:0:0:
242,130,183729,1,0,0:0:0:0:
247,184,183808,1,8,0:0:0:0:
246,89,183886,1,0,0:0:0:0:
247,184,183965,1,8,0:0:0:0:
247,184,184043,1,8,0:0:0:0:
252,186,184122,1,0,0:0:0:0:
248,190,184279,1,0,0:0:0:0:
250,129,184357,1,0,0:0:0:0:
247,184,184436,1,8,0:0:0:0:
247,184,184593,1,0,0:0:0:0:
247,184,184750,1,8,0:0:0:0:
252,125,184828,1,0,0:0:0:0:
247,184,184907,1,0,0:0:0:0:
244,90,184986,1,0,0:0:0:0:
247,184,185064,1,8,0:0:0:0:
247,184,185221,1,0,0:0:0:0:
247,184,185378,1,8,0:0:0:0:
247,184,185457,1,8,0:0:0:0:
247,184,185535,1,0,0:0:0:0:
247,184,185614,1,0,0:0:0:0:
247,184,185692,1,8,0:0:0:0:
247,184,185849,1,0,0:0:0:0:
247,184,186006,1,8,0:0:0:0:
247,184,186085,1,0,0:0:0:0:
247,184,186164,1,8,0:0:0:0:
247,184,186242,1,8,0:0:0:0:
247,184,186321,1,0,0:0:0:0:
265,160,186399,1,0,0:0:0:0:
247,184,186478,1,8,0:0:0:0:
239,173,186635,1,0,0:0:0:0:
247,184,186792,1,8,0:0:0:0:
245,170,186949,1,8,0:0:0:0:
245,170,187027,1,8,0:0:0:0:
245,170,187106,1,0,0:0:0:0:
245,170,187185,1,0,0:0:0:0:
245,170,187263,1,8,0:0:0:0:
245,170,187342,1,0,0:0:0:0:
252,169,187420,1,0,0:0:0:0:
252,169,187499,1,0,0:0:0:0:
252,169,187577,1,8,0:0:0:0:
252,169,187734,1,4,0:0:0:0:
252,184,188048,1,4,0:0:0:0:
252,184,188363,1,12,0:0:0:0:
252,184,188677,1,12,0:0:0:0:
252,184,188991,1,4,0:0:0:0:
250,125,189305,1,0,0:0:0:0:
248,166,189462,1,0,0:0:0:0:
239,173,189776,1,8,0:0:0:0:
248,166,190090,1,0,0:0:0:0:
239,173,190247,1,8,0:0:0:0:
248,166,190404,1,0,0:0:0:0:
248,193,190719,1,8,0:0:0:0:
190,75,190876,1,0,0:0:0:0:
190,75,190954,1,0,0:0:0:0:
248,193,191033,1,8,0:0:0:0:
248,166,191190,1,0,0:0:0:0:
248,166,191347,1,0,0:0:0:0:
248,166,191504,1,8,0:0:0:0:
257,168,191818,1,8,0:0:0:0:
248,193,191975,1,0,0:0:0:0:
257,168,192132,1,8,0:0:0:0:
257,168,192446,1,0,0:0:0:0:
257,168,192603,1,8,0:0:0:0:
257,168,192760,1,8,0:0:0:0:
248,166,192917,1,0,0:0:0:0:
248,166,193075,1,8,0:0:0:0:
248,166,193153,1,0,0:0:0:0:
248,166,193232,1,8,0:0:0:0:
248,166,193310,1,8,0:0:0:0:
248,166,193389,1,0,0:0:0:0:
248,166,193467,1,0,0:0:0:0:
248,166,193546,1,8,0:0:0:0:
248,166,193624,1,0,0:0:0:0:
248,166,193703,1,0,0:0:0:0:
248,166,193781,1,0,0:0:0:0:
248,166,193860,1,8,0:0:0:0:
248,166,193938,1,8,0:0:0:0:
248,166,194017,1,0,0:0:0:0:
248,166,194174,1,12,0:0:0:0:
248,166,194331,1,0,0:0:0:0:
248,166,194488,1,0,0:0:0:0:
248,166,194645,1,12,0:0:0:0:
248,166,194802,1,0,0:0:0:0:
248,166,194959,1,0,0:0:0:0:
248,166,195116,1,12,0:0:0:0:
248,166,195274,1,0,0:0:0:0:
248,166,195431,1,0,0:0:0:0:
248,166,195588,1,12,0:0:0:0:
248,166,195745,1,0,0:0:0:0:
248,166,195902,1,0,0:0:0:0:
248,166,196059,1,12,0:0:0:0:
248,166,196216,1,0,0:0:0:0:
248,166,196373,1,12,0:0:0:0:
248,166,196530,1,0,0:0:0:0:
207,31,196609,1,0,0:0:0:0:
248,166,196687,1,8,0:0:0:0:
248,166,196766,1,8,0:0:0:0:
248,166,196844,1,0,0:0:0:0:
237,153,196923,1,8,0:0:0:0:
248,166,197001,1,0,0:0:0:0:
248,156,197080,1,0,0:0:0:0:
248,166,197158,1,8,0:0:0:0:
248,166,197237,1,8,0:0:0:0:
248,166,197315,1,8,0:0:0:0:
248,166,197394,1,8,0:0:0:0:
248,166,197472,1,0,0:0:0:0:
248,156,197551,1,0,0:0:0:0:
248,166,197630,1,8,0:0:0:0:
248,156,197708,1,0,0:0:0:0:
248,166,197787,1,8,0:0:0:0:
248,166,197865,1,8,0:0:0:0:
248,166,197944,1,0,0:0:0:0:
248,166,198022,5,8,0:0:0:0:
248,166,198101,1,0,0:0:0:0:
248,166,198179,1,8,0:0:0:0:
248,166,198258,1,0,0:0:0:0:
248,166,198336,1,0,0:0:0:0:
248,166,198415,1,8,0:0:0:0:
248,166,198493,1,0,0:0:0:0:
248,166,198572,1,8,0:0:0:0:
248,166,198650,1,8,0:0:0:0:
248,166,198729,1,0,0:0:0:0:
264,110,198808,1,0,0:0:0:0:
255,174,198886,1,8,0:0:0:0:
255,174,199043,5,4,0:0:0:0:
253,155,199357,5,0,0:0:0:0:
253,155,199514,1,8,0:0:0:0:
253,155,199671,1,0,0:0:0:0:
253,155,199750,1,0,0:0:0:0:
253,155,199828,1,8,0:0:0:0:
253,155,199986,1,0,0:0:0:0:
253,155,200143,1,8,0:0:0:0:
253,155,200300,1,8,0:0:0:0:
253,155,200378,1,0,0:0:0:0:
253,155,200457,1,8,0:0:0:0:
253,155,200535,1,8,0:0:0:0:
253,155,200614,1,0,0:0:0:0:
253,155,200771,1,8,0:0:0:0:
248,149,200928,1,0,0:0:0:0:
248,149,201085,1,8,0:0:0:0:
248,149,201164,1,8,0:0:0:0:
248,149,201242,1,0,0:0:0:0:
248,149,201321,1,0,0:0:0:0:
248,149,201399,1,8,0:0:0:0:
271,157,201556,1,8,0:0:0:0:
271,157,201635,1,8,0:0:0:0:
271,157,201713,1,0,0:0:0:0:
253,155,201870,1,0,0:0:0:0:
253,155,202027,1,8,0:0:0:0:
253,155,202185,1,0,0:0:0:0:
253,155,202263,1,0,0:0:0:0:
253,155,202342,1,8,0:0:0:0:
253,155,202499,1,0,0:0:0:0:
253,155,202656,1,8,0:0:0:0:
253,155,202813,1,8,0:0:0:0:
236,104,202891,1,8,0:0:0:0:
253,155,202970,1,0,0:0:0:0:
253,155,203127,1,8,0:0:0:0:
263,153,203205,1,0,0:0:0:0:
253,155,203284,1,8,0:0:0:0:
248,149,203441,1,0,0:0:0:0:
248,149,203598,1,8,0:0:0:0:
248,149,203677,1,0,0:0:0:0:
248,149,203755,1,8,0:0:0:0:
248,149,203834,1,0,0:0:0:0:
248,149,203912,1,8,0:0:0:0:
248,149,204069,1,4,0:0:0:0:
253,155,204383,1,0,0:0:0:0:
253,155,204541,1,8,0:0:0:0:
253,155,204698,1,0,0:0:0:0:
261,162,204776,1,0,0:0:0:0:
253,155,204855,1,8,0:0:0:0:
253,155,205012,1,0,0:0:0:0:
253,155,205169,1,8,0:0:0:0:
253,155,205247,1,0,0:0:0:0:
253,155,205326,1,0,0:0:0:0:
253,155,205483,1,8,0:0:0:0:
239,142,205561,1,8,0:0:0:0:
253,155,205640,1,0,0:0:0:0:
239,142,205719,1,0,0:0:0:0:
239,142,205797,1,8,0:0:0:0:
239,142,205876,1,8,0:0:0:0:
239,142,205954,1,0,0:0:0:0:
239,142,206033,1,0,0:0:0:0:
239,142,206111,1,8,0:0:0:0:
239,142,206190,1,0,0:0:0:0:
239,142,206268,1,8,0:0:0:0:
248,149,206347,1,0,0:0:0:0:
248,149,206425,1,8,0:0:0:0:
248,149,206582,1,4,0:0:0:0:
241,183,206897,1,0,0:0:0:0:
239,177,207054,1,8,0:0:0:0:
239,177,207132,1,8,0:0:0:0:
231,178,207211,1,0,0:0:0:0:
252,174,207289,1,0,0:0:0:0:
239,177,207368,1,8,0:0:0:0:
239,177,207525,1,0,0:0:0:0:
259,125,207603,1,0,0:0:0:0:
241,183,207682,1,8,0:0:0:0:
241,183,207839,1,0,0:0:0:0:
239,177,207996,1,8,0:0:0:0:
239,177,208075,1,0,0:0:0:0:
239,177,208153,1,0,0:0:0:0:
252,174,208232,1,0,0:0:0:0:
239,177,208310,1,8,0:0:0:0:
229,172,208389,1,8,0:0:0:0:
239,177,208467,1,0,0:0:0:0:
241,183,208624,1,8,0:0:0:0:
241,183,208781,1,0,0:0:0:0:
266,142,208860,1,0,0:0:0:0:
241,183,208938,1,8,0:0:0:0:
219,141,209095,1,8,0:0:0:0:
208,94,209174,1,8,0:0:0:0:
219,141,209253,1,0,0:0:0:0:
231,178,209410,1,0,0:0:0:0:
231,178,209567,1,8,0:0:0:0:
238,170,209645,1,0,0:0:0:0:
241,183,209724,1,8,0:0:0:0:
241,183,209802,1,8,0:0:0:0:
238,170,209881,1,0,0:0:0:0:
239,177,210038,1,0,0:0:0:0:
252,174,210116,1,0,0:0:0:0:
238,170,210195,1,8,0:0:0:0:
238,170,210352,1,0,0:0:0:0:
238,170,210509,1,8,0:0:0:0:
238,170,210588,1,0,0:0:0:0:
245,182,210666,1,8,0:0:0:0:
252,174,210745,1,0,0:0:0:0:
245,182,210823,1,8,0:0:0:0:
252,174,210902,1,8,0:0:0:0:
245,182,210980,1,0,0:0:0:0:
239,177,211059,1,0,0:0:0:0:
238,170,211137,1,8,0:0:0:0:
238,170,211216,1,0,0:0:0:0:
238,170,211294,1,8,0:0:0:0:
238,170,211373,1,0,0:0:0:0:
238,170,211452,1,8,0:0:0:0:
239,177,211609,1,4,0:0:0:0:
241,183,211923,1,0,0:0:0:0:
269,87,212001,1,0,0:0:0:0:
239,177,212080,1,8,0:0:0:0:
239,177,212158,1,0,0:0:0:0:
231,178,212237,1,0,0:0:0:0:
238,170,212315,1,0,0:0:0:0:
239,177,212394,1,8,0:0:0:0:
252,174,212472,1,8,0:0:0:0:
239,177,212551,1,0,0:0:0:0:
252,174,212630,1,0,0:0:0:0:
241,183,212708,1,8,0:0:0:0:
252,174,212787,1,0,0:0:0:0:
241,183,212865,1,0,0:0:0:0:
249,168,212944,1,0,0:0:0:0:
239,177,213022,1,8,0:0:0:0:
239,177,213101,1,8,0:0:0:0:
239,177,213179,1,8,0:0:0:0:
236,173,213258,1,0,0:0:0:0:
239,177,213336,1,8,0:0:0:0:
252,174,213415,1,8,0:0:0:0:
239,177,213493,1,0,0:0:0:0:
252,174,213572,1,0,0:0:0:0:
241,183,213650,1,8,0:0:0:0:
241,183,213729,1,0,0:0:0:0:
241,183,213808,1,8,0:0:0:0:
252,174,213886,1,0,0:0:0:0:
241,183,213965,1,8,0:0:0:0:
252,174,214043,1,0,0:0:0:0:
239,161,214122,1,8,0:0:0:0:
239,161,214200,1,8,0:0:0:0:
239,161,214279,1,0,0:0:0:0:
239,161,214357,1,0,0:0:0:0:
231,178,214436,1,0,0:0:0:0:
239,161,214514,1,0,0:0:0:0:
231,178,214593,1,8,0:0:0:0:
238,170,214671,1,0,0:0:0:0:
241,183,214750,1,0,0:0:0:0:
241,183,214828,1,0,0:0:0:0:
238,170,214907,1,8,0:0:0:0:
234,164,214986,1,8,0:0:0:0:
239,177,215064,1,0,0:0:0:0:
234,164,215143,1,0,0:0:0:0:
238,170,215221,1,8,0:0:0:0:
234,164,215300,1,0,0:0:0:0:
238,181,215378,1,0,0:0:0:0:
238,181,215457,1,0,0:0:0:0:
238,170,215535,1,8,0:0:0:0:
238,181,215614,1,8,0:0:0:0:
234,164,215692,1,8,0:0:0:0:
237,169,215771,1,0,0:0:0:0:
245,182,215849,1,8,0:0:0:0:
234,164,215928,1,8,0:0:0:0:
245,182,216006,1,0,0:0:0:0:
239,177,216085,1,0,0:0:0:0:
238,170,216164,1,8,0:0:0:0:
238,170,216242,1,0,0:0:0:0:
238,170,216321,1,8,0:0:0:0:
250,175,216399,1,0,0:0:0:0:
250,175,216478,1,8,0:0:0:0:
238,170,216635,1,4,0:0:0:0:
239,161,219148,1,4,0:0:0:0:
